osu file format v13

[General]
AudioFilename: himikogeewheredidigetthismp3.mp3
AudioLeadIn: 0
PreviewTime: 91807
Countdown: 1
SampleSet: Soft
StackLeniency: 0.7
Mode: 0
LetterboxInBreaks: 1
WidescreenStoryboard: 0

[Editor]
Bookmarks: 46483
DistanceSpacing: 1.8
BeatDivisor: 4
GridSize: 4
TimelineZoom: 1.8

[Metadata]
Title:Himiko
TitleUnicode:Himiko
Artist:Suzaku VS Genbu
ArtistUnicode:Suzaku VS Genbu
Creator:EvilElvis
Version:Extreme
Source:
Tags:iyasine Delis 340
BeatmapID:480405
BeatmapSetID:203212

[Difficulty]
HPDrainRate:7
CircleSize:4.4
OverallDifficulty:8
ApproachRate:9.2
SliderMultiplier:1.7
SliderTickRate:1

[Events]
//Background and Video events
0,0,"himibg2.jpg",0,0
//Break Periods
2,46278,55886
//Storyboard Layer 0 (Background)
//Storyboard Layer 1 (Fail)
//Storyboard Layer 2 (Pass)
//Storyboard Layer 3 (Foreground)
//Storyboard Sound Samples
//Background Colour Transformations
3,100,163,162,255

[TimingPoints]
350,324.324324324324,4,2,1,60,1,0
512,-200,4,2,1,60,0,0
6998,-100,4,2,1,60,0,0
28404,-100,4,1,1,60,0,0
28890,-100,4,2,1,60,0,0
33755,-200,4,2,1,60,0,0
34079,324.324324324324,3,1,2,60,1,0
34079,-66.6666666666667,3,2,1,60,0,0
34403,-100,3,2,1,60,0,0
37970,-66.6666666666667,3,2,1,60,0,0
38295,-200,3,2,1,60,0,0
38619,-133.333333333333,3,2,1,60,0,0
38943,-100,3,2,1,60,0,0
39592,-200,3,2,1,60,0,0
39916,-66.6666666666667,3,2,1,60,0,0
44781,324.324324324324,4,1,1,60,1,0
56456,-100,4,2,1,60,0,0
66510,-200,4,1,1,60,0,0
66835,324.324324324324,4,1,2,60,1,0
66916,-100,4,2,2,20,0,0
70078,-100,4,2,2,30,0,0
72024,-100,4,2,2,40,0,0
72672,-100,4,2,2,45,0,0
75267,-100,4,2,2,50,0,0
81105,-100,4,2,2,60,0,0
90186,324.324324324324,3,1,1,60,1,0
91158,-200,3,1,1,60,0,0
92131,324.324324324324,4,1,1,60,1,0
92131,-52.6315789473684,4,2,1,70,0,1
92293,-76.9230769230769,4,2,1,70,0,1
102509,-52.6315789473684,4,2,1,70,0,0
102671,-76.9230769230769,4,2,1,70,0,0
112887,685.714285714286,4,2,1,70,1,0
112887,-100,4,2,1,70,0,0
118372,705.882352941176,4,2,1,70,1,0
122607,727.272727272727,4,2,1,70,1,0

[HitObjects]
177,360,350,5,0,0:0:0:0:
177,360,998,2,0,P|180:303|101:252,1,148.75
136,230,1647,1,0,0:0:0:0:
162,159,1809,1,0,0:0:0:0:
145,81,1971,1,0,0:0:0:0:
214,42,2133,1,0,0:0:0:0:
229,119,2295,1,0,0:0:0:0:
12,172,2458,6,0,P|41:151|103:144,1,85
229,197,2944,2,0,P|249:223|256:287,1,85
258,273,4241,6,0,L|168:293,1,85
146,375,4728,2,0,L|236:355,1,85
73,191,5214,5,0,0:0:0:0:
73,191,5701,1,0,0:0:0:0:
73,191,6025,6,0,P|111:175|247:284,1,233.75
307,352,6998,6,0,B|279:297|267:181|356:315|350:171|301:92,1,255
356,46,7566,1,0,0:0:0:0:
327,36,7647,1,0,0:0:0:0:
297,37,7728,1,0,0:0:0:0:
270,49,7809,1,0,0:0:0:0:
250,71,7890,1,0,1:0:0:0:
238,98,7971,1,0,0:0:0:0:
237,127,8052,1,0,0:0:0:0:
171,159,8133,6,0,B|187:196|187:196|171:250,1,85,4|0,1:0|0:0,0:0:0:0:
16,237,8458,2,0,B|0:200|0:200|16:146,1,85,0|2,1:0|0:0,0:0:0:0:
6,128,8701,1,2,0:0:0:0:
13,99,8782,6,0,B|75:82|75:82|103:96|103:96|173:76,1,170,0|0,1:0|1:0,0:0:0:0:
314,119,9268,1,0,0:0:0:0:
275,246,9431,1,0,1:0:0:0:
164,183,9593,1,0,0:0:0:0:
322,6,9755,1,0,1:0:0:0:
351,6,9836,1,0,0:0:0:0:
376,22,9917,1,2,0:0:0:0:
387,49,9998,1,2,0:0:0:0:
421,43,10079,6,0,L|412:106,1,42.5,0|0,1:0|1:0,0:0:0:0:
438,67,10241,2,0,L|422:167,1,85,0|0,0:0|1:0,0:0:0:0:
332,197,10566,1,0,0:0:0:0:
392,288,10728,2,0,B|429:295|429:295|481:283,1,85,0|0,1:0|0:0,0:0:0:0:
374,374,11052,2,0,B|332:382|332:382|272:361,1,85,0|2,1:0|0:0,0:0:0:0:
286,353,11295,1,2,0:0:0:0:
269,380,11377,6,0,L|285:201,1,170,0|0,1:0|1:0,0:0:0:0:
296,126,11863,1,0,0:0:0:0:
303,36,12025,5,0,1:0:0:0:
263,21,12106,1,0,0:0:0:0:
220,24,12187,1,0,1:0:0:0:
183,46,12268,1,0,0:0:0:0:
164,84,12349,2,0,B|121:91|121:91|66:77,1,85,0|0,1:0|0:0,0:0:0:0:
81,247,12674,2,0,L|74:186,1,42.5,0|0,1:0|1:0,0:0:0:0:
93,253,12836,2,0,L|75:142,1,85,0|0,0:0|1:0,0:0:0:0:
0,277,13160,1,0,1:0:0:0:
72,343,13322,5,0,1:0:0:0:
106,360,13404,1,0,0:0:0:0:
143,364,13485,1,0,0:0:0:0:
178,350,13566,1,0,0:0:0:0:
198,317,13647,2,0,L|183:206,1,85,0|2,1:0|0:0,0:0:0:0:
188,158,13890,1,2,0:0:0:0:
201,149,13971,2,0,L|185:1,1,127.5,0|0,1:0|0:0,0:0:0:0:
105,27,14295,6,0,B|97:68|97:68|119:115,1,85,0|0,1:0|0:0,0:0:0:0:
282,178,14620,2,0,B|290:137|290:137|268:90,1,85,0|0,1:0|0:0,0:0:0:0:
57,219,14944,1,0,1:0:0:0:
88,231,15025,1,0,0:0:0:0:
121,232,15106,1,2,0:0:0:0:
153,220,15187,1,2,0:0:0:0:
171,191,15268,2,0,L|170:266,1,42.5,0|0,1:0|1:0,0:0:0:0:
185,264,15431,1,0,0:0:0:0:
285,188,15593,1,0,1:0:0:0:
191,106,15755,1,0,0:0:0:0:
171,363,15917,6,0,P|131:355|77:351,1,85,0|0,1:0|0:0,0:0:0:0:
251,330,16241,2,0,P|290:321|346:323,1,85,0|2,1:0|0:0,0:0:0:0:
422,340,16485,1,2,0:0:0:0:
411,365,16566,2,0,B|388:253|446:309|412:199,1,170,0|0,1:0|1:0,0:0:0:0:
400,168,16971,1,0,1:0:0:0:
406,134,17052,1,0,1:0:0:0:
430,50,17214,5,4,1:2:0:0:
502,297,17377,1,4,1:2:0:0:
271,224,17539,1,0,0:0:0:0:
299,205,17620,1,0,0:0:0:0:
332,197,17701,1,0,1:0:0:0:
365,194,17782,1,0,1:0:0:0:
397,202,17863,1,0,1:0:0:0:
487,143,18025,1,0,1:0:0:0:
314,114,18187,1,4,1:2:0:0:
270,131,18268,1,0,0:0:0:0:
223,136,18349,1,4,1:2:0:0:
175,132,18431,1,0,0:0:0:0:
155,174,18512,6,0,L|145:59,1,85,4|2,1:0|0:0,0:0:0:0:
107,341,18836,2,0,L|117:226,1,85,0|2,1:0|0:0,0:0:0:0:
143,10,19160,2,0,L|2:33,1,127.5,0|0,1:0|0:0,0:0:0:0:
45,43,19485,1,0,1:0:0:0:
98,112,19647,1,0,0:0:0:0:
82,200,19809,6,0,P|51:208|21:212,1,42.5,4|0,1:2|0:0,0:0:0:0:
0,283,19971,2,0,P|20:287|41:292,1,42.5,2|0,0:0|1:0,0:0:0:0:
134,273,20133,2,0,L|129:372,1,85,0|2,1:0|0:0,0:0:0:0:
18,119,20458,1,0,1:0:0:0:
56,101,20539,1,0,0:0:0:0:
98,98,20620,1,0,1:0:0:0:
137,114,20701,1,0,0:0:0:0:
170,139,20782,2,0,L|161:33,1,85,0|0,1:0|0:0,0:0:0:0:
286,20,21106,6,0,B|272:64|272:64|288:122,1,85,4|2,1:2|0:0,0:0:0:0:
438,209,21431,2,0,B|452:165|452:165|436:107,1,85,0|2,1:0|0:0,0:0:0:0:
299,227,21755,2,0,L|317:361,1,127.5,0|0,1:0|0:0,0:0:0:0:
319,240,22079,2,0,L|328:150,1,85,0|0,1:0|0:0,0:0:0:0:
342,52,22404,6,0,L|299:65,1,42.5,4|0,1:2|0:0,0:0:0:0:
220,37,22566,2,0,L|167:47,1,42.5,2|0,1:2|0:0,0:0:0:0:
113,95,22728,1,0,1:0:0:0:
83,88,22809,1,0,0:0:0:0:
54,79,22890,1,2,0:0:0:0:
24,73,22971,1,0,1:0:0:0:
28,102,23052,2,0,L|43:152,1,42.5,0|0,1:0|0:0,0:0:0:0:
84,208,23214,2,0,L|71:257,1,42.5,0|0,1:0|0:0,0:0:0:0:
53,328,23377,2,0,L|146:341,1,85,0|0,1:0|1:0,0:0:0:0:
244,361,23701,6,0,B|249:296|249:296|269:271|269:271|279:186,1,170,4|0,1:2|1:0,0:0:0:0:
290,109,24187,1,2,0:0:0:0:
293,24,24349,2,0,B|250:11|250:11|207:24,1,85,0|0,1:0|0:0,0:0:0:0:
139,150,24674,2,0,B|182:163|182:163|225:150,1,85,0|0,1:0|0:0,0:0:0:0:
379,144,24998,6,0,L|392:207,1,42.5,4|0,1:2|0:0,0:0:0:0:
451,254,25160,2,0,L|438:317,1,42.5,2|0,0:0|1:0,0:0:0:0:
388,372,25322,2,0,L|295:384,1,85,0|2,1:0|0:0,0:0:0:0:
184,301,25647,1,0,1:0:0:0:
213,305,25728,1,0,0:0:0:0:
242,310,25809,1,0,1:0:0:0:
223,286,25890,1,0,0:0:0:0:
210,258,25971,2,0,P|214:219|221:153,1,85,0|0,1:0|0:0,0:0:0:0:
296,121,26295,6,0,P|292:82|285:16,1,85,4|2,1:2|0:0,0:0:0:0:
172,20,26620,1,0,1:0:0:0:
183,61,26701,1,0,0:0:0:0:
167,100,26782,1,2,0:0:0:0:
129,120,26863,1,0,0:0:0:0:
161,147,26944,2,0,P|123:147|64:154,1,85,0|0,1:0|0:0,0:0:0:0:
14,242,27268,5,0,1:0:0:0:
42,353,27431,1,0,1:0:0:0:
333,161,27593,5,4,1:0:0:0:
305,50,27756,1,4,1:2:0:0:
198,206,27917,5,0,1:0:0:0:
187,238,27998,1,0,0:0:0:0:
188,271,28079,1,0,1:0:0:0:
202,301,28160,1,0,0:0:0:0:
196,334,28241,2,0,P|228:337|270:339,1,42.5,0|0,1:0|0:0,0:0:0:0:
308,308,28404,6,0,L|329:318,3,21.25
379,371,28566,6,0,L|428:356,1,42.5
497,329,28728,2,0,L|486:284,1,42.5
453,209,28890,5,4,1:0:0:0:
492,140,29052,1,0,0:0:0:0:
488,119,29133,1,2,0:0:0:0:
449,24,29296,1,0,0:0:0:0:
454,44,29377,1,2,0:0:0:0:
397,116,29539,1,0,0:0:0:0:
386,120,29620,1,0,0:0:0:0:
369,122,29701,1,2,0:0:0:0:
345,124,29782,1,0,0:0:0:0:
319,117,29863,1,2,0:0:0:0:
296,108,29944,1,0,0:0:0:0:
279,88,30025,1,0,0:0:0:0:
247,14,30187,5,0,1:0:0:0:
205,137,30349,1,0,0:0:0:0:
209,157,30431,1,2,0:0:0:0:
287,190,30593,1,2,0:0:0:0:
279,209,30674,1,0,0:0:0:0:
256,292,30836,1,2,0:0:0:0:
255,313,30917,1,0,0:0:0:0:
257,334,30998,1,2,0:0:0:0:
237,326,31079,1,0,0:0:0:0:
215,326,31160,1,2,0:0:0:0:
195,333,31241,1,0,0:0:0:0:
174,337,31322,1,0,0:0:0:0:
152,334,31404,1,0,0:0:0:0:
83,332,31485,5,0,1:0:0:0:
78,348,31566,1,0,0:0:0:0:
78,364,31647,1,0,0:0:0:0:
36,220,31809,1,0,0:0:0:0:
41,236,31890,1,2,0:0:0:0:
41,252,31971,1,0,0:0:0:0:
105,151,32133,1,2,0:0:0:0:
46,74,32295,1,2,0:0:0:0:
49,90,32377,1,2,0:0:0:0:
117,15,32539,1,2,0:0:0:0:
114,31,32620,1,2,0:0:0:0:
174,97,32782,5,0,1:0:0:0:
196,109,32863,1,0,0:0:0:0:
220,114,32944,1,2,0:0:0:0:
245,115,33025,1,0,0:0:0:0:
269,108,33106,1,4,0:0:0:0:
366,127,33268,1,2,0:0:0:0:
500,173,33431,1,0,1:0:0:0:
474,170,33512,1,0,1:0:0:0:
440,173,33593,1,0,1:0:0:0:
411,196,33674,1,0,1:0:0:0:
390,231,33755,6,0,L|395:309,1,63.75,4|0,0:0|0:0,0:0:0:0:
323,350,34079,6,0,L|183:365,1,127.500004863739,4|0,1:0|0:0,0:0:0:0:
25,260,34403,1,0,1:2:0:0:
60,244,34484,1,0,0:0:0:0:
98,246,34565,1,0,0:0:0:0:
131,264,34646,1,0,0:0:0:0:
157,291,34727,1,0,1:0:0:0:
193,302,34808,1,0,0:0:0:0:
231,305,34889,1,0,0:0:0:0:
265,287,34970,1,0,0:0:0:0:
283,253,35051,5,0,1:0:0:0:
256,281,35133,1,0,0:0:0:0:
254,319,35214,1,0,0:0:0:0:
276,350,35295,1,0,0:0:0:0:
313,354,35376,1,0,1:0:0:0:
349,341,35457,1,0,0:0:0:0:
360,304,35538,1,0,0:0:0:0:
346,268,35619,1,0,0:0:0:0:
315,244,35700,1,0,1:0:0:0:
299,209,35781,1,0,0:0:0:0:
315,174,35862,1,0,0:0:0:0:
346,152,35943,1,0,0:0:0:0:
388,152,36024,5,0,1:0:0:0:
430,159,36106,1,0,0:0:0:0:
469,142,36187,1,0,1:0:0:0:
487,103,36268,1,0,1:0:0:0:
484,60,36349,1,0,1:2:0:0:
454,29,36430,1,0,0:0:0:0:
412,19,36511,1,2,0:0:0:0:
372,35,36592,1,2,0:0:0:0:
350,73,36673,1,0,1:0:0:0:
356,113,36754,1,2,0:0:0:0:
385,133,36835,5,2,0:0:0:0:
422,142,36916,1,0,0:0:0:0:
458,130,36997,1,2,1:2:0:0:
472,94,37079,1,2,0:0:0:0:
456,58,37160,1,2,0:0:0:0:
422,40,37241,1,0,0:0:0:0:
385,49,37322,1,2,1:2:0:0:
381,89,37403,5,0,0:0:0:0:
393,100,37484,1,2,0:0:0:0:
409,105,37565,1,2,0:0:0:0:
425,103,37646,1,0,1:0:0:0:
438,93,37727,1,2,0:0:0:0:
447,78,37808,1,2,0:0:0:0:
444,61,37889,1,0,0:0:0:0:
501,12,37970,6,0,L|341:30,1,127.500004863739,4|0,1:0|0:0,0:0:0:0:
0,79,38295,5,0,1:0:0:0:
6,73,38457,5,0,1:0:0:0:
22,64,38619,5,0,1:0:0:0:
86,39,38781,5,0,1:0:0:0:
172,56,38943,5,0,1:0:0:0:
237,115,39106,5,0,1:0:0:0:
232,138,39187,1,0,1:0:0:0:
198,158,39268,1,0,1:0:0:0:
186,196,39349,1,0,1:0:0:0:
192,236,39430,1,0,1:0:0:0:
218,264,39511,1,0,1:0:0:0:
198,287,39592,6,0,P|228:292|270:301,1,63.75,4|0,0:0|0:0,0:0:0:0:
290,365,39916,6,0,L|431:351,1,127.500004863739,4|0,1:0|0:0,0:0:0:0:
495,140,40241,1,0,1:0:0:0:
483,135,40322,1,0,0:0:0:0:
470,141,40403,1,0,0:0:0:0:
457,141,40484,1,0,0:0:0:0:
453,153,40565,1,0,1:0:0:0:
441,158,40646,1,0,0:0:0:0:
443,170,40727,1,0,0:0:0:0:
433,178,40808,1,0,0:0:0:0:
440,188,40889,5,0,1:0:0:0:
450,211,40970,1,0,0:0:0:0:
455,235,41051,1,0,0:0:0:0:
455,260,41133,1,0,0:0:0:0:
445,283,41214,1,0,1:0:0:0:
477,282,41295,1,0,0:0:0:0:
460,304,41376,1,0,0:0:0:0:
458,316,41457,1,0,0:0:0:0:
456,328,41538,1,0,1:0:0:0:
433,340,41619,1,0,0:0:0:0:
408,346,41700,2,0,L|341:360,1,63.7500024318696
259,370,41862,5,0,1:0:0:0:
284,372,41943,1,0,1:0:0:0:
309,371,42024,1,0,1:0:0:0:
331,357,42106,1,0,0:0:0:0:
345,336,42187,1,2,1:2:0:0:
348,310,42268,1,0,0:0:0:0:
341,285,42349,1,2,0:0:0:0:
325,256,42430,1,2,0:0:0:0:
297,239,42511,1,0,1:0:0:0:
265,236,42592,1,2,0:0:0:0:
235,246,42673,1,2,0:0:0:0:
213,269,42754,1,0,0:0:0:0:
183,281,42835,5,2,1:2:0:0:
151,285,42916,1,2,0:0:0:0:
119,282,42997,1,2,0:0:0:0:
90,268,43078,1,0,0:0:0:0:
69,235,43160,1,2,1:2:0:0:
71,196,43241,1,0,0:0:0:0:
94,165,43322,1,2,0:0:0:0:
84,128,43403,1,2,0:0:0:0:
55,102,43484,1,0,1:0:0:0:
76,78,43565,1,2,0:0:0:0:
86,48,43646,1,2,0:0:0:0:
90,16,43727,1,0,0:0:0:0:
162,66,43808,6,0,P|165:129|172:193,1,127.500004863739,4|0,1:0|0:0,0:0:0:0:
186,288,44133,5,0,1:0:0:0:
197,313,44295,5,0,1:0:0:0:
259,361,44457,5,0,1:0:0:0:
355,375,44619,5,0,1:0:0:0:
448,336,44781,5,4,1:0:0:0:
484,229,44943,5,0,1:0:0:0:
486,220,45024,1,0,1:0:0:0:
488,207,45105,1,0,1:0:0:0:
489,190,45186,1,0,1:0:0:0:
487,168,45267,1,0,1:0:0:0:
477,144,45348,1,0,1:0:0:0:
457,121,45429,1,0,1:0:0:0:
482,98,45510,1,0,1:0:0:0:
491,60,45591,1,0,1:0:0:0:
480,18,45672,1,0,1:0:0:0:
407,62,45753,6,0,L|380:72,7,21.25
383,47,46078,5,4,0:0:0:0:
27,191,56456,5,4,1:0:0:0:
59,202,56618,1,2,0:0:0:0:
92,204,56780,1,2,0:0:0:0:
125,197,56943,1,2,0:0:0:0:
238,37,57105,5,2,0:0:0:0:
238,37,57591,5,2,0:0:0:0:
219,65,57753,1,2,0:0:0:0:
211,98,57916,1,2,0:0:0:0:
213,131,58078,1,2,0:0:0:0:
226,162,58240,1,2,0:0:0:0:
251,354,58402,5,2,0:0:0:0:
251,354,58564,1,0,0:0:0:0:
251,354,58889,5,2,0:0:0:0:
234,314,59051,1,2,0:0:0:0:
244,272,59213,1,2,0:0:0:0:
273,241,59375,1,2,0:0:0:0:
314,230,59537,1,2,0:0:0:0:
488,214,59699,5,0,0:0:0:0:
488,214,60024,1,0,0:0:0:0:
488,214,60348,5,2,0:0:0:0:
441,192,60510,1,2,0:0:0:0:
411,150,60672,1,2,0:0:0:0:
399,100,60835,1,2,0:0:0:0:
265,331,60997,5,4,0:0:0:0:
265,331,61645,5,2,0:0:0:0:
226,311,61808,1,2,0:0:0:0:
183,314,61970,1,2,0:0:0:0:
144,331,62132,1,2,0:0:0:0:
118,365,62294,1,2,0:0:0:0:
31,81,62780,5,0,0:0:0:0:
79,90,62943,1,2,0:0:0:0:
129,83,63105,1,2,0:0:0:0:
166,48,63267,1,2,0:0:0:0:
181,96,63429,1,2,0:0:0:0:
208,138,63591,1,2,0:0:0:0:
254,159,63753,1,0,0:0:0:0:
135,157,63916,5,2,0:0:0:0:
123,206,64078,1,0,0:0:0:0:
118,256,64240,5,2,0:0:0:0:
118,256,64889,5,0,0:0:0:0:
120,272,65213,1,0,0:0:0:0:
124,289,65537,1,0,0:0:0:0:
124,289,66186,5,0,1:0:0:0:
251,162,66348,1,0,1:0:0:0:
73,134,66510,1,0,1:0:0:0:
73,134,66835,5,4,1:0:0:0:
69,154,66916,1,0,0:0:0:0:
69,175,66997,1,0,0:0:0:0:
71,196,67078,1,0,0:0:0:0:
77,216,67159,1,0,1:0:0:0:
151,168,67321,1,0,1:0:0:0:
83,233,67483,1,0,0:0:0:0:
90,252,67564,1,0,0:0:0:0:
93,272,67645,1,0,1:0:0:0:
92,293,67726,1,0,0:0:0:0:
86,313,67807,1,0,1:0:0:0:
11,271,67970,1,0,0:0:0:0:
176,254,68132,5,0,1:0:0:0:
200,247,68213,1,0,0:0:0:0:
225,248,68294,1,0,0:0:0:0:
247,259,68375,1,0,0:0:0:0:
264,277,68456,1,0,1:0:0:0:
276,298,68537,1,0,0:0:0:0:
277,323,68618,1,0,1:0:0:0:
293,341,68699,1,0,0:0:0:0:
312,325,68780,1,0,0:0:0:0:
337,319,68862,1,0,0:0:0:0:
362,319,68943,1,0,1:0:0:0:
386,325,69024,1,0,0:0:0:0:
408,336,69105,1,0,1:0:0:0:
503,280,69267,5,0,0:0:0:0:
430,353,69429,1,0,1:0:0:0:
436,328,69510,1,0,0:0:0:0:
436,302,69591,1,0,1:0:0:0:
431,276,69672,1,0,0:0:0:0:
421,252,69753,5,0,1:0:0:0:
495,178,69916,1,0,1:0:0:0:
410,225,70078,1,0,0:0:0:0:
406,199,70159,1,0,0:0:0:0:
406,173,70240,1,0,1:0:0:0:
409,147,70321,1,0,0:0:0:0:
421,125,70402,1,0,1:0:0:0:
434,93,70483,1,0,0:0:0:0:
435,59,70564,1,0,0:0:0:0:
416,30,70645,1,0,0:0:0:0:
376,13,70726,5,0,1:2:0:0:
332,17,70807,1,0,0:0:0:0:
295,47,70889,1,0,0:0:0:0:
287,93,70970,1,0,0:0:0:0:
312,131,71051,1,0,0:0:0:0:
510,66,71213,1,0,1:2:0:0:
121,144,71375,1,0,0:0:0:0:
157,120,71456,1,0,0:0:0:0:
198,126,71538,1,0,0:0:0:0:
233,150,71619,1,0,0:0:0:0:
244,189,71700,5,0,1:2:0:0:
41,154,71862,1,0,1:0:0:0:
407,145,72024,1,0,1:0:0:0:
369,138,72105,1,0,0:0:0:0:
338,160,72186,1,0,0:0:0:0:
320,193,72267,1,0,0:0:0:0:
327,230,72348,1,0,1:2:0:0:
357,253,72429,1,0,0:0:0:0:
392,267,72510,1,0,1:0:0:0:
419,294,72591,1,0,0:0:0:0:
426,331,72672,1,0,0:0:0:0:
408,365,72753,1,0,0:0:0:0:
370,375,72835,1,0,1:0:0:0:
333,362,72916,1,0,0:0:0:0:
312,329,72997,5,0,1:0:0:0:
505,362,73159,1,0,1:0:0:0:
218,341,73321,1,0,0:0:0:0:
191,328,73402,1,0,0:0:0:0:
162,319,73483,1,0,1:0:0:0:
132,320,73564,1,0,0:0:0:0:
103,327,73645,5,0,1:0:0:0:
4,212,73807,1,0,1:0:0:0:
76,346,73970,1,0,1:0:0:0:
103,326,74051,1,0,0:0:0:0:
132,319,74132,1,0,0:0:0:0:
162,318,74213,1,0,0:0:0:0:
191,327,74294,1,0,1:0:0:0:
218,340,74375,1,0,0:0:0:0:
239,360,74456,1,0,1:0:0:0:
267,366,74537,1,0,0:0:0:0:
296,370,74618,5,0,1:0:0:0:
325,366,74699,1,0,0:0:0:0:
349,348,74780,1,0,1:0:0:0:
362,321,74862,1,0,0:0:0:0:
360,291,74943,5,0,1:0:0:0:
441,238,75105,1,0,1:0:0:0:
348,262,75267,1,0,1:2:0:0:
331,237,75348,1,0,0:0:0:0:
327,207,75429,1,0,1:0:0:0:
336,178,75510,1,0,0:0:0:0:
356,156,75591,5,0,1:0:0:0:
282,107,75753,1,0,1:0:0:0:
370,124,75916,1,0,1:0:0:0:
369,81,75997,1,0,0:0:0:0:
349,43,76078,1,0,1:0:0:0:
314,18,76159,1,0,0:0:0:0:
271,16,76240,1,0,1:2:0:0:
229,26,76321,1,0,0:0:0:0:
200,59,76402,1,0,1:0:0:0:
192,100,76483,1,0,0:0:0:0:
200,141,76564,5,0,1:2:0:0:
226,173,76645,1,0,0:0:0:0:
266,185,76726,1,0,0:0:0:0:
308,186,76807,1,0,0:0:0:0:
343,162,76889,1,0,1:2:0:0:
276,104,77051,1,0,1:0:0:0:
267,276,77213,1,0,1:0:0:0:
297,261,77294,1,0,0:0:0:0:
330,255,77375,1,0,1:0:0:0:
363,259,77456,1,0,0:0:0:0:
392,275,77537,5,0,1:0:0:0:
334,338,77699,1,0,1:0:0:0:
343,162,77862,1,0,0:0:0:0:
378,175,77943,1,0,0:0:0:0:
415,181,78024,1,0,1:0:0:0:
452,173,78105,1,0,0:0:0:0:
481,148,78186,1,0,1:0:0:0:
496,113,78267,1,0,0:0:0:0:
495,74,78348,1,0,1:0:0:0:
478,39,78429,1,0,0:0:0:0:
444,21,78510,5,0,1:0:0:0:
368,11,78672,1,0,1:0:0:0:
299,43,78834,1,0,1:0:0:0:
232,81,78997,1,0,1:0:0:0:
156,92,79159,1,0,1:0:0:0:
87,58,79321,1,0,0:0:0:0:
3,198,79483,5,0,1:0:0:0:
103,167,79645,1,0,1:0:0:0:
80,257,79807,1,0,1:0:0:0:
26,112,79970,1,0,0:0:0:0:
165,236,80132,5,0,1:0:0:0:
2,291,80294,1,0,1:0:0:0:
210,160,80456,5,4,1:2:0:0:
289,199,80618,1,0,0:0:0:0:
370,210,80780,1,4,1:2:0:0:
399,214,80862,1,0,1:0:0:0:
428,212,80943,1,0,1:0:0:0:
457,207,81024,1,0,1:0:0:0:
482,190,81105,5,4,1:2:0:0:
497,109,81267,1,2,0:0:0:0:
497,271,81429,5,0,1:0:0:0:
482,190,81591,1,2,0:0:0:0:
482,353,81753,5,0,1:2:0:0:
497,272,81915,1,2,0:0:0:0:
310,180,82078,5,0,1:2:0:0:
310,180,82240,5,0,1:0:0:0:
324,144,82321,1,0,1:0:0:0:
340,109,82402,1,4,1:2:0:0:
202,174,82564,1,2,0:0:0:0:
254,329,82726,1,0,1:0:0:0:
390,242,82889,1,2,0:0:0:0:
167,352,83051,1,4,1:2:0:0:
339,313,83213,1,0,0:0:0:0:
88,282,83375,1,4,1:2:0:0:
250,365,83537,5,0,1:0:0:0:
255,329,83618,1,0,1:0:0:0:
261,295,83699,1,4,1:2:0:0:
277,117,83862,1,2,0:0:0:0:
196,248,84024,1,0,1:0:0:0:
354,158,84186,1,2,0:0:0:0:
197,169,84348,1,0,1:0:0:0:
359,240,84510,1,2,0:0:0:0:
191,80,84672,1,0,1:0:0:0:
343,326,84834,1,0,1:0:0:0:
318,349,84916,1,2,0:0:0:0:
286,360,84997,5,2,1:2:0:0:
252,362,85078,1,2,0:0:0:0:
218,356,85159,1,2,0:0:0:0:
187,341,85240,1,2,0:0:0:0:
155,329,85321,1,2,1:2:0:0:
121,324,85402,1,2,0:0:0:0:
89,336,85483,5,2,0:0:0:0:
5,255,85645,1,4,1:2:0:0:
105,307,85807,1,2,0:0:0:0:
36,236,85970,1,4,1:2:0:0:
124,277,86132,5,2,0:0:0:0:
71,208,86294,1,4,1:2:0:0:
294,261,86456,1,0,1:0:0:0:
216,305,86618,1,0,1:0:0:0:
279,90,86780,1,0,1:0:0:0:
319,168,86942,1,4,1:2:0:0:
112,111,87105,1,0,1:0:0:0:
189,71,87267,1,4,1:2:0:0:
122,275,87429,1,0,1:0:0:0:
71,205,87591,1,4,1:2:0:0:
205,182,87753,1,0,1:0:0:0:
181,352,87916,5,4,1:2:0:0:
77,366,88078,1,0,1:0:0:0:
23,121,88240,1,0,1:0:0:0:
121,139,88402,1,0,1:0:0:0:
103,242,88564,1,4,1:2:0:0:
6,220,88726,1,0,1:2:0:0:
123,53,88889,5,4,1:2:0:0:
199,98,89051,1,0,1:0:0:0:
205,182,89213,1,0,1:0:0:0:
61,357,89375,1,0,1:0:0:0:
15,289,89537,1,4,1:2:0:0:
78,234,89699,1,0,1:0:0:0:
291,288,89862,1,4,1:2:0:0:
102,266,90024,1,0,1:0:0:0:
311,264,90186,1,4,1:2:0:0:
338,274,90267,1,0,0:0:0:0:
367,278,90348,1,0,0:0:0:0:
396,277,90429,1,0,0:0:0:0:
424,267,90510,5,0,0:0:0:0:
448,249,90591,1,0,0:0:0:0:
464,224,90672,1,0,0:0:0:0:
474,196,90753,1,0,0:0:0:0:
472,166,90834,1,0,0:0:0:0:
460,138,90915,1,0,0:0:0:0:
452,109,90996,6,0,L|464:58,2,28.3333333333333
486,59,91158,6,4,B|418:71|418:71|391:92|391:92|314:99,1,170,4|0,0:0|2:0,1:0:0:0:
324,98,92131,6,0,L|232:107,1,80.7499978437424,4|0,1:0|0:0,0:0:0:0:
128,208,92293,2,0,L|203:202,1,55.2499974708558,0|0,0:0|0:0,0:0:0:0:
99,127,92455,1,0,1:0:0:0:
64,145,92536,1,0,0:0:0:0:
45,179,92617,1,0,1:0:0:0:
41,217,92698,1,0,0:0:0:0:
49,254,92779,1,0,1:0:0:0:
77,279,92860,1,0,0:0:0:0:
113,290,92941,1,0,0:0:0:0:
77,305,93022,5,0,0:0:0:0:
41,289,93103,1,0,1:0:0:0:
21,255,93185,1,0,0:0:0:0:
13,217,93266,1,0,0:0:0:0:
13,178,93347,1,0,0:0:0:0:
31,144,93428,1,0,1:0:0:0:
59,117,93509,1,0,0:0:0:0:
95,103,93590,1,0,1:0:0:0:
133,109,93671,1,0,0:0:0:0:
158,80,93752,6,0,L|150:142,1,55.2499974708558,0|0,1:0|0:0,0:0:0:0:
361,134,93914,2,0,L|354:80,1,55.2499974708558,0|0,0:0|0:0,0:0:0:0:
231,195,94076,2,0,L|320:203,1,55.2499974708558,0|0,1:0|0:0,0:0:0:0:
285,20,94239,2,0,L|229:24,1,55.2499974708558,0|0,0:0|0:0,0:0:0:0:
261,109,94401,1,0,1:0:0:0:
261,109,94482,1,0,0:0:0:0:
261,109,94563,1,0,1:0:0:0:
261,109,94644,1,0,0:0:0:0:
261,109,94725,6,0,L|326:115,1,55.2499974708558,4|0,1:2|0:0,0:0:0:0:
264,250,94887,2,0,L|319:244,1,55.2499974708558
356,44,95049,6,0,L|417:60,1,55.2499974708558,0|0,1:0|0:0,0:0:0:0:
359,316,95212,2,0,L|412:301,1,55.2499974708558,4|0,1:2|0:0,0:0:0:0:
449,126,95374,6,0,L|514:132,1,55.2499974708558
450,236,95536,2,0,L|505:230,1,55.2499974708558,0|0,1:0|0:0,0:0:0:0:
383,180,95698,5,0,1:0:0:0:
355,185,95779,1,0,0:0:0:0:
334,203,95860,1,0,1:0:0:0:
323,228,95941,1,0,0:0:0:0:
299,213,96022,6,0,L|312:278,1,55.2499974708558,4|0,1:2|0:0,0:0:0:0:
325,342,96185,1,0,1:0:0:0:
452,228,96347,1,4,1:2:0:0:
285,133,96509,1,0,1:2:0:0:
160,259,96671,1,4,1:2:0:0:
191,267,96752,1,0,1:0:0:0:
224,265,96833,1,0,1:2:0:0:
253,250,96914,1,0,0:0:0:0:
275,274,96995,6,0,L|282:209,1,55.2499974708558,0|0,1:0|0:0,0:0:0:0:
355,182,97158,2,0,L|343:121,1,55.2499974708558,0|0,1:0|0:0,0:0:0:0:
370,41,97320,5,4,1:0:0:0:
338,30,97401,1,0,0:0:0:0:
305,26,97482,1,0,0:0:0:0:
271,28,97563,1,0,0:0:0:0:
240,40,97644,1,0,0:0:0:0:
214,61,97725,1,0,0:0:0:0:
193,86,97806,1,0,0:0:0:0:
162,98,97887,1,0,0:0:0:0:
129,105,97968,1,0,0:0:0:0:
96,100,98049,1,0,0:0:0:0:
63,91,98131,1,0,0:0:0:0:
43,64,98212,1,0,0:0:0:0:
34,32,98293,6,0,L|20:95,1,55.2499974708558
69,169,98455,2,0,L|54:231,1,55.2499974708558
18,312,98617,5,0,0:0:0:0:
47,337,98698,1,0,0:0:0:0:
84,347,98779,1,0,0:0:0:0:
122,347,98860,1,0,0:0:0:0:
157,330,98941,1,0,0:0:0:0:
183,302,99022,1,0,0:0:0:0:
198,266,99103,1,0,0:0:0:0:
198,226,99185,1,0,0:0:0:0:
182,190,99266,1,0,0:0:0:0:
152,164,99347,1,0,0:0:0:0:
115,150,99428,1,0,0:0:0:0:
76,156,99509,1,0,0:0:0:0:
51,135,99590,6,0,L|58:197,1,55.2499974708558
361,241,99752,2,0,L|354:303,1,55.2499974708558
438,334,99914,5,0,0:0:0:0:
409,359,99995,1,0,0:0:0:0:
372,369,100076,1,0,0:0:0:0:
334,369,100157,1,0,0:0:0:0:
299,352,100238,1,0,0:0:0:0:
273,324,100319,1,0,0:0:0:0:
258,288,100400,1,0,0:0:0:0:
258,248,100482,1,0,0:0:0:0:
274,212,100563,5,0,0:0:0:0:
304,186,100644,1,0,0:0:0:0:
341,172,100725,1,0,0:0:0:0:
380,178,100806,1,0,0:0:0:0:
415,192,100887,1,0,0:0:0:0:
453,193,100968,1,0,0:0:0:0:
486,173,101049,1,0,0:0:0:0:
495,135,101130,1,0,0:0:0:0:
467,107,101212,6,0,L|476:49,1,55.2499974708558
407,10,101374,1,0,0:0:0:0:
409,224,101536,5,0,0:0:0:0:
480,313,101698,2,0,L|490:255,2,55.2499974708558
392,342,102022,1,0,0:0:0:0:
315,289,102185,1,0,0:0:0:0:
285,274,102266,1,0,0:0:0:0:
252,269,102347,1,0,0:0:0:0:
219,273,102428,1,0,0:0:0:0:
197,303,102509,6,0,L|192:216,1,80.7499978437424
252,129,102671,2,0,L|259:199,1,55.2499974708558
249,365,102833,1,0,0:0:0:0:
218,376,102914,1,0,0:0:0:0:
184,376,102995,1,0,0:0:0:0:
152,366,103076,1,0,0:0:0:0:
127,343,103158,5,0,0:0:0:0:
116,313,103239,1,0,0:0:0:0:
122,280,103320,1,0,0:0:0:0:
131,248,103401,1,0,0:0:0:0:
133,215,103482,1,0,0:0:0:0:
112,189,103563,1,0,0:0:0:0:
84,171,103644,1,0,0:0:0:0:
50,168,103725,1,0,0:0:0:0:
31,140,103806,6,0,L|22:206,1,55.2499974708558
25,71,103968,2,0,L|18:17,1,55.2499974708558
38,152,104130,2,0,L|29:218,1,55.2499974708558
33,65,104292,2,0,L|26:11,1,55.2499974708558
49,163,104455,2,0,L|40:229,1,55.2499974708558
44,60,104617,2,0,L|37:6,1,55.2499974708558
111,125,104779,1,0,0:0:0:0:
143,146,104860,1,0,0:0:0:0:
181,152,104941,1,0,0:0:0:0:
219,148,105022,1,0,0:0:0:0:
254,173,105103,6,0,L|258:106,1,55.2499974708558
345,23,105266,2,0,L|295:54,1,55.2499974708558
174,20,105428,2,0,L|230:53,1,55.2499974708558
346,173,105590,5,0,0:0:0:0:
339,202,105671,1,0,0:0:0:0:
323,228,105752,1,0,0:0:0:0:
299,247,105833,1,0,0:0:0:0:
270,257,105914,1,0,0:0:0:0:
240,257,105995,1,0,0:0:0:0:
211,246,106076,1,0,0:0:0:0:
188,227,106157,1,0,0:0:0:0:
172,200,106238,1,0,0:0:0:0:
166,170,106319,1,0,0:0:0:0:
186,151,106401,6,0,L|121:144,1,55.2499974708558
99,169,106563,1,0,0:0:0:0:
217,328,106725,1,0,0:0:0:0:
275,153,106887,1,0,0:0:0:0:
275,153,106968,1,0,0:0:0:0:
275,153,107049,2,0,L|286:31,1,110.499994941712
156,103,107374,1,0,0:0:0:0:
296,242,107536,1,0,0:0:0:0:
380,76,107698,1,0,0:0:0:0:
193,188,107860,5,0,0:0:0:0:
161,176,107941,1,0,0:0:0:0:
128,172,108022,1,0,0:0:0:0:
32,204,108185,1,0,0:0:0:0:
108,260,108347,1,0,0:0:0:0:
57,116,108509,2,0,L|65:77,3,36.8333316472372
234,64,108833,6,0,L|226:25,3,36.8333316472372
332,126,109158,1,0,0:0:0:0:
332,126,109239,1,0,0:0:0:0:
332,126,109320,1,0,0:0:0:0:
223,171,109482,1,0,0:0:0:0:
334,21,109644,1,0,0:0:0:0:
430,299,109806,6,0,L|414:344,3,36.8333316472372
266,334,110130,2,0,L|282:379,2,36.8333316472372
250,349,110293,5,0,0:0:0:0:
250,349,110617,1,0,0:0:0:0:
257,252,110779,1,0,0:0:0:0:
261,147,110941,1,0,0:0:0:0:
156,238,111103,1,0,0:0:0:0:
167,263,111185,1,0,0:0:0:0:
177,288,111266,1,0,0:0:0:0:
28,369,111428,1,0,0:0:0:0:
38,337,111509,1,0,0:0:0:0:
48,305,111590,6,0,L|32:248,1,55.2499974708558
156,238,111752,2,0,L|105:208,1,55.2499974708558
174,96,111914,2,0,L|114:111,1,55.2499974708558
269,174,112076,6,0,L|277:113,1,55.2499974708558
281,33,112239,2,0,L|291:95,1,55.2499974708558
354,288,112401,1,0,0:0:0:0:
386,280,112482,1,0,0:0:0:0:
418,274,112563,1,0,0:0:0:0:
450,267,112644,1,0,0:0:0:0:
417,262,112725,1,0,0:0:0:0:
384,258,112806,1,0,0:0:0:0:
285,247,112887,6,0,P|266:298|294:367,1,127.5
325,364,113572,1,0,0:0:0:0:
325,364,113915,1,0,0:0:0:0:
407,343,114087,1,0,0:0:0:0:
488,320,114258,1,0,0:0:0:0:
408,306,114429,1,0,0:0:0:0:
408,306,114772,5,0,0:0:0:0:
325,283,114944,1,0,0:0:0:0:
325,283,115287,5,0,0:0:0:0:
243,304,115459,1,0,0:0:0:0:
162,327,115630,1,0,0:0:0:0:
242,341,115801,1,0,0:0:0:0:
242,341,116144,5,0,0:0:0:0:
240,214,116315,1,0,0:0:0:0:
240,214,116658,5,0,0:0:0:0:
158,233,116829,1,0,0:0:0:0:
77,251,117001,1,0,0:0:0:0:
0,269,117172,1,0,0:0:0:0:
0,269,117515,5,0,0:0:0:0:
134,306,117687,1,0,0:0:0:0:
134,306,118029,5,0,0:0:0:0:
93,175,118201,1,0,0:0:0:0:
0,269,118372,1,0,0:0:0:0:
77,251,118548,1,0,0:0:0:0:
77,251,118901,5,0,0:0:0:0:
159,231,119077,1,0,0:0:0:0:
159,231,119430,5,0,0:0:0:0:
286,296,119607,1,0,0:0:0:0:
190,319,119783,1,0,0:0:0:0:
265,206,119960,1,0,0:0:0:0:
265,206,120313,5,0,0:0:0:0:
359,228,120489,1,0,0:0:0:0:
359,228,120842,5,0,0:0:0:0:
446,251,121019,1,0,0:0:0:0:
436,113,121195,5,0,0:0:0:0:
356,136,121372,1,0,0:0:0:0:
356,136,121724,5,0,0:0:0:0:
499,177,121901,1,0,0:0:0:0:
508,100,122077,1,0,0:0:0:0:
512,20,122254,5,0,0:0:0:0:
496,31,122430,1,0,0:0:0:0:
256,192,122607,12,0,128425,0:0:0:0:
