osu file format v13

[General]
AudioFilename: himikogeewheredidigetthismp3.mp3
AudioLeadIn: 0
PreviewTime: 91807
Countdown: 0
SampleSet: Soft
StackLeniency: 0.7
Mode: 0
LetterboxInBreaks: 1
WidescreenStoryboard: 1

[Editor]
Bookmarks: 15917,28728
DistanceSpacing: 0.7
BeatDivisor: 4
GridSize: 4
TimelineZoom: 1.8

[Metadata]
Title:Himiko
TitleUnicode:Himiko
Artist:Suzaku VS Genbu
ArtistUnicode:Suzaku VS Genbu
Creator:EvilElvis
Version:340's Hyper
Source:
Tags:iyasine Delis 340
BeatmapID:0
BeatmapSetID:-1

[Difficulty]
HPDrainRate:6
CircleSize:4
OverallDifficulty:7
ApproachRate:8.2
SliderMultiplier:1.6
SliderTickRate:1

[Events]
//Background and Video events
0,0,"himibg2.jpg",0,0
//Break Periods
2,46278,55736
//Storyboard Layer 0 (Background)
//Storyboard Layer 1 (Fail)
//Storyboard Layer 2 (Pass)
//Storyboard Layer 3 (Foreground)
//Storyboard Sound Samples
//Background Colour Transformations
3,100,163,162,255

[TimingPoints]
350,324.324324324324,4,2,1,60,1,0
350,-200,4,2,1,60,0,0
998,-153.846153846153,4,2,1,60,0,0
1647,-133.333333333333,4,2,1,60,0,0
6998,-100,4,2,1,60,0,0
33755,-200,4,2,1,60,0,0
34079,324.324324324324,3,1,2,60,1,0
34079,-100,3,2,1,60,0,0
34403,-100,3,2,1,60,0,0
38943,-100,3,2,1,60,0,0
44781,324.324324324324,4,1,1,60,1,0
56456,-100,4,1,1,60,0,0
64889,-133.333333333333,4,1,1,60,0,0
66186,-100,4,1,1,60,0,0
66510,-200,4,1,1,60,0,0
66835,324.324324324324,4,1,2,60,1,0
90186,324.324324324324,3,1,1,60,1,0
91158,-117.647058823529,3,1,1,60,0,0
92131,324.324324324324,4,1,1,60,1,0
112887,685.714285714286,4,1,1,60,1,0
112887,-50,4,1,1,60,0,0
118372,705.882352941176,4,1,1,60,1,0
118372,-50,4,1,1,60,0,0
122607,727.272727272727,4,1,1,60,1,0
122607,-66.6666666666667,4,1,1,60,0,0

[HitObjects]
144,104,350,6,0,P|120:148|144:220,1,120
216,276,998,2,0,B|255:287|289:263|289:263|322:238|362:250,1,155.999992858887
412,332,1647,2,0,P|376:344|340:340,1,60.0000022888184
356,160,1971,2,0,P|385:160|413:171,1,60.0000022888184
424,176,2214,1,0,0:0:0:0:
432,180,2295,1,0,0:0:0:0:
184,292,4241,6,0,L|144:112,2,180.000006866455,0|0|0,0:0|0:0|0:0,0:0:0:0:
96,240,5647,2,0,L|63:92,1,140.000005340576,0|0,0:0|0:0,0:0:0:0:
256,192,6998,12,0,7971,0:0:0:0:
160,120,8133,6,0,P|148:172|164:212,1,80
256,272,8458,2,0,P|268:220|252:180,1,80
172,344,8782,2,0,P|252:380|332:352,1,160
412,312,9268,1,0,0:0:0:0:
416,216,9431,2,0,L|420:128,1,80
320,28,9755,2,0,L|316:116,1,80
232,188,10079,2,0,P|164:184|120:104,1,160,0|0,0:0|0:0,0:0:0:0:
120,12,10566,1,0,0:0:0:0:
32,68,10728,6,0,L|20:176,1,80
23,236,11052,2,0,L|32:316,1,80
128,368,11377,2,0,B|169:380|203:354|203:354|237:329|278:341,1,160
376,364,11863,2,0,P|400:316|400:284,1,80
392,188,12187,1,0,0:0:0:0:
312,248,12349,2,0,P|256:248|200:224,1,80
144,200,12674,1,0,0:0:0:0:
136,196,12755,1,0,0:0:0:0:
104,88,12917,1,0,0:0:0:0:
120,96,12998,1,0,0:0:0:0:
224,140,13160,1,0,0:0:0:0:
84,256,13322,6,0,P|60:216|60:176,1,80
200,144,13647,2,0,P|224:184|224:224,1,80
156,320,13971,2,0,L|344:288,1,160
424,264,14458,1,0,0:0:0:0:
364,320,14620,2,0,P|340:268|352:228,1,80
404,168,14944,2,0,P|404:128|382:95,1,80
292,164,15268,1,0,0:0:0:0:
300,176,15349,1,0,0:0:0:0:
308,68,15512,1,0,0:0:0:0:
296,50,15593,1,0,0:0:0:0:
216,104,15755,1,0,0:0:0:0:
120,144,15917,6,0,P|112:188|128:228,1,80,0|0,0:0|0:0,0:0:0:0:
48,264,16241,2,0,P|92:304|128:308,1,80
204,300,16566,2,0,L|388:268,1,160,0|0,0:0|0:0,0:0:0:0:
444,256,17052,1,0,0:0:0:0:
384,188,17214,2,0,L|305:201,1,80,0|0,0:0|0:0,0:0:0:0:
48,88,18187,6,0,L|126:74,1,80,0|0,0:0|0:0,0:0:0:0:
204,24,18512,2,0,P|236:56|248:104,1,80
220,168,18836,2,0,P|234:205|263:232,1,80
360,240,19160,2,0,P|292:248|248:328,1,160
336,328,19647,1,0,0:0:0:0:
420,300,19809,2,0,P|440:264|444:220,1,80
392,160,20133,2,0,L|368:72,1,80
288,32,20458,2,0,B|206:19|215:71|134:59,1,160
48,32,20944,1,0,0:0:0:0:
68,120,21106,6,0,L|104:200,1,80
36,252,21431,2,0,L|124:316,1,80
192,328,21755,2,0,P|256:320|296:216,1,160
228,188,22241,1,0,0:0:0:0:
308,148,22404,2,0,P|284:116|236:100,1,80
268,12,22728,2,0,P|212:20|192:32,1,80
136,104,23052,1,0,0:0:0:0:
132,116,23133,1,0,0:0:0:0:
84,200,23295,1,0,0:0:0:0:
88,220,23377,1,0,0:0:0:0:
136,312,23539,1,0,0:0:0:0:
244,328,23701,6,0,L|328:300,1,80,0|0,0:0|0:0,0:0:0:0:
408,336,24025,2,0,L|440:236,1,80,0|0,0:0|0:0,0:0:0:0:
492,172,24349,2,0,P|436:184|372:88,1,160,0|0,0:0|0:0,0:0:0:0:
360,28,24836,1,0,0:0:0:0:
288,88,24998,2,0,P|240:104|192:88,1,80
132,60,25322,2,0,P|92:55|56:70,1,80
36,164,25647,1,0,0:0:0:0:
36,164,25728,1,0,0:0:0:0:
56,260,25890,1,0,0:0:0:0:
56,260,25971,1,0,0:0:0:0:
140,304,26133,1,0,0:0:0:0:
240,332,26295,6,0,P|280:312|300:280,1,80
308,196,26620,2,0,L|320:104,1,80
236,84,26944,2,0,L|212:261,1,160
136,284,27431,1,0,0:0:0:0:
136,192,27593,2,0,L|148:100,1,80
125,329,28404,5,0,0:0:0:0:
152,336,28485,1,0,0:0:0:0:
179,343,28566,1,0,0:0:0:0:
272,360,28728,1,0,0:0:0:0:
356,320,28890,2,0,L|368:152,1,160
396,64,29377,2,0,P|344:84|220:44,1,160
84,20,29863,2,0,P|132:20|168:32,1,80
224,136,30187,2,0,P|212:188|96:220,1,160
0,224,30674,2,0,P|74:245|102:316,1,160
40,380,31160,2,0,P|16:332|28:284,1,80
180,304,31485,6,0,B|221:291|255:317|255:317|290:342|331:330,1,160
392,256,31971,2,0,P|362:185|286:172,1,160,0|0,0:0|0:0,0:0:0:0:
188,196,32458,2,0,P|168:160|168:112,1,80
70,131,32782,2,0,P|96:58|168:28,1,160
248,76,33268,1,0,0:0:0:0:
336,28,33431,2,0,L|352:128,1,80
440,176,33755,5,0,0:0:0:0:
436,195,33836,1,0,0:0:0:0:
433,215,33917,1,0,0:0:0:0:
372,316,34079,2,0,P|308:336|232:260,1,160
200,204,34565,2,0,P|141:154|66:172,1,160
80,304,35051,2,0,B|96:344|96:344|124:224,1,160
184,152,35538,2,0,B|265:139|256:191|337:179,1,160,0|0,0:0|0:0,0:0:0:0:
396,108,36024,6,0,P|368:176|404:264,1,160
480,280,36511,2,0,P|412:280|372:368,1,160
268,372,36997,2,0,P|191:367|157:298,1,160
240,144,37484,2,0,L|232:312,1,160
152,224,37970,6,0,L|156:134,1,80
320,200,38295,2,0,L|315:289,1,80
396,364,38619,2,0,P|420:328|424:288,1,80
480,204,38943,2,0,P|480:160|464:124,1,80
452,24,39268,2,0,L|368:40,1,80,0|0,0:0|0:0,0:0:0:0:
298,114,39592,5,0,0:0:0:0:
275,108,39673,1,0,0:0:0:0:
251,101,39754,1,0,0:0:0:0:
182,22,39916,2,0,P|206:74|182:174,1,160,0|0,0:0|0:0,0:0:0:0:
274,214,40403,2,0,P|226:262|130:258,1,160
48,304,40889,1,0,0:0:0:0:
61,328,40970,1,0,0:0:0:0:
82,346,41051,1,0,0:0:0:0:
184,364,41214,1,0,0:0:0:0:
276,336,41376,1,0,0:0:0:0:
303,328,41457,1,0,0:0:0:0:
372,264,41619,1,0,0:0:0:0:
384,238,41700,1,0,0:0:0:0:
408,140,41862,5,0,0:0:0:0:
312,168,42024,2,0,L|324:88,1,80,0|0,0:0|0:0,0:0:0:0:
240,40,42349,2,0,P|180:32|112:132,1,160
28,108,42835,2,0,P|52:160|92:184,1,80
164,180,43160,1,0,0:0:0:0:
260,184,43322,2,0,P|308:216|328:248,1,80,0|0,0:0|0:0,0:0:0:0:
316,320,43646,1,0,0:0:0:0:
244,272,43808,1,0,0:0:0:0:
256,192,43889,12,0,46078,0:0:0:0:
184,160,56456,6,0,L|84:144,2,80,0|0|0,0:0|0:0|0:0,0:0:0:0:
224,244,56943,2,0,L|316:216,1,80
408,256,57591,5,0,0:0:0:0:
332,292,57753,2,0,P|288:288|252:256,1,80
208,204,58078,1,0,0:0:0:0:
136,240,58240,2,0,P|92:268|68:312,1,80
256,312,58889,5,0,0:0:0:0:
320,236,59052,2,0,L|340:156,2,80,0|0|0,0:0|0:0|0:0,0:0:0:0:
248,164,59537,2,0,L|220:76,1,80
184,4,59862,1,0,0:0:0:0:
128,76,60024,1,0,0:0:0:0:
160,156,60186,2,0,L|184:232,1,80
152,320,60510,2,0,P|112:292|96:260,1,80
64,180,60835,2,0,P|24:208|8:240,1,80
292,280,61483,5,0,0:0:0:0:
368,224,61645,2,0,L|456:260,2,80,0|0|0,0:0|0:0|0:0,0:0:0:0:
336,136,62132,2,0,L|252:176,1,80
184,216,62456,1,0,0:0:0:0:
80,128,62780,5,0,0:0:0:0:
160,92,62942,2,0,P|208:92|248:120,1,80
276,32,63267,2,0,P|316:72|324:112,1,80
324,184,63591,2,0,L|324:344,2,160,0|0|0,0:0|0:0|0:0,0:0:0:0:
176,252,64889,6,0,L|48:232,2,120.000004577637,0|0|0,0:0|0:0|0:0,0:0:0:0:
344,212,66186,6,0,L|424:196,2,80,0|0|0,0:0|0:0|0:0,0:0:0:0:
180,180,66835,5,0,0:0:0:0:
256,192,66916,12,0,69429,0:0:0:0:
364,216,69591,6,0,P|380:164|376:128,1,80
256,72,69916,2,0,P|240:124|244:160,1,80
372,224,70240,2,0,P|388:172|384:136,1,80
252,64,70565,2,0,P|236:116|240:152,1,80
256,264,70889,2,0,P|208:280|164:276,1,80
44,228,71213,2,0,P|92:212|136:216,1,80
100,304,71537,1,0,0:0:0:0:
44,228,71699,2,0,L|60:136,2,80,0|0|0,0:0|0:0|0:0,0:0:0:0:
144,192,72186,5,0,0:0:0:0:
136,104,72348,2,0,L|152:12,2,80,0|0|0,0:0|0:0|0:0,0:0:0:0:
192,168,72835,1,0,0:0:0:0:
256,212,72997,2,0,P|304:216|344:196,1,80
392,132,73321,2,0,L|476:136,1,80
504,224,73645,2,0,L|424:220,1,80
352,268,73970,2,0,P|340:316|344:356,1,80
432,384,74294,2,0,P|444:336|440:296,1,80
352,268,74618,5,0,0:0:0:0:
278,297,74780,1,0,0:0:0:0:
198,298,74942,1,0,0:0:0:0:
124,269,75104,1,0,0:0:0:0:
72,212,75267,2,0,P|56:176|56:128,1,80
116,64,75591,2,0,L|196:76,1,80
288,76,75916,2,0,L|368:64,1,80
428,136,76240,2,0,P|426:175|410:212,1,80
352,284,76564,2,0,L|340:364,2,80,0|0|0,0:0|0:0|0:0,0:0:0:0:
324,204,77051,1,0,0:0:0:0:
268,272,77213,6,0,P|204:264|184:248,1,80
136,176,77537,2,0,L|104:252,1,80
12,256,77862,2,0,L|43:182,1,80
80,100,78186,2,0,P|120:84|160:84,1,80
240,120,78510,2,0,P|279:118|316:103,1,80
408,76,78834,2,0,L|436:-12,2,80,0|0|0,0:0|0:0|0:0,0:0:0:0:
380,168,79321,1,0,0:0:0:0:
472,144,79483,2,0,L|500:56,2,80,0|0|0,0:0|0:0|0:0,0:0:0:0:
444,236,79970,5,0,0:0:0:0:
348,256,80132,2,0,P|292:256|264:240,1,80
220,168,80456,2,0,P|182:182|143:178,1,80
40,112,80780,1,0,0:0:0:0:
54,135,80861,1,0,0:0:0:0:
63,162,80942,1,0,0:0:0:0:
64,190,81023,1,0,0:0:0:0:
58,217,81105,6,0,P|60:268|84:316,1,80
164,288,81429,2,0,L|264:272,1,80
208,200,81753,2,0,L|308:184,1,80
340,272,82078,1,0,0:0:0:0:
361,254,82159,1,0,0:0:0:0:
376,230,82240,1,0,0:0:0:0:
385,204,82321,1,0,0:0:0:0:
385,176,82402,2,0,P|368:128|272:88,1,160
196,112,82889,1,0,0:0:0:0:
184,196,83051,2,0,P|148:228|108:244,1,80
16,292,83375,5,0,0:0:0:0:
41,303,83456,1,0,0:0:0:0:
66,315,83537,1,0,0:0:0:0:
92,327,83618,1,0,0:0:0:0:
117,339,83699,2,0,L|284:312,1,160
352,360,84186,2,0,L|459:342,2,80,0|0|0,0:0|0:0|0:0,0:0:0:0:
356,276,84672,1,0,0:0:0:0:
357,248,84753,1,0,0:0:0:0:
358,220,84834,1,0,0:0:0:0:
424,136,84997,6,0,P|376:180|284:164,1,160
264,80,85483,1,0,0:0:0:0:
340,32,85645,2,0,P|344:112|328:140,1,80
288,168,85970,2,0,L|228:228,1,80
168,272,86294,2,0,L|0:272,2,160,0|0|0,0:0|0:0|0:0,0:0:0:0:
260,300,87105,2,0,P|312:292|336:272,1,80
400,200,87429,1,0,0:0:0:0:
428,272,87591,6,0,P|368:268|328:168,1,160
368,116,88078,2,0,L|384:36,2,80,0|0|0,0:0|0:0|0:0,0:0:0:0:
284,112,88564,1,0,0:0:0:0:
284,112,88645,1,0,0:0:0:0:
284,112,88726,1,0,0:0:0:0:
264,200,88889,2,0,P|176:188|136:128,1,160
128,48,89375,2,0,L|84:216,1,160
168,216,89862,2,0,L|146:300,1,80
60,308,90186,2,0,P|84:352|196:368,1,160
264,320,90672,2,0,L|340:344,2,80,0|0|0,0:0|0:0|0:0,0:0:0:0:
340,264,91158,6,0,P|400:220|388:92,1,204.000003890991
296,76,91807,1,0,0:0:0:0:
272,72,91888,1,0,0:0:0:0:
248,68,91969,1,0,0:0:0:0:
164,140,92131,2,0,L|328:168,1,160
264,240,92617,1,0,0:0:0:0:
184,224,92779,2,0,L|105:210,1,80
28,256,93103,2,0,P|60:288|100:300,1,80
88,384,93428,2,0,P|136:372|160:348,1,80
224,280,93752,2,0,P|254:305|293:312,1,80
396,320,94076,6,0,B|402:271|402:271|365:222|365:222|371:173,1,160
372,56,94563,1,0,0:0:0:0:
440,112,94725,2,0,P|380:144|300:104,1,160
288,24,95212,1,0,0:0:0:0:
224,84,95374,2,0,L|192:172,1,80
120,116,95698,2,0,L|88:204,1,80
0,240,96022,2,0,L|32:328,1,80
128,304,96347,1,0,0:0:0:0:
128,304,96428,1,0,0:0:0:0:
128,304,96509,1,0,0:0:0:0:
224,336,96671,6,0,P|276:336|320:236,1,160
324,160,97158,1,0,0:0:0:0:
240,104,97320,2,0,L|252:276,1,160
172,276,97806,1,0,0:0:0:0:
160,192,97968,2,0,L|153:112,1,80
188,32,98293,2,0,P|232:20|292:32,1,80
332,88,98617,2,0,P|371:90|409:78,1,80
496,24,98941,2,0,L|484:140,1,80
488,204,99266,6,0,P|464:240|352:248,1,160,0|0,0:0|0:0,0:0:0:0:
276,232,99752,1,0,0:0:0:0:
328,164,99914,2,0,P|376:160|420:180,1,80
488,204,100239,2,0,L|468:296,1,80
396,340,100563,2,0,L|312:340,1,80
224,328,100887,1,0,0:0:0:0:
224,328,100968,1,0,0:0:0:0:
224,328,101049,1,0,0:0:0:0:
128,348,101212,5,0,0:0:0:0:
156,260,101374,1,0,0:0:0:0:
452,239,102185,5,0,0:0:0:0:
424,244,102266,1,0,0:0:0:0:
396,249,102347,1,0,0:0:0:0:
300,272,102509,2,0,P|244:264|208:168,1,160
248,108,102995,1,0,0:0:0:0:
168,100,103158,2,0,L|72:100,1,80
0,136,103482,2,0,P|32:176|68:192,1,80
144,224,103806,2,0,P|112:264|76:280,1,80
12,340,104130,2,0,L|88:372,1,80
184,384,104455,6,0,P|240:380|296:292,1,160
286,181,104941,1,0,0:0:0:0:
214,244,105103,2,0,P|270:276|362:236,1,160
376,160,105590,2,0,L|360:72,1,80
272,56,105914,1,0,0:0:0:0:
220,128,106076,1,0,0:0:0:0:
192,122,106157,1,0,0:0:0:0:
164,117,106238,1,0,0:0:0:0:
52,120,106401,2,0,B|72:88|72:88|64:220,1,160
36,304,106887,1,0,0:0:0:0:
124,284,107049,2,0,P|168:268|268:344,1,160
320,384,107536,1,0,0:0:0:0:
388,312,107698,5,0,0:0:0:0:
364,196,107860,1,0,0:0:0:0:
272,80,108509,5,0,0:0:0:0:
259,105,108590,1,0,0:0:0:0:
247,130,108671,1,0,0:0:0:0:
180,220,108833,1,0,0:0:0:0:
192,245,108914,1,0,0:0:0:0:
204,270,108995,1,0,0:0:0:0:
288,328,109158,1,0,0:0:0:0:
408,168,109806,5,0,0:0:0:0:
384,153,109887,1,0,0:0:0:0:
357,144,109968,1,0,0:0:0:0:
380,56,110130,1,0,0:0:0:0:
353,51,110211,1,0,0:0:0:0:
325,52,110292,1,0,0:0:0:0:
80,128,110941,6,0,P|76:196|136:276,1,160
204,304,111428,1,0,0:0:0:0:
288,288,111590,2,0,L|376:268,1,80
400,180,111914,2,0,L|321:197,1,80
236,184,112239,2,0,P|208:144|208:96,2,80,0|0|0,0:0|0:0|0:0,0:0:0:0:
292,116,112725,1,0,0:0:0:0:
248,40,112887,6,0,P|196:28|152:44,1,80
72,192,113401,5,0,0:0:0:0:
144,256,113572,1,0,0:0:0:0:
264,340,113915,5,0,0:0:0:0:
340,312,114087,1,0,0:0:0:0:
368,240,114258,1,0,0:0:0:0:
348,168,114429,1,0,0:0:0:0:
196,96,114772,5,0,0:0:0:0:
216,172,114944,1,0,0:0:0:0:
348,168,115287,6,0,L|460:144,2,80,0|0|0,0:0|0:0|0:0,0:0:0:0:
296,232,115801,1,0,0:0:0:0:
136,296,116144,6,0,P|108:272|92:216,1,80
133,38,116658,5,0,0:0:0:0:
116,116,116829,1,0,0:0:0:0:
192,133,117001,1,0,0:0:0:0:
210,55,117172,1,0,0:0:0:0:
380,196,117515,6,0,L|344:284,1,80
188,296,118029,5,0,0:0:0:0:
116,264,118201,1,0,0:0:0:0:
152,192,118372,2,0,L|240:232,1,80
388,252,118901,5,0,0:0:0:0:
384,172,119077,1,0,0:0:0:0:
248,220,119430,5,0,0:0:0:0:
177,223,119606,1,0,0:0:0:0:
116,187,119782,1,0,0:0:0:0:
85,124,119959,1,0,0:0:0:0:
32,316,120313,5,0,0:0:0:0:
36,236,120489,1,0,0:0:0:0:
192,228,120842,5,0,0:0:0:0:
188,308,121018,1,0,0:0:0:0:
260,352,121195,1,0,0:0:0:0:
264,272,121371,1,0,0:0:0:0:
416,108,121724,6,0,L|360:200,1,80
168,260,122254,6,0,L|136:168,1,80,0|0,0:0|0:0,0:0:0:0:
92,96,122607,2,0,L|76:256,1,120.000004577637
79,223,123061,1,0,0:0:0:0:
78,232,123152,1,0,0:0:0:0:
77,241,123243,1,0,0:0:0:0:
280,328,124061,5,0,0:0:0:0:
256,192,124788,12,0,126243,0:0:0:0:
