osu file format v12

[General]
AudioFilename: Suzaku - Contract.mp3
AudioLeadIn: 1500
PreviewTime: 171192
Countdown: 0
SampleSet: Normal
StackLeniency: 0.7
Mode: 0
LetterboxInBreaks: 1

[Editor]
DistanceSpacing: 1
BeatDivisor: 2
GridSize: 4

[Metadata]
Title:CONTRACT
TitleUnicode:CONTRACT
Artist:Suzaku
ArtistUnicode:朱雀
Creator:Evil_Twilight
Version:Hyper
Source:beatmania IIDX
Tags:littlecar3370 xiaocheche xiaochecheshenchu dj yoshitaka
BeatmapID:223928
BeatmapSetID:76588

[Difficulty]
HPDrainRate:6
CircleSize:4
OverallDifficulty:6
ApproachRate:8
SliderMultiplier:1.6
SliderTickRate:1

[Events]
//Background and Video events
0,0,"bg.jpg",0,0
//Break Periods
//Storyboard Layer 0 (Background)
//Storyboard Layer 1 (Fail)
//Storyboard Layer 2 (Pass)
//Storyboard Layer 3 (Foreground)
//Storyboard Sound Samples
//Background Colour Transformations
3,100,163,162,255

[TimingPoints]
526,333.333333333333,4,1,0,60,1,0
5859,-133.333333333333,4,2,0,40,0,0
16525,-133.333333333333,4,2,0,60,0,0
16859,-133.333333333333,4,2,0,50,0,0
21859,-133.333333333333,4,2,0,60,0,0
22192,-133.333333333333,4,2,0,50,0,0
25859,-133.333333333333,4,2,0,60,0,0
27192,-133.333333333333,4,2,0,60,0,1
27275,-133.333333333333,4,2,0,60,0,0
29692,-133.333333333333,4,2,0,5,0,0
29859,-133.333333333333,4,1,0,50,0,0
30192,-133.333333333333,4,1,0,40,0,0
40525,-133.333333333333,4,1,0,60,0,0
40692,-133.333333333333,4,1,0,40,0,0
50192,-133.333333333333,4,1,0,35,0,0
50525,-133.333333333333,4,1,0,40,0,0
50859,-133.333333333333,4,1,0,45,0,0
51192,-100,4,1,0,50,0,0
55859,-100,4,1,0,40,0,0
56025,-100,4,1,0,45,0,0
56192,-100,4,1,0,50,0,0
56359,-100,4,1,0,55,0,0
56525,-100,4,1,0,60,0,0
56859,-100,4,1,0,50,0,0
59192,-100,4,1,0,40,0,0
59525,-100,4,1,0,45,0,0
59859,-100,4,1,0,50,0,0
60192,-100,4,1,0,55,0,0
60525,-100,4,1,0,60,0,0
60859,-100,4,1,0,65,0,0
61192,-100,4,1,0,70,0,0
61525,-100,4,1,0,75,0,0
61859,-100,4,2,0,80,0,0
62192,-100,4,2,0,60,0,0
72525,-100,4,2,0,80,0,0
72859,-100,4,2,0,60,0,0
83192,-100,4,2,0,70,0,1
93192,-100,4,2,0,70,0,0
93859,-100,4,2,0,70,0,1
99192,-100,4,1,0,70,0,1
99692,-100,4,2,0,70,0,1
100525,-100,4,1,0,70,0,1
101025,-100,4,2,0,70,0,1
104525,-100,4,2,0,80,0,0
115192,-133.333333333333,4,2,0,60,0,0
115525,-133.333333333333,4,2,0,40,0,0
123192,-133.333333333333,4,1,0,50,0,0
125192,-133.333333333333,4,1,0,55,0,0
125525,-133.333333333333,4,1,0,60,0,0
125859,-133.333333333333,4,2,0,70,0,0
126025,-133.333333333333,4,2,0,50,0,0
136525,-133.333333333333,4,2,0,70,0,0
136859,-133.333333333333,4,2,0,50,0,0
144525,-100,4,2,0,60,0,0
145859,-100,4,2,0,70,0,0
146525,-100,4,2,0,80,0,0
147192,-133.333333333333,4,2,0,70,0,1
165859,-100,4,2,0,70,0,1
168442,-100,4,2,0,70,0,0
168525,-100,4,2,0,70,0,1
168609,-100,4,2,0,80,0,0
173859,-100,4,2,0,80,0,1
173942,-100,4,2,0,80,0,0
184525,-133.333333333333,4,2,0,60,0,0
184859,-133.333333333333,4,2,0,50,0,0
189859,-133.333333333333,4,2,0,60,0,0
190192,-133.333333333333,4,2,0,50,0,0
193859,-133.333333333333,4,2,0,60,0,0
195192,-100,4,2,0,70,0,1
195359,-100,4,2,0,60,0,0
203192,-133.333333333333,4,2,0,60,0,0
204359,-100,4,2,0,60,0,0
205859,-100,4,2,0,70,0,1
206025,-100,4,2,0,60,0,0
210192,-100,4,2,0,40,0,0
210525,-100,4,2,0,60,0,0
211192,-100,4,2,0,70,0,0
211359,-100,4,2,0,60,0,0
215192,-100,4,2,0,70,0,0
215859,-100,4,2,0,80,0,0
216525,-100,4,2,0,90,0,1
216692,-100,4,2,0,60,0,0
227192,-100,4,2,0,90,0,0
227359,-100,4,2,0,60,0,0
237859,-100,4,2,0,90,0,1
238025,-100,4,2,0,80,0,1
239859,-80,4,2,0,80,0,1
240525,-100,4,2,0,80,0,1
242525,-80,4,2,0,80,0,1
243192,-100,4,2,0,80,0,1
247859,-80,4,2,0,80,0,0
248525,-100,4,2,0,80,0,1
259109,-100,4,2,0,80,0,0
259192,-100,4,2,0,80,0,1
259275,-100,4,2,0,80,0,0

[Colours]
Combo1 : 255,128,0
Combo2 : 255,98,98
Combo3 : 231,40,35
Combo4 : 255,169,128

[HitObjects]
256,192,526,12,8,5275,0:0:0:0:
148,80,5859,6,0,P|156:116|144:160,1,60.0000022888184,4|0,1:0|0:0,0:0:0:0:
96,216,6192,2,0,P|88:252|100:296,1,60.0000022888184
148,352,6525,2,0,P|92:336|24:344,2,120.000004577637,0|2|2,0:0|0:0|0:0,0:0:0:0:
148,352,7525,2,0,P|184:352|220:336,1,60.0000022888184,0|2,0:0|0:0,0:0:0:0:
272,272,7859,1,0,0:0:0:0:
368,260,8025,1,2,0:0:0:0:
448,312,8192,2,0,P|472:256|464:196,1,120.000004577637,2|0,0:0|1:0,0:0:0:0:
404,124,8692,6,0,L|408:60,1,60.0000022888184,2|0,0:0|0:0,0:0:0:0:
320,24,9025,1,2,0:0:0:0:
244,80,9192,2,0,P|184:84|124:64,2,120.000004577637,0|0|0,0:0|0:0|1:0,0:0:0:0:
244,80,10192,5,0,0:0:0:0:
320,24,10359,1,2,0:0:0:0:
396,84,10525,2,0,P|404:120|392:164,1,60.0000022888184,0|2,1:0|0:0,0:0:0:0:
340,216,10859,2,0,P|336:244|344:274,1,60.0000022888184,0|2,0:0|0:0,0:0:0:0:
380,364,11192,5,0,1:0:0:0:
284,348,11359,1,2,0:0:0:0:
188,332,11525,2,0,L|128:340,1,60.0000022888184,0|0,0:0|1:0,0:0:0:0:
24,320,11859,2,0,P|4:264|12:200,1,120.000004577637,0|2,0:0|0:0,0:0:0:0:
112,40,12525,2,0,P|132:96|125:155,1,120.000004577637,0|2,1:0|0:0,0:0:0:0:
124,155,13025,5,0,1:0:0:0:
208,108,13192,2,0,P|244:104|280:120,1,60.0000022888184,0|2,0:0|0:0,0:0:0:0:
340,172,13525,2,0,P|404:176|468:148,1,120.000004577637,0|0,1:0|1:0,0:0:0:0:
508,236,14025,5,0,0:0:0:0:
428,288,14192,2,0,P|416:320|424:368,1,60.0000022888184,0|0,0:0|1:0,0:0:0:0:
324,368,14525,6,0,P|292:372|260:356,1,60.0000022888184
192,300,14859,1,0,1:0:0:0:
100,320,15025,1,0,0:0:0:0:
12,280,15192,6,0,L|16:216,1,60.0000022888184,0|0,0:0|1:0,0:0:0:0:
68,140,15525,2,0,L|72:76,1,60.0000022888184,0|8,1:0|0:0,0:0:0:0:
140,12,15859,5,8,1:2:0:0:
236,24,16025,1,0,1:0:0:0:
280,112,16192,1,0,1:0:0:0:
372,140,16359,1,0,1:0:0:0:
460,104,16525,6,0,P|440:160|444:228,1,120.000004577637,4|0,1:0|1:0,0:0:0:0:
441,219,17192,2,0,P|460:252|456:300,1,60.0000022888184,8|0,0:0|0:0,0:0:0:0:
420,360,17525,1,2,0:0:0:0:
420,360,17859,6,0,P|382:366|338:346,1,60.0000022888184,0|0,1:0|0:0,0:0:0:0:
284,304,18192,1,0,0:0:0:0:
196,344,18359,1,8,0:0:0:0:
104,316,18525,2,0,P|88:256|100:192,1,120.000004577637,8|0,0:0|1:0,0:0:0:0:
268,112,19192,6,0,P|278:86|274:54,1,60.0000022888184,0|0,1:0|0:0,0:0:0:0:
360,8,19525,1,0,0:0:0:0:
452,36,19692,1,0,0:0:0:0:
408,120,19859,2,0,P|404:152|414:177,1,60.0000022888184,0|0,1:0|0:0,0:0:0:0:
480,248,20192,2,0,P|492:304|476:376,1,120.000004577637,0|0,1:0|1:0,0:0:0:0:
388,340,20692,5,0,0:0:0:0:
312,280,20859,2,0,P|280:280|256:296,1,60.0000022888184,0|0,1:0|0:0,0:0:0:0:
184,356,21192,1,0,1:0:0:0:
88,360,21359,1,0,1:0:0:0:
16,296,21525,1,0,1:0:0:0:
8,200,21692,1,0,1:0:0:0:
72,128,21859,6,0,P|88:68|76:8,1,120.000004577637,4|0,1:0|1:0,0:0:0:0:
168,48,22359,2,0,P|204:48|236:24,1,60.0000022888184,0|8,0:0|0:0,0:0:0:0:
224,36,22859,1,0,0:0:0:0:
312,76,23025,1,0,0:0:0:0:
404,48,23192,2,0,P|428:100|420:172,1,120.000004577637,0|0,1:0|0:0,0:0:0:0:
424,161,23859,5,8,0:0:0:0:
476,240,24025,1,0,0:0:0:0:
396,296,24192,2,0,P|388:328|392:364,1,60.0000022888184,0|0,1:0|0:0,0:0:0:0:
304,312,24525,5,0,1:0:0:0:
208,292,24692,1,0,0:0:0:0:
128,348,24859,5,0,1:0:0:0:
232,320,25025,1,0,0:0:0:0:
260,216,25192,1,0,1:0:0:0:
260,216,25525,1,0,1:0:0:0:
108,96,25859,6,0,P|96:64|104:24,1,60.0000022888184
36,144,26192,2,0,P|48:176|40:216,1,60.0000022888184,0|8,0:0|0:0,0:0:0:0:
4,288,26525,5,8,0:0:0:0:
92,340,26692,1,0,0:0:0:0:
200,328,26859,1,0,0:0:0:0:
288,256,27025,1,0,0:0:0:0:
280,136,27192,1,4,0:0:0:0:
256,192,27275,12,0,29692,0:0:0:0:
40,276,29859,6,0,P|88:304|160:304,1,120.000004577637
224,244,30359,1,0,0:0:0:0:
224,244,30692,2,0,L|288:252,1,60.0000022888184
448,352,31192,2,0,L|384:344,1,60.0000022888184,2|0,0:2|0:0,0:0:0:0:
332,268,31525,1,0,0:0:0:0:
372,180,31692,1,0,0:0:0:0:
320,100,31859,2,0,P|260:92|200:120,1,120.000004577637
68,72,32442,6,0,L|72:116,1,30.0000011444092,0|2,0:0|0:2,0:0:0:0:
124,184,32692,1,0,0:0:0:0:
44,236,32859,2,0,P|36:268|48:304,1,60.0000022888184
108,364,33192,2,0,L|232:352,1,120.000004577637
227,352,33859,5,2,0:2:0:0:
308,304,34025,1,0,0:0:0:0:
400,332,34192,2,0,P|424:276|420:212,1,120.000004577637
368,136,34692,1,0,0:0:0:0:
404,48,34859,1,0,0:0:0:0:
312,24,35025,1,0,0:0:0:0:
312,24,35109,1,0,0:0:0:0:
312,24,35192,6,0,P|280:20|252:32,1,60.0000022888184,12|0,0:0|0:0,0:0:0:0:
188,100,35525,1,0,0:0:0:0:
96,68,35692,1,0,0:0:0:0:
24,132,35859,2,0,L|32:272,1,120.000004577637
30,251,36525,5,2,0:2:0:0:
80,336,36692,1,0,0:0:0:0:
128,252,36859,1,0,0:0:0:0:
128,252,37192,2,0,P|164:244|200:252,1,60.0000022888184
260,308,37525,2,0,P|308:308|348:284,1,90.0000034332277
356,268,37859,5,2,0:2:0:0:
328,176,38025,1,0,0:0:0:0:
404,120,38192,2,0,P|416:88|412:56,1,60.0000022888184
332,12,38525,2,0,P|298:17|272:37,1,60.0000022888184
236,120,38859,1,0,0:0:0:0:
236,120,39192,5,2,0:2:0:0:
152,76,39359,2,0,P|96:72|36:104,1,120.000004577637
48,196,39859,2,0,L|44:268,1,60.0000022888184
140,244,40192,2,0,L|136:316,1,60.0000022888184
212,364,40525,6,0,P|276:368|332:332,1,120.000004577637,12|0,0:0|0:0,0:0:0:0:
356,252,41025,1,0,0:0:0:0:
436,200,41192,2,0,P|472:200|500:212,2,60.0000022888184
436,200,41692,1,0,0:0:0:0:
356,252,41859,5,2,0:2:0:0:
264,228,42025,2,0,P|240:172|244:104,1,120.000004577637
156,72,42525,2,0,P|164:36|160:4,2,60.0000022888184
32,144,43109,6,0,L|40:188,1,30.0000011444092,0|2,0:0|0:2,0:0:0:0:
108,240,43359,1,0,0:0:0:0:
92,336,43525,1,0,0:0:0:0:
180,372,43692,2,0,P|220:372|248:356,1,60.0000022888184
304,296,44025,2,0,P|344:296|372:312,1,60.0000022888184
444,356,44359,1,0,0:0:0:0:
500,280,44525,5,2,0:2:0:0:
420,228,44692,2,0,P|404:168|412:104,1,120.000004577637
448,24,45192,2,0,P|397:59|334:73,1,120.000004577637
252,36,45692,1,0,0:0:0:0:
252,36,45775,1,0,0:0:0:0:
252,36,45859,6,0,P|220:32|188:48,1,60.0000022888184,2|0,0:2|0:0,0:0:0:0:
128,112,46192,1,0,0:0:0:0:
36,88,46359,1,0,0:0:0:0:
128,112,46525,2,0,P|136:168|116:240,1,120.000004577637
72,312,47025,1,0,0:0:0:0:
152,368,47192,6,0,P|188:356|208:328,1,60.0000022888184,2|0,0:2|0:0,0:0:0:0:
300,340,47525,2,0,P|313:304|305:271,1,60.0000022888184
288,188,47859,2,0,P|344:164|412:176,1,120.000004577637
288,84,48442,6,0,L|296:40,1,30.0000011444092,0|2,0:0|0:2,0:0:0:0:
204,16,48692,1,0,0:0:0:0:
124,68,48859,2,0,P|88:68|56:48,2,60.0000022888184
176,148,49359,1,0,0:0:0:0:
80,160,49525,2,0,B|48:212|68:284,1,120.000004577637
120,356,50025,1,0,0:0:0:0:
200,300,50192,6,0,P|220:300|240:308,3,30.0000011444092
264,332,50525,2,0,P|284:332|304:324,3,30.0000011444092
336,312,50859,2,0,P|356:312|376:320,3,30.0000011444092
404,340,51192,6,0,P|440:268|436:188,1,160,4|0,0:0|0:0,0:0:0:0:
388,100,51692,1,0,0:0:0:0:
328,184,51859,2,0,P|288:184|252:156,1,80
236,60,52192,1,2,0:2:0:0:
36,112,52525,6,0,P|58:143|58:183,1,80,0|0,0:0|0:0,0:0:0:0:
160,160,52859,1,0,0:0:0:0:
132,260,53025,1,0,0:0:0:0:
172,356,53192,2,0,P|260:368|328:332,1,160,0|2,0:0|0:2,0:0:0:0:
424,364,53692,1,0,0:0:0:0:
424,364,53775,1,0,0:0:0:0:
424,364,53859,6,0,L|440:268,1,80
504,204,54192,2,0,P|512:160|500:116,1,80
428,52,54525,2,0,P|352:44|281:90,1,160,0|2,0:0|0:2,0:0:0:0:
284,88,55192,6,0,P|248:108|200:104,1,80
140,28,55525,1,0,0:0:0:0:
140,28,55859,1,0,0:0:0:0:
60,96,56025,1,0,0:0:0:0:
112,184,56192,1,0,0:0:0:0:
60,276,56359,1,0,0:0:0:0:
124,356,56525,6,0,P|212:360|276:328,1,160,4|0,0:0|0:0,0:0:0:0:
372,364,57025,1,0,0:0:0:0:
448,292,57192,2,0,P|432:256|436:204,1,80
484,128,57525,1,2,0:2:0:0:
484,128,57859,6,0,P|484:88|468:52,1,80
368,28,58192,2,0,P|333:47|309:79,1,80
304,184,58525,2,0,B|260:192|236:160|236:160|200:140|148:168,1,160,0|2,0:0|0:2,0:0:0:0:
80,236,59025,1,0,0:0:0:0:
144,316,59192,6,0,L|140:356,7,40
244,344,59859,2,0,L|260:380,7,40
356,336,60525,6,0,L|388:359,3,40
483,276,60859,2,0,L|444:272,3,40
464,172,61192,2,0,L|500:155,3,40
487,27,61525,2,0,L|464:60,3,40
436,104,61859,6,0,P|368:108|284:68,1,160,4|8,1:0|1:2,0:0:0:0:
287,70,62525,2,0,P|303:106|299:146,1,80,0|2,1:0|0:0,0:0:0:0:
299,145,63025,1,2,0:0:0:0:
380,212,63192,2,0,P|364:292|388:372,2,160,0|8|0,1:0|1:2|1:0,0:0:0:0:
380,212,64192,1,8,1:2:0:0:
204,324,64525,6,0,P|156:324|120:296,1,80,0|0,1:0|0:0,0:0:0:0:
76,220,64859,1,8,1:2:0:0:
24,312,65025,1,0,0:0:0:0:
76,220,65192,2,0,P|92:193|92:145,1,80,0|2,1:0|0:0,0:0:0:0:
92,145,65692,1,2,0:0:0:0:
72,44,65859,2,0,P|156:32|228:64,1,160,0|8,1:0|1:2,0:0:0:0:
304,124,66359,1,0,0:0:0:0:
372,48,66525,5,0,1:0:0:0:
464,92,66692,1,0,1:0:0:0:
456,196,66859,1,0,1:0:0:0:
356,216,67025,1,0,1:0:0:0:
388,136,67192,6,0,P|404:172|400:220,1,80,4|0,1:0|0:0,0:0:0:0:
436,312,67525,2,0,P|360:304|276:340,1,160,8|0,1:2|1:0,0:0:0:0:
192,288,68025,1,2,0:0:0:0:
192,288,68359,1,2,0:0:0:0:
96,332,68525,6,0,P|72:296|76:248,1,80,0|0,1:0|0:0,0:0:0:0:
12,176,68859,2,0,P|36:104|12:8,2,160,8|0|8,1:2|1:0|1:2,0:0:0:0:
12,176,69859,5,0,1:0:0:0:
80,100,70025,1,0,0:0:0:0:
172,52,70192,2,0,P|216:48|252:68,1,80,8|0,1:2|0:0,0:0:0:0:
320,136,70525,1,0,1:0:0:0:
416,96,70692,1,2,0:0:0:0:
416,96,71025,1,2,0:0:0:0:
496,164,71192,6,0,P|508:200|496:244,1,80,0|0,1:0|0:0,0:0:0:0:
428,316,71525,2,0,P|352:328|276:292,1,160,8|0,1:2|1:0,0:0:0:0:
196,360,72025,1,0,1:0:0:0:
184,256,72192,1,0,1:0:0:0:
278,294,72359,1,0,1:0:0:0:
196,360,72525,6,0,P|156:344|108:352,1,80,4|0,1:0|0:0,0:0:0:0:
32,292,72859,2,0,P|8:212|28:120,1,160,8|0,1:2|1:0,0:0:0:0:
72,48,73359,1,2,0:0:0:0:
128,136,73525,2,0,P|176:132|208:112,1,80,8|2,1:2|0:0,0:0:0:0:
256,28,73859,5,0,1:0:0:0:
360,28,74025,1,0,0:0:0:0:
412,120,74192,1,8,1:2:0:0:
308,112,74359,1,0,0:0:0:0:
260,204,74525,1,0,1:0:0:0:
364,208,74692,2,0,P|377:247|372:292,1,80,0|8,0:0|1:2,0:0:0:0:
300,360,75025,1,0,0:0:0:0:
220,296,75192,6,0,P|140:288|52:324,1,160,0|8,1:0|1:2,0:0:0:0:
8,228,75692,1,0,0:0:0:0:
104,192,75859,2,0,P|116:152|108:100,1,80,0|2,1:0|0:0,0:0:0:0:
40,40,76192,1,8,1:2:0:0:
140,16,76359,1,2,0:0:0:0:
216,88,76525,6,0,P|256:92|300:80,1,80,0|0,1:0|0:0,0:0:0:0:
461,68,76859,2,0,P|424:84|396:112,1,80,8|0,1:2|0:0,0:0:0:0:
324,184,77192,2,0,L|335:222,2,40,0|0|0,1:0|0:0|1:0,0:0:0:0:
436,252,77525,2,0,L|447:290,2,40,0|0|0,1:0|0:0|1:0,0:0:0:0:
376,368,77859,5,4,1:0:0:0:
276,336,78025,1,0,0:0:0:0:
172,356,78192,2,0,P|132:360|88:336,1,80,8|0,1:2|0:0,0:0:0:0:
108,240,78525,1,0,1:0:0:0:
44,160,78692,1,2,0:0:0:0:
44,160,78859,2,0,L|40:64,1,80,8|2,1:2|0:0,0:0:0:0:
120,12,79192,5,0,1:0:0:0:
224,28,79359,1,0,0:0:0:0:
284,112,79525,1,8,1:2:0:0:
380,152,79692,1,0,0:0:0:0:
468,96,79859,5,0,1:0:0:0:
376,48,80025,1,0,0:0:0:0:
328,140,80192,1,8,1:2:0:0:
372,232,80359,1,0,0:0:0:0:
304,312,80525,6,0,P|260:317|220:300,1,80,0|0,1:0|0:0,0:0:0:0:
83,230,80859,2,0,P|116:218|160:224,1,80,8|0,1:2|0:0,0:0:0:0:
132,324,81192,1,0,1:0:0:0:
28,320,81359,1,2,0:0:0:0:
83,230,81525,1,8,1:2:0:0:
52,132,81692,1,2,0:0:0:0:
116,48,81859,6,0,P|136:48|156:56,1,40,0|0,1:0|0:0,0:0:0:0:
208,116,82025,2,0,P|228:116|246:108,1,40,0|0,1:0|0:0,0:0:0:0:
316,72,82192,2,0,P|336:72|354:79,1,40,0|0,1:0|0:0,0:0:0:0:
432,104,82359,2,0,P|416:116|406:133,1,40,0|0,1:0|0:0,0:0:0:0:
440,204,82525,6,0,P|448:228|444:256,3,40,0|0|0|0,1:0|1:0|1:0|1:0,0:0:0:0:
400,308,82859,2,0,P|399:322|407:346,3,40,0|0|0|0,1:0|1:0|1:0|1:0,0:0:0:0:
332,372,83192,6,0,P|256:348|160:360,1,160,4|8,1:0|1:2,0:0:0:0:
100,380,83692,1,2,0:0:0:0:
32,340,83859,2,0,P|20:296|28:248,1,80,2|2,1:2|0:0,0:0:0:0:
36,248,84109,1,0,0:0:0:0:
48,232,84192,2,0,P|60:188|56:154,1,80,2|0,1:2|0:0,0:0:0:0:
36,52,84525,6,0,P|108:32|192:40,1,160,0|8,1:0|1:2,0:0:0:0:
260,84,85025,1,2,0:0:0:0:
336,108,85192,2,0,P|380:108|424:88,1,80,2|2,1:2|0:0,0:0:0:0:
428,84,85442,1,0,0:0:0:0:
440,68,85525,2,0,P|427:101|427:145,1,80,2|0,1:2|0:0,0:0:0:0:
340,204,85859,6,0,P|364:276|356:368,1,160,0|8,1:0|1:2,0:0:0:0:
280,380,86359,1,2,0:0:0:0:
252,304,86525,2,0,P|212:300|172:320,1,80,2|2,1:2|0:0,0:0:0:0:
164,332,86775,1,0,0:0:0:0:
156,348,86859,2,0,P|160:308|140:268,1,80,2|0,1:2|0:0,0:0:0:0:
48,232,87192,6,0,P|40:212|40:188,3,40,0|0|0|0,1:0|0:0|0:0|0:0,0:0:0:0:
60,160,87525,2,0,P|68:140|68:116,3,40,0|0|0|0,1:0|0:0|0:0|0:0,0:0:0:0:
48,88,87859,1,0,1:0:0:0:
128,24,88025,5,0,1:0:0:0:
148,20,88109,1,0,1:0:0:0:
168,24,88192,1,0,1:0:0:0:
184,32,88275,1,0,1:0:0:0:
200,44,88359,1,0,1:0:0:0:
216,56,88442,1,0,1:0:0:0:
232,68,88525,6,0,P|320:76|388:52,1,160,4|8,1:0|1:2,0:0:0:0:
448,104,89025,1,2,0:0:0:0:
384,152,89192,1,2,1:2:0:0:
380,172,89275,1,0,0:0:0:0:
380,192,89359,1,2,0:0:0:0:
384,212,89442,1,0,0:0:0:0:
392,228,89525,2,0,P|396:252|388:276,2,40,2|0|0,1:2|0:0|0:0,0:0:0:0:
288,228,89859,6,0,P|203:221|131:241,1,160,0|8,1:0|1:2,0:0:0:0:
72,296,90359,1,2,0:0:0:0:
32,228,90525,1,2,1:2:0:0:
44,212,90609,1,0,0:0:0:0:
48,192,90692,1,2,0:0:0:0:
48,172,90775,1,0,0:0:0:0:
40,156,90859,2,0,P|34:135|36:112,2,40,0|0|0,1:2|0:0|0:0,0:0:0:0:
76,56,91192,6,0,P|156:36|240:56,1,160,0|8,1:0|1:2,0:0:0:0:
304,20,91692,1,2,0:0:0:0:
300,100,91859,1,2,1:2:0:0:
292,116,91942,1,0,0:0:0:0:
292,136,92025,1,2,0:0:0:0:
296,156,92109,1,0,0:0:0:0:
304,176,92192,2,0,P|312:200|308:232,2,40,2|0|0,1:2|0:0|0:0,0:0:0:0:
401,300,92525,6,0,P|376:295|364:288,2,40,0|0|0,1:0|0:0|0:0,0:0:0:0:
242,322,92859,2,0,P|259:303|272:296,2,40,0|0|0,1:0|0:0|0:0,0:0:0:0:
172,288,93192,1,0,1:0:0:0:
156,296,93275,1,0,0:0:0:0:
136,300,93359,1,0,1:0:0:0:
116,300,93442,1,0,1:0:0:0:
96,292,93525,1,0,1:0:0:0:
80,280,93609,1,0,1:0:0:0:
72,264,93692,1,0,1:0:0:0:
68,244,93775,1,0,1:0:0:0:
72,224,93859,6,0,P|84:184|76:132,1,80,4|0,1:0|0:0,0:0:0:0:
32,84,94192,1,8,1:2:0:0:
88,28,94359,1,2,0:0:0:0:
164,52,94525,1,2,1:2:0:0:
200,64,94609,1,0,0:0:0:0:
240,68,94692,1,2,0:0:0:0:
276,56,94775,1,0,0:0:0:0:
312,40,94859,2,0,P|334:37|356:44,2,40,2|0|0,1:2|0:0|0:0,0:0:0:0:
372,120,95192,5,0,1:0:0:0:
436,76,95359,1,0,0:0:0:0:
444,156,95525,2,0,P|428:188|432:232,1,80,8|2,1:2|0:0,0:0:0:0:
456,308,95859,1,2,1:2:0:0:
416,300,95943,1,0,0:0:0:0:
376,304,96026,1,2,0:0:0:0:
340,316,96109,1,0,0:0:0:0:
308,340,96192,2,0,P|280:340|256:332,2,40,2|0|0,1:2|0:0|0:0,0:0:0:0:
248,256,96525,5,0,1:0:0:0:
284,184,96692,1,0,0:0:0:0:
236,120,96859,2,0,P|228:80|240:40,1,80,8|2,1:2|0:0,0:0:0:0:
160,56,97192,1,2,1:2:0:0:
120,64,97275,1,0,0:0:0:0:
92,92,97359,1,2,0:0:0:0:
56,112,97442,1,0,0:0:0:0:
16,104,97525,2,0,P|20:124|16:142,2,40,2|0|0,1:2|0:0|0:0,0:0:0:0:
96,204,97859,6,0,P|92:224|95:242,2,40,0|0|0,1:0|0:0|0:0,0:0:0:0:
40,320,98192,2,0,P|44:340|40:358,2,40,0|0|0,1:0|0:0|0:0,0:0:0:0:
95,243,98525,5,0,1:0:0:0:
136,232,98609,1,0,0:0:0:0:
176,244,98692,1,0,1:0:0:0:
208,268,98775,1,0,1:0:0:0:
228,304,98859,1,0,1:0:0:0:
240,340,98942,1,0,1:0:0:0:
276,360,99025,1,0,1:0:0:0:
316,368,99109,1,0,1:0:0:0:
352,352,99192,6,2,B|392:344|420:360|420:360|456:324|444:272,1,160,6|8,0:0|1:2,0:0:0:0:
480,208,99692,1,2,0:0:0:0:
468,192,99775,1,0,0:0:0:0:
464,172,99859,1,2,1:2:0:0:
488,96,100025,1,2,0:0:0:0:
480,77,100109,1,0,0:0:0:0:
464,64,100192,1,2,1:2:0:0:
447,54,100275,1,0,0:0:0:0:
426,51,100359,1,0,0:0:0:0:
332,96,100525,6,2,P|248:100|168:64,1,160,2|8,0:0|1:2,0:0:0:0:
104,48,101025,1,2,0:0:0:0:
108,68,101109,1,0,0:0:0:0:
108,88,101192,1,2,1:2:0:0:
68,156,101359,1,2,0:0:0:0:
64,176,101442,1,0,0:0:0:0:
64,196,101525,1,2,1:2:0:0:
68,216,101609,1,0,0:0:0:0:
76,236,101692,1,0,0:0:0:0:
148,312,101859,6,0,P|148:336|140:352,3,40,0|0|0|0,1:0|0:0|0:0|0:0,0:0:0:0:
236,256,102192,2,0,P|248:276|249:294,3,40,0|0|0|0,1:0|0:0|0:0|0:0,0:0:0:0:
300,176,102525,2,0,P|320:188|330:202,3,40,0|0|0|0,1:0|0:0|0:0|0:0,0:0:0:0:
296,76,102859,2,0,P|320:76|336:84,3,40,0|0|0|0,1:0|0:0|0:0|0:0,0:0:0:0:
216,128,103192,6,0,P|192:128|175:119,1,40,0|0,1:0|0:0,0:0:0:0:
116,72,103359,2,0,P|92:72|75:80,1,40,0|0,1:0|0:0,0:0:0:0:
28,140,103525,2,0,P|28:164|36:180,1,40,0|0,0:0|0:0,1:0:0:0:
84,240,103692,2,0,P|84:264|75:280,1,40,0|0,1:0|0:0,0:0:0:0:
48,352,103859,5,0,1:0:0:0:
68,344,103942,1,0,1:0:0:0:
88,344,104025,1,0,1:0:0:0:
108,352,104109,1,0,1:0:0:0:
124,364,104192,1,0,1:0:0:0:
140,372,104275,1,0,1:0:0:0:
160,376,104359,1,0,1:0:0:0:
180,376,104442,1,0,1:0:0:0:
200,368,104525,1,4,1:0:0:0:
