osu file format v12

[General]
AudioFilename: Suzaku - Contract.mp3
AudioLeadIn: 1500
PreviewTime: 171192
Countdown: 0
SampleSet: Normal
StackLeniency: 0.7
Mode: 0
LetterboxInBreaks: 1

[Editor]
DistanceSpacing: 1.8
BeatDivisor: 4
GridSize: 4

[Metadata]
Title:CONTRACT
TitleUnicode:CONTRACT
Artist:Suzaku
ArtistUnicode:朱雀
Creator:Evil_Twilight
Version:Another
Source:beatmania IIDX
Tags:littlecar3370 xiaocheche xiaochecheshenchu dj yoshitaka
BeatmapID:215638
BeatmapSetID:76588

[Difficulty]
HPDrainRate:8
CircleSize:4
OverallDifficulty:7
ApproachRate:9
SliderMultiplier:1.6
SliderTickRate:1

[Events]
//Background and Video events
0,0,"bg.jpg",0,0
//Break Periods
2,104725,114592
2,168725,170592
2,174059,183925
//Storyboard Layer 0 (Background)
//Storyboard Layer 1 (Fail)
//Storyboard Layer 2 (Pass)
//Storyboard Layer 3 (Foreground)
//Storyboard Sound Samples
//Background Colour Transformations
3,100,163,162,255

[TimingPoints]
526,333.333333333333,4,1,0,60,1,0
5859,-133.333333333333,4,2,0,40,0,0
16525,-133.333333333333,4,2,0,60,0,0
16859,-133.333333333333,4,2,0,50,0,0
21859,-133.333333333333,4,2,0,60,0,0
22192,-133.333333333333,4,2,0,50,0,0
25859,-133.333333333333,4,2,0,60,0,0
27192,-133.333333333333,4,2,0,60,0,1
27275,-133.333333333333,4,2,0,60,0,0
29692,-133.333333333333,4,2,0,5,0,0
29859,-133.333333333333,4,1,0,50,0,0
30192,-133.333333333333,4,1,0,40,0,0
40525,-133.333333333333,4,1,0,60,0,0
40692,-133.333333333333,4,1,0,40,0,0
50192,-133.333333333333,4,1,0,35,0,0
50525,-133.333333333333,4,1,0,40,0,0
50859,-133.333333333333,4,1,0,45,0,0
51192,-100,4,1,0,50,0,0
55859,-100,4,1,0,40,0,0
56025,-100,4,1,0,45,0,0
56192,-100,4,1,0,50,0,0
56359,-100,4,1,0,55,0,0
56525,-100,4,1,0,60,0,0
56859,-100,4,1,0,50,0,0
59192,-100,4,1,0,40,0,0
59525,-100,4,1,0,45,0,0
59859,-100,4,1,0,50,0,0
60192,-100,4,1,0,55,0,0
60525,-100,4,1,0,60,0,0
60859,-100,4,1,0,65,0,0
61192,-100,4,1,0,70,0,0
61525,-100,4,1,0,75,0,0
61859,-100,4,2,0,80,0,0
62192,-100,4,2,0,60,0,0
72525,-100,4,2,0,80,0,0
72859,-100,4,2,0,60,0,0
83192,-100,4,2,0,70,0,1
93192,-100,4,2,0,70,0,0
93859,-100,4,2,0,70,0,1
99192,-100,4,1,0,70,0,1
99692,-100,4,2,0,70,0,1
100525,-100,4,1,0,70,0,1
101025,-100,4,2,0,70,0,1
104525,-100,4,2,0,80,0,0
115192,-133.333333333333,4,2,0,60,0,0
115525,-133.333333333333,4,2,0,40,0,0
123192,-133.333333333333,4,1,0,50,0,0
125192,-133.333333333333,4,1,0,55,0,0
125525,-133.333333333333,4,1,0,60,0,0
125859,-133.333333333333,4,2,0,70,0,0
126025,-133.333333333333,4,2,0,50,0,0
136525,-133.333333333333,4,2,0,70,0,0
136859,-133.333333333333,4,2,0,50,0,0
144525,-100,4,2,0,60,0,0
145859,-100,4,2,0,70,0,0
146525,-100,4,2,0,80,0,0
147192,-133.333333333333,4,2,0,70,0,1
165859,-100,4,2,0,70,0,1
168442,-100,4,2,0,70,0,0
168525,-100,4,2,0,70,0,1
168609,-100,4,2,0,80,0,0
173859,-100,4,2,0,80,0,1
173942,-100,4,2,0,80,0,0
184525,-133.333333333333,4,2,0,60,0,0
184859,-133.333333333333,4,2,0,50,0,0
189859,-133.333333333333,4,2,0,60,0,0
190192,-133.333333333333,4,2,0,50,0,0
193859,-133.333333333333,4,2,0,60,0,0
195192,-100,4,2,0,70,0,1
195359,-100,4,2,0,60,0,0
203192,-133.333333333333,4,2,0,60,0,0
204359,-100,4,2,0,60,0,0
205859,-100,4,2,0,70,0,1
206025,-100,4,2,0,60,0,0
210192,-100,4,2,0,40,0,0
210525,-100,4,2,0,60,0,0
211192,-100,4,2,0,70,0,0
211359,-100,4,2,0,60,0,0
215192,-100,4,2,0,70,0,0
215859,-100,4,2,0,80,0,0
216525,-100,4,2,0,90,0,1
216692,-100,4,2,0,60,0,0
227192,-100,4,2,0,90,0,0
227359,-100,4,2,0,60,0,0
237859,-100,4,2,0,90,0,1
238025,-100,4,2,0,80,0,1
239859,-80,4,2,0,80,0,1
240525,-100,4,2,0,80,0,1
242525,-80,4,2,0,80,0,1
243192,-100,4,2,0,80,0,1
247859,-80,4,2,0,80,0,0
248525,-100,4,2,0,80,0,1
259109,-100,4,2,0,80,0,0
259192,-100,4,2,0,80,0,1
259275,-100,4,2,0,80,0,0

[Colours]
Combo1 : 255,128,0
Combo2 : 255,98,98
Combo3 : 231,40,35
Combo4 : 255,169,128

[HitObjects]
256,192,526,12,8,5275,0:0:0:0:
110,236,5859,1,4,1:0:0:0:
200,208,6025,1,0,0:0:0:0:
200,112,6192,1,0,0:0:0:0:
112,80,6359,1,2,0:0:0:0:
48,152,6525,2,0,P|64:96|48:32,2,120.000004577637,0|2|2,0:0|0:0|0:0,0:0:0:0:
16,304,7525,6,0,P|55:310|80:328,1,60.0000022888184,0|2,0:0|0:0,0:0:0:0:
184,272,7859,2,0,P|145:266|120:248,1,60.0000022888184,0|2,0:0|0:0,0:0:0:0:
192,352,8192,2,0,P|256:336|312:352,1,120.000004577637,2|0,0:0|1:0,0:0:0:0:
416,296,8692,5,2,0:0:0:0:
376,208,8859,1,0,0:0:0:0:
424,128,9025,1,2,0:0:0:0:
384,40,9192,2,0,P|448:56|499:42,2,120.000004577637,0|2|0,0:0|0:0|1:0,0:0:0:0:
224,144,10192,5,0,0:0:0:0:
144,88,10359,1,2,0:0:0:0:
64,120,10525,2,0,P|48:88|56:48,1,60.0000022888184,0|2,1:0|0:0,0:0:0:0:
0,176,10859,2,0,P|16:208|8:248,1,60.0000022888184,0|2,0:0|0:0,0:0:0:0:
56,344,11192,5,0,1:0:0:0:
128,280,11359,1,2,0:0:0:0:
216,336,11525,1,0,0:0:0:0:
296,248,11692,1,0,1:0:0:0:
392,328,11859,2,0,P|416:272|408:200,1,120.000004577637,0|2,0:0|0:0,0:0:0:0:
504,40,12525,2,0,P|480:96|488:168,1,120.000004577637,0|2,1:0|0:0,0:0:0:0:
412,214,13025,5,0,1:0:0:0:
352,136,13192,2,0,P|320:136|280:152,1,60.0000022888184,0|2,0:0|0:0,0:0:0:0:
224,240,13525,2,0,P|160:240|112:208,1,120.000004577637,0|0,1:0|1:0,0:0:0:0:
96,112,14025,5,0,0:0:0:0:
8,152,14192,1,0,0:0:0:0:
16,248,14359,1,0,1:0:0:0:
96,296,14525,5,0,0:0:0:0:
176,240,14692,1,0,0:0:0:0:
264,272,14859,1,0,1:0:0:0:
280,368,15025,1,0,0:0:0:0:
376,384,15192,5,0,0:0:0:0:
440,312,15359,1,0,1:0:0:0:
424,216,15525,1,0,1:0:0:0:
328,192,15692,1,8,0:0:0:0:
352,288,15859,5,8,0:0:0:0:
384,200,16025,1,0,1:0:0:0:
352,112,16192,1,0,1:0:0:0:
384,24,16359,1,0,1:0:0:0:
264,104,16525,6,0,P|200:104|144:72,1,120.000004577637,4|0,1:0|1:0,0:0:0:0:
72,32,17025,1,0,0:0:0:0:
56,120,17192,2,0,P|72:144|71:183,1,60.0000022888184,8|0,0:0|0:0,0:0:0:0:
5,305,17525,2,0,P|0:277|8:248,1,60.0000022888184,2|0,0:0|0:0,0:0:0:0:
73,174,17859,5,0,1:0:0:0:
168,176,18025,1,0,0:0:0:0:
240,248,18192,1,0,0:0:0:0:
208,336,18359,1,8,0:0:0:0:
144,264,18525,5,8,0:0:0:0:
224,184,18692,1,0,0:0:0:0:
320,240,18859,1,0,1:0:0:0:
416,184,19025,1,0,0:0:0:0:
488,264,19192,6,0,P|492:297|472:336,1,67.5000025749208,0|0,1:0|0:0,0:0:0:0:
416,184,19525,2,0,P|411:150|432:112,1,67.5000025749208,0|0,0:0|0:0,0:0:0:0:
488,64,19859,1,0,1:0:0:0:
400,32,20025,1,0,0:0:0:0:
320,80,20192,1,0,1:0:0:0:
224,56,20359,1,0,0:0:0:0:
120,88,20525,6,0,L|56:64,1,60.0000022888184,0|0,1:0|0:0,0:0:0:0:
176,200,20859,2,0,L|224:160,1,60.0000022888184,0|0,1:0|0:0,0:0:0:0:
56,192,21192,1,0,1:0:0:0:
88,280,21359,1,0,1:0:0:0:
64,368,21525,1,0,1:0:0:0:
160,344,21692,1,0,1:0:0:0:
272,296,21859,6,0,L|408:328,1,120.000004577637,4|0,1:0|1:0,0:0:0:0:
464,264,22359,1,0,0:0:0:0:
392,200,22525,2,0,P|384:160|400:128,1,60.0000022888184,8|0,0:0|0:0,0:0:0:0:
496,72,22859,1,2,0:0:0:0:
480,168,23025,1,0,0:0:0:0:
400,48,23192,6,0,P|336:40|272:64,1,120.000004577637,0|0,1:0|0:0,0:0:0:0:
240,144,23692,1,8,0:0:0:0:
168,208,23859,2,0,P|128:208|96:184,1,60.0000022888184,8|0,0:0|0:0,0:0:0:0:
40,136,24192,1,0,1:0:0:0:
56,40,24359,1,0,0:0:0:0:
64,280,24525,6,0,L|56:352,1,60.0000022888184,0|0,1:0|0:0,0:0:0:0:
168,208,24859,2,0,L|172:280,1,60.0000022888184,0|0,1:0|1:0,0:0:0:0:
280,128,25192,2,0,L|310:252,1,120.000004577637,0|0,1:0|1:0,0:0:0:0:
308,244,25859,5,0,0:0:0:0:
376,176,26025,1,0,0:0:0:0:
400,272,26192,1,0,0:0:0:0:
328,336,26359,1,8,0:0:0:0:
308,244,26525,5,8,0:0:0:0:
272,128,26692,1,0,0:0:0:0:
180,204,26859,1,0,0:0:0:0:
216,320,27025,1,0,0:0:0:0:
308,244,27192,1,4,0:0:0:0:
256,192,27275,12,0,29692,0:0:0:0:
72,208,29859,6,0,P|56:264|96:336,1,120.000004577637,4|0,1:0|0:0,0:0:0:0:
168,352,30359,1,0,0:0:0:0:
168,352,30692,1,0,0:0:0:0:
240,280,30859,2,0,L|376:264,1,120.000004577637,0|2,0:0|0:2,0:0:0:0:
424,200,31359,1,0,0:0:0:0:
496,336,31525,2,0,L|432:344,1,60.0000022888184
344,184,31859,1,0,0:0:0:0:
344,184,32192,1,0,0:0:0:0:
368,24,32442,5,0,0:0:0:0:
368,24,32525,1,2,0:2:0:0:
296,80,32692,1,0,0:0:0:0:
208,40,32859,2,0,L|128:32,1,60.0000022888184
48,72,33192,2,0,P|32:128|48:192,1,120.000004577637
32,376,33859,6,0,P|32:336|8:296,1,60.0000022888184,2|0,0:2|0:0,0:0:0:0:
144,272,34192,1,0,0:0:0:0:
144,272,34525,2,0,P|201:278|262:251,1,120.000004577637
328,320,35025,1,0,0:0:0:0:
328,320,35109,1,0,0:0:0:0:
328,320,35192,6,0,P|360:336|408:328,1,60.0000022888184,12|0,0:0|0:0,0:0:0:0:
464,272,35525,1,0,0:0:0:0:
472,368,35692,1,0,0:0:0:0:
376,232,35859,2,0,P|360:176|376:112,1,120.000004577637
184,96,36525,6,0,L|104:80,1,67.5000025749208,2|0,0:2|0:0,0:0:0:0:
56,24,36859,2,0,P|72:80|56:160,1,120.000004577637
77,299,37359,2,0,P|79:264|92:244,1,60.0000022888184
276,352,37775,5,0,0:0:0:0:
276,352,37859,1,2,0:2:0:0:
340,284,38025,1,0,0:0:0:0:
424,328,38192,2,0,P|463:326|488:304,1,60.0000022888184
464,224,38525,2,0,L|472:144,1,60.0000022888184
424,48,38859,1,0,0:0:0:0:
424,48,39192,5,2,0:2:0:0:
352,112,39359,2,0,P|288:120|232:80,1,120.000004577637
128,24,39859,2,0,P|144:48|136:96,1,60.0000022888184
32,216,40192,2,0,P|27:180|35:158,1,60.0000022888184
160,208,40525,5,12,0:0:0:0:
232,272,40692,1,0,0:0:0:0:
312,216,40859,2,0,L|392:232,1,60.0000022888184
464,288,41192,2,0,P|496:232|488:160,1,120.000004577637
472,88,41692,1,0,0:0:0:0:
400,152,41859,6,0,L|320:136,1,60.0000022888184,2|0,0:2|0:0,0:0:0:0:
248,136,42192,1,0,0:0:0:0:
184,64,42359,1,0,0:0:0:0:
72,136,42525,2,0,P|48:72|56:8,1,120.000004577637
8,200,43109,5,0,0:0:0:0:
8,200,43192,2,0,P|24:232|24:272,1,60.0000022888184,2|0,0:2|0:0,0:0:0:0:
56,344,43525,1,0,0:0:0:0:
120,272,43692,2,0,L|208:264,1,60.0000022888184
288,336,44025,2,0,L|228:341,1,60.0000022888184
368,280,44359,1,0,0:0:0:0:
448,336,44525,5,2,0:2:0:0:
488,248,44692,2,0,L|480:112,1,120.000004577637
440,40,45192,2,0,P|384:32|312:64,1,120.000004577637
232,32,45692,1,0,0:0:0:0:
232,32,45775,1,0,0:0:0:0:
232,32,45859,6,0,L|240:104,1,60.0000022888184,2|0,0:2|0:0,0:0:0:0:
264,232,46192,1,0,0:0:0:0:
328,136,46359,1,0,0:0:0:0:
168,160,46525,2,0,P|112:168|40:128,1,120.000004577637
64,48,47025,1,0,0:0:0:0:
96,224,47192,6,0,P|97:260|80:296,1,60.0000022888184,2|0,0:2|0:0,0:0:0:0:
144,376,47525,2,0,P|161:344|193:321,1,60.0000022888184,0|0,0:0|0:0,0:0:0:0:
184,232,47859,2,0,L|312:256,1,120.000004577637
440,336,48442,5,0,0:0:0:0:
440,336,48525,1,2,0:2:0:0:
408,248,48692,1,0,0:0:0:0:
488,192,48859,2,0,P|496:152|488:112,1,60.0000022888184
367,49,49192,2,0,P|381:88|392:104,1,60.0000022888184
392,104,49525,2,0,P|334:81|264:96,1,120.000004577637
208,152,50025,1,0,0:0:0:0:
120,112,50192,5,0,0:0:0:0:
104,128,50275,1,0,0:0:0:0:
96,152,50359,1,0,0:0:0:0:
96,176,50442,1,0,0:0:0:0:
104,200,50525,1,0,0:0:0:0:
120,216,50609,1,0,0:0:0:0:
136,232,50692,1,0,0:0:0:0:
152,248,50775,1,0,0:0:0:0:
160,272,50859,1,0,0:0:0:0:
160,296,50942,1,0,0:0:0:0:
152,320,51025,1,0,0:0:0:0:
144,344,51109,1,0,0:0:0:0:
128,360,51192,6,0,P|208:328|288:336,1,160,4|0,0:0|0:0,0:0:0:0:
408,264,51692,1,0,0:0:0:0:
408,264,51859,2,0,P|384:296|384:344,1,80,0|0,0:0|0:0,0:0:0:0:
328,184,52192,1,2,0:2:0:0:
328,184,52525,6,0,P|352:152|352:104,1,80
408,264,52859,1,0,0:0:0:0:
256,120,53025,1,0,0:0:0:0:
224,328,53192,2,0,P|152:304|64:320,1,160,0|2,0:0|0:2,0:0:0:0:
16,232,53692,1,0,0:0:0:0:
16,232,53775,1,0,0:0:0:0:
16,232,53859,5,0,0:0:0:0:
104,168,54025,1,0,0:0:0:0:
16,120,54192,2,0,P|12:78|32:40,1,80
128,24,54525,2,0,L|288:56,1,160,0|2,0:0|0:2,0:0:0:0:
384,32,55025,1,0,0:0:0:0:
496,96,55192,5,0,0:0:0:0:
368,128,55359,1,0,0:0:0:0:
480,184,55525,2,0,P|456:240|472:312,1,120
472,312,55859,5,0,0:0:0:0:
376,344,56025,1,0,0:0:0:0:
256,304,56192,1,0,0:0:0:0:
120,368,56359,1,0,0:0:0:0:
24,232,56525,6,0,P|48:152|32:64,1,160,4|0,0:0|0:0,0:0:0:0:
120,16,57025,1,0,0:0:0:0:
176,104,57192,2,0,L|272:88,1,80
352,136,57525,1,2,0:2:0:0:
352,136,57859,5,0,0:0:0:0:
480,112,58025,1,0,0:0:0:0:
512,240,58192,1,0,0:0:0:0:
424,328,58359,1,0,0:0:0:0:
320,256,58525,2,0,P|256:248|192:288,1,120
68,269,58859,2,0,P|112:260|136:232,1,80,2|0,0:2|2:0,0:0:0:0:
56,168,59192,6,0,L|40:120,3,40
136,72,59525,2,0,L|146:22,3,40
248,40,59859,2,0,L|281:2,3,40
376,56,60192,2,0,L|423:40,3,40
432,40,60525,5,0,0:0:0:0:
445,54,60608,1,0,0:0:0:0:
453,73,60691,1,0,0:0:0:0:
455,92,60775,1,0,0:0:0:0:
453,112,60858,1,0,0:0:0:0:
448,132,60941,1,0,0:0:0:0:
440,150,61025,1,0,0:0:0:0:
431,168,61108,1,0,0:0:0:0:
421,185,61191,5,0,0:0:0:0:
412,203,61275,1,0,0:0:0:0:
404,221,61358,1,0,0:0:0:0:
397,240,61441,1,0,0:0:0:0:
394,260,61525,1,0,0:0:0:0:
393,280,61608,1,0,0:0:0:0:
397,300,61691,1,0,0:0:0:0:
404,318,61775,1,0,0:0:0:0:
414,336,61859,6,0,P|348:304|256:316,1,160,4|8,1:0|1:2,0:0:0:0:
184,380,62359,1,0,2:0:0:0:
100,320,62525,2,0,P|92:280|108:245,1,80,0|2,1:0|0:0,0:0:0:0:
108,245,63025,1,2,2:0:0:0:
32,172,63192,2,0,P|60:92|40:4,2,160,0|8|0,1:0|1:2|1:0,0:0:0:0:
108,245,64025,1,0,0:0:0:0:
132,144,64192,1,8,1:2:0:0:
132,144,64525,6,0,L|216:152,1,80,0|0,1:0|0:0,0:0:0:0:
336,32,64859,1,8,1:2:0:0:
304,204,65025,1,0,0:0:0:0:
232,52,65192,1,0,1:0:0:0:
376,128,65359,1,2,0:0:0:0:
376,128,65692,1,2,0:0:0:0:
492,180,65859,6,0,P|496:220|476:268,1,80,0|0,1:0|0:0,0:0:0:0:
360,360,66192,2,0,P|356:320|376:272,1,80,8|0,1:2|0:0,0:0:0:0:
272,156,66525,1,0,1:0:0:0:
208,304,66692,1,0,1:0:0:0:
368,282,66859,1,0,1:0:0:0:
272,156,67025,1,0,1:0:0:0:
124,312,67192,6,0,P|80:316|36:288,1,80,4|0,1:0|0:0,0:0:0:0:
0,208,67525,1,8,1:2:0:0:
76,136,67692,2,0,P|84:92|68:48,1,80,0|0,0:0|1:0,0:0:0:0:
168,16,68025,1,2,0:0:0:0:
168,16,68359,1,2,0:0:0:0:
236,96,68525,2,0,P|328:100|392:60,2,160,0|8|0,1:0|1:2|1:0,0:0:0:0:
168,16,69359,1,0,0:0:0:0:
132,112,69525,1,8,1:2:0:0:
132,112,69859,6,0,P|112:144|112:192,1,80,0|0,1:0|0:0,0:0:0:0:
212,328,70192,1,8,1:2:0:0:
52,272,70359,1,0,0:0:0:0:
208,224,70525,1,0,1:0:0:0:
112,356,70692,1,2,0:0:0:0:
112,356,71025,1,2,0:0:0:0:
136,272,71192,5,0,1:0:0:0:
236,240,71359,1,0,0:0:0:0:
316,308,71525,1,8,1:2:0:0:
368,216,71692,1,0,0:0:0:0:
420,356,71859,1,0,1:0:0:0:
420,356,71942,1,0,0:0:0:0:
420,356,72025,1,0,1:0:0:0:
468,168,72192,1,0,1:0:0:0:
468,168,72275,1,0,0:0:0:0:
468,168,72359,1,0,1:0:0:0:
468,168,72442,1,0,0:0:0:0:
468,168,72525,6,0,B|476:128|436:104|436:104|416:64|440:20,1,160,4|8,1:0|1:2,0:0:0:0:
336,4,73025,1,0,0:0:0:0:
276,88,73192,2,0,P|236:92|196:64,1,80,0|2,1:0|0:0,0:0:0:0:
44,96,73525,2,0,P|82:105|110:145,1,80,8|0,0:0|0:0,0:0:0:0:
84,316,73859,5,0,1:0:0:0:
256,252,74025,1,0,0:0:0:0:
44,220,74192,1,8,1:2:0:0:
188,332,74359,1,0,0:0:0:0:
188,332,74442,1,0,0:0:0:0:
188,332,74525,1,0,1:0:0:0:
220,152,74692,1,0,0:0:0:0:
152,236,74859,1,8,1:2:0:0:
292,352,75025,1,0,0:0:0:0:
328,176,75192,6,0,P|340:132|324:92,1,80,0|0,1:0|0:0,0:0:0:0:
432,20,75525,2,0,P|420:64|436:104,1,80,8|0,1:2|0:0,0:0:0:0:
416,200,75859,1,0,1:0:0:0:
512,160,76025,1,2,0:0:0:0:
392,304,76192,1,8,0:0:0:0:
296,264,76358,1,2,0:0:0:0:
208,320,76525,6,0,P|172:336|128:328,1,80,0|0,1:0|0:0,0:0:0:0:
40,272,76859,2,0,L|29:351,1,80,8|0,1:2|0:0,0:0:0:0:
132,224,77192,1,0,1:0:0:0:
148,176,77275,1,0,0:0:0:0:
136,124,77359,1,0,1:0:0:0:
208,20,77525,1,0,1:0:0:0:
209,70,77608,1,0,0:0:0:0:
238,115,77692,1,0,1:0:0:0:
332,156,77859,6,0,P|404:148|444:104,1,120,4|0,1:0|0:0,0:0:0:0:
472,80,78192,2,0,P|452:116|464:172,1,80,8|0,1:2|0:0,0:0:0:0:
496,248,78525,1,0,1:0:0:0:
456,344,78692,1,2,0:0:0:0:
372,284,78859,1,8,0:0:0:0:
276,316,79025,1,2,0:0:0:0:
172,240,79192,6,0,P|132:236|92:264,1,80,0|0,1:0|0:0,0:0:0:0:
16,320,79525,2,0,L|8:224,1,80,8|0,1:2|0:0,0:0:0:0:
9,240,79775,1,0,0:0:0:0:
9,240,79859,1,0,1:0:0:0:
52,144,80025,1,0,0:0:0:0:
168,92,80192,2,0,P|180:52|164:4,1,80,8|0,1:2|0:0,0:0:0:0:
292,56,80525,5,0,1:0:0:0:
388,12,80692,1,0,0:0:0:0:
480,144,80859,1,8,1:2:0:0:
384,100,81026,1,0,0:0:0:0:
296,232,81192,1,0,1:0:0:0:
392,188,81359,1,2,0:0:0:0:
392,188,81442,1,0,0:0:0:0:
392,188,81525,2,0,P|404:228|392:280,1,80,8|2,0:0|0:0,0:0:0:0:
320,332,81859,6,0,L|312:376,1,40,0|0,1:0|0:0,0:0:0:0:
220,304,82025,2,0,L|212:260,1,40,0|0,1:0|0:0,0:0:0:0:
124,332,82192,2,0,L|116:376,1,40,0|0,1:0|0:0,0:0:0:0:
28,304,82359,2,0,L|20:260,1,40,0|0,1:0|0:0,0:0:0:0:
32,240,82525,5,0,1:0:0:0:
40,212,82609,1,0,1:0:0:0:
40,184,82692,1,0,1:0:0:0:
32,156,82775,1,0,1:0:0:0:
16,132,82859,1,0,1:0:0:0:
8,104,82942,1,0,1:0:0:0:
12,76,83025,1,0,1:0:0:0:
20,48,83109,1,0,1:0:0:0:
40,28,83192,5,4,1:0:0:0:
68,20,83275,1,0,0:0:0:0:
96,20,83359,1,0,0:0:0:0:
120,36,83442,1,0,0:0:0:0:
136,60,83525,1,8,1:2:0:0:
156,164,83692,1,2,0:0:0:0:
172,144,83775,1,0,0:0:0:0:
192,124,83859,1,2,1:2:0:0:
216,112,83942,1,0,0:0:0:0:
244,108,84025,1,2,0:0:0:0:
272,112,84109,1,0,0:0:0:0:
300,120,84192,2,0,P|328:120|344:108,3,40,2|0|0|0,1:2|0:0|0:0|0:0,0:0:0:0:
404,32,84525,5,0,1:0:0:0:
428,48,84609,1,0,0:0:0:0:
444,72,84692,1,0,0:0:0:0:
448,100,84775,1,0,0:0:0:0:
444,128,84859,1,8,1:2:0:0:
376,208,85025,1,2,0:0:0:0:
404,200,85109,1,0,0:0:0:0:
432,204,85192,1,2,1:2:0:0:
456,216,85275,1,0,0:0:0:0:
472,240,85359,1,2,0:0:0:0:
480,268,85442,1,0,0:0:0:0:
476,296,85525,2,0,P|468:320|480:352,3,40,2|0|0|0,1:2|0:0|0:0|0:0,0:0:0:0:
372,324,85859,5,0,1:0:0:0:
348,308,85942,1,0,0:0:0:0:
320,300,86025,1,0,0:0:0:0:
292,300,86109,1,0,0:0:0:0:
268,312,86192,1,8,1:2:0:0:
172,356,86359,1,2,0:0:0:0:
148,368,86442,1,0,0:0:0:0:
120,376,86525,1,2,1:2:0:0:
92,380,86609,1,0,0:0:0:0:
64,372,86692,1,2,0:0:0:0:
36,364,86775,1,0,0:0:0:0:
16,344,86859,2,0,P|4:323|4:292,3,40,2|0|0|0,1:2|0:0|0:0|0:0,0:0:0:0:
64,224,87192,6,0,L|72:164,3,40,0|0|0|0,1:0|0:0|0:0|0:0,0:0:0:0:
64,44,87525,2,0,L|111:80,3,40,0|0|0|0,1:0|0:0|0:0|0:0,0:0:0:0:
176,148,87859,1,0,1:0:0:0:
280,72,88025,5,0,1:0:0:0:
312,108,88109,1,0,1:0:0:0:
360,120,88192,1,2,1:2:0:0:
404,104,88275,1,0,1:0:0:0:
452,116,88359,1,0,0:0:0:0:
476,160,88442,1,0,1:0:0:0:
464,212,88525,5,4,1:0:0:0:
448,236,88609,1,0,0:0:0:0:
436,260,88692,1,0,0:0:0:0:
432,288,88775,1,0,0:0:0:0:
436,316,88859,1,8,1:2:0:0:
336,292,89025,1,2,0:0:0:0:
308,284,89109,1,0,0:0:0:0:
280,284,89192,1,2,1:2:0:0:
252,292,89275,1,0,0:0:0:0:
232,312,89359,1,2,0:0:0:0:
208,328,89442,1,0,0:0:0:0:
180,336,89525,2,0,P|156:336|128:312,3,40,2|0|0|0,1:2|0:0|0:0|0:0,0:0:0:0:
44,360,89859,5,0,1:0:0:0:
56,336,89942,1,0,0:0:0:0:
64,308,90025,1,0,0:0:0:0:
64,280,90109,1,0,0:0:0:0:
56,252,90192,1,8,1:2:0:0:
12,156,90359,1,2,0:0:0:0:
4,128,90442,1,0,0:0:0:0:
8,100,90525,1,2,1:2:0:0:
16,72,90609,1,0,0:0:0:0:
32,48,90692,1,2,0:0:0:0:
56,36,90775,1,0,0:0:0:0:
84,32,90859,2,0,P|112:32|132:44,3,40,2|0|0|0,1:2|0:0|0:0|0:0,0:0:0:0:
200,104,91192,5,0,1:0:0:0:
224,116,91275,1,0,0:0:0:0:
252,124,91359,1,0,0:0:0:0:
280,120,91442,1,0,0:0:0:0:
304,108,91525,1,8,1:2:0:0:
388,48,91692,1,2,0:0:0:0:
364,60,91775,1,0,0:0:0:0:
344,80,91859,1,2,1:2:0:0:
332,104,91942,1,0,0:0:0:0:
328,132,92025,1,2,0:0:0:0:
332,160,92109,1,0,0:0:0:0:
344,184,92192,2,0,P|352:208|348:240,3,40,2|0|0|0,1:2|0:0|0:0|0:0,0:0:0:0:
440,324,92525,6,0,P|415:318|389:299,3,40,0|0|0|0,1:0|0:0|0:0|0:0,0:0:0:0:
272,336,92859,2,0,P|288:317|318:304,3,40,0|0|0|0,1:0|0:0|0:0|0:0,0:0:0:0:
344,184,93192,1,0,1:0:0:0:
232,248,93359,5,0,1:0:0:0:
200,208,93442,1,0,1:0:0:0:
204,156,93525,1,2,1:2:0:0:
232,112,93609,1,0,1:0:0:0:
244,60,93692,1,0,1:0:0:0:
224,12,93775,1,0,1:0:0:0:
172,0,93859,5,4,1:0:0:0:
120,88,94025,1,0,0:0:0:0:
120,88,94109,1,0,0:0:0:0:
120,88,94192,1,8,1:2:0:0:
32,32,94359,1,2,0:0:0:0:
0,76,94442,1,0,0:0:0:0:
4,128,94525,1,2,1:2:0:0:
32,172,94609,1,0,0:0:0:0:
80,196,94692,1,2,0:0:0:0:
116,232,94775,1,0,0:0:0:0:
120,284,94859,2,0,P|116:308|100:324,3,40,2|0|0|0,1:2|0:0|0:0|0:0,0:0:0:0:
8,280,95192,5,0,1:0:0:0:
176,224,95359,1,0,0:0:0:0:
188,248,95442,1,0,0:0:0:0:
188,276,95525,1,8,1:2:0:0:
248,360,95692,1,2,0:0:0:0:
264,312,95775,1,0,0:0:0:0:
304,280,95859,1,2,1:2:0:0:
356,272,95942,1,0,0:0:0:0:
400,296,96025,1,2,0:0:0:0:
452,304,96109,1,0,0:0:0:0:
496,276,96192,2,0,P|504:256|504:236,3,40,2|0|0|0,1:2|0:0|0:0|0:0,0:0:0:0:
432,128,96525,5,0,1:0:0:0:
364,12,96692,1,0,0:0:0:0:
352,36,96775,1,0,0:0:0:0:
352,64,96859,1,8,1:2:0:0:
332,164,97025,1,2,0:0:0:0:
284,184,97109,1,0,0:0:0:0:
236,172,97192,1,2,1:2:0:0:
204,132,97275,1,0,0:0:0:0:
184,84,97359,1,2,0:0:0:0:
136,64,97442,1,0,0:0:0:0:
84,76,97525,2,0,P|66:87|58:107,3,40,2|0|0|0,1:2|0:0|0:0|0:0,0:0:0:0:
14,264,97859,6,0,P|31:252|40:236,3,40,0|0|0|0,1:0|0:0|0:0|0:0,0:0:0:0:
208,204,98192,2,0,P|191:210|179:227,3,40,0|0|0|0,1:0|0:0|0:0|0:0,0:0:0:0:
204,356,98525,1,0,1:0:0:0:
212,200,98692,5,0,1:0:0:0:
252,168,98775,1,0,1:0:0:0:
304,172,98859,1,0,1:0:0:0:
336,212,98942,1,0,1:0:0:0:
356,260,99025,1,0,1:0:0:0:
404,284,99109,1,0,1:0:0:0:
456,276,99192,6,2,P|488:192|480:116,1,160,6|8,0:0|0:2,0:0:0:0:
500,20,99692,1,2,0:0:0:0:
404,56,99859,1,2,1:2:0:0:
356,40,99942,1,0,0:0:0:0:
304,48,100025,1,2,0:0:0:0:
256,64,100109,1,0,0:0:0:0:
212,92,100192,2,0,P|172:104|124:92,1,80,2|0,1:2|0:0,0:0:0:0:
112,84,100442,1,0,0:0:0:0:
92,64,100525,6,2,P|112:136|84:228,1,160,2|8,0:0|0:2,0:0:0:0:
4,276,101025,1,2,0:0:0:0:
100,320,101192,1,2,1:2:0:0:
144,292,101275,1,0,0:0:0:0:
196,288,101359,1,2,0:0:0:0:
244,304,101442,1,0,0:0:0:0:
288,332,101525,2,0,P|332:332|368:312,1,80,2|0,1:2|0:0,0:0:0:0:
380,292,101775,1,0,0:0:0:0:
396,272,101859,6,0,P|416:268|440:276,3,40,0|0|0|0,1:0|0:0|0:0|0:0,0:0:0:0:
512,168,102192,2,0,P|492:161|475:142,3,40,0|0|0|0,1:0|0:0|0:0|0:0,0:0:0:0:
336,64,102525,2,0,P|351:76|361:100,3,40,0|0|0|0,1:0|0:0|0:0|0:0,0:0:0:0:
304,244,102859,2,0,P|293:226|292:201,3,40,0|0|0|0,1:0|0:0|0:0|0:0,0:0:0:0:
208,100,103192,6,0,L|148:92,1,40,0|0,1:0|0:0,0:0:0:0:
64,200,103359,2,0,L|124:208,1,40,0|0,1:0|0:0,0:0:0:0:
232,72,103525,2,0,L|172:64,1,40,0|0,1:0|0:0,0:0:0:0:
40,240,103692,2,0,L|100:248,1,40,0|0,1:0|0:0,0:0:0:0:
244,236,103859,5,0,1:0:0:0:
288,208,103942,1,0,1:0:0:0:
316,164,104025,1,0,1:0:0:0:
328,116,104108,1,0,1:0:0:0:
316,164,104192,1,0,1:0:0:0:
316,216,104275,1,0,1:0:0:0:
328,268,104358,1,0,1:0:0:0:
352,316,104442,1,0,1:0:0:0:
392,352,104525,1,4,1:0:0:0:
88,88,115192,6,0,P|80:148|104:216,1,120.000004577637,12|0,1:0|0:0,0:0:0:0:
152,260,115692,1,0,0:0:0:0:
120,332,115859,2,0,P|92:335|44:316,2,60.0000022888184,8|0|0,0:0|0:0|0:0,0:0:0:0:
272,360,116525,1,0,1:0:0:0:
304,288,116692,1,0,0:0:0:0:
380,272,116859,2,0,P|392:244|392:204,1,60.0000022888184,0|0,0:0|1:0,0:0:0:0:
460,56,117192,2,0,P|450:113|462:173,1,120.000004577637,8|0,0:0|1:0,0:0:0:0:
336,80,117859,6,0,P|308:68|268:68,1,60.0000022888184,0|0,1:0|0:0,0:0:0:0:
232,128,118192,2,0,P|202:126|174:114,1,60.0000022888184,0|0,0:0|0:0,0:0:0:0:
60,76,118525,2,0,P|40:132|48:200,1,120.000004577637,8|0,0:0|0:0,0:0:0:0:
96,248,119025,1,0,0:0:0:0:
48,356,119192,5,0,1:0:0:0:
120,328,119359,1,8,0:0:0:0:
196,348,119525,2,0,L|256:340,1,60.0000022888184,0|0,0:0|1:0,0:0:0:0:
376,352,119859,2,0,P|396:296|388:228,1,120.000004577637,8|0,0:0|1:0,0:0:0:0:
420,24,120525,6,0,P|420:53|432:81,1,60.0000022888184,4|0,1:0|0:0,0:0:0:0:
496,140,120859,1,0,0:0:0:0:
480,224,121025,1,0,0:0:0:0:
364,144,121192,2,0,P|312:128|240:136,1,120.000004577637,8|0,0:0|0:0,0:0:0:0:
184,180,121692,1,0,0:0:0:0:
104,176,121859,6,0,P|84:148|80:116,1,60.0000022888184,0|0,1:0|0:0,0:0:0:0:
44,316,122192,2,0,P|29:347|4:366,1,60.0000022888184,0|0,0:0|1:0,0:0:0:0:
184,292,122525,1,8,0:0:0:0:
184,292,122859,2,0,B|236:296|260:268|260:268|288:260|312:276,1,120.000004577637,0|2,1:0|0:0,0:0:0:0:
388,348,123358,5,0,0:0:0:0:
408,228,123525,2,0,P|400:196|408:164,1,60.0000022888184,0|2,0:0|0:0,0:0:0:0:
464,92,123858,2,2,P|408:116|336:112,1,120.000004577637,2|0,0:0|0:0,0:0:0:0:
292,60,124359,1,0,0:0:0:0:
208,104,124525,5,0,0:0:0:0:
116,80,124692,2,0,P|104:108|108:140,1,60.0000022888184,8|0,0:0|0:0,0:0:0:0:
148,204,125025,1,8,0:0:0:0:
120,276,125192,5,8,0:0:0:0:
8,236,125359,1,0,0:0:0:0:
156,352,125525,1,8,0:0:0:0:
268,312,125692,1,0,0:0:0:0:
384,348,125859,6,0,P|420:344|448:316,1,60.0000022888184,4|8,1:0|0:0,0:0:0:0:
464,236,126192,2,0,P|453:201|421:178,1,60.0000022888184,0|0,1:0|0:0,0:0:0:0:
332,124,126525,2,0,P|324:60|340:0,2,120.000004577637,8|2|0,0:0|0:0|1:0,0:0:0:0:
264,192,127359,1,8,0:0:0:0:
204,116,127525,2,0,P|172:120|140:140,1,60.0000022888184
48,200,127859,2,0,P|49:171|37:143,1,60.0000022888184,8|0,0:0|0:0,0:0:0:0:
144,244,128192,2,0,P|124:296|128:368,2,120.000004577637,0|4|0,1:0|1:0|0:0,0:0:0:0:
236,268,129025,1,0,0:0:0:0:
316,216,129192,5,8,0:0:0:0:
413,384,129359,1,2,0:0:0:0:
433,191,129525,1,0,0:0:0:0:
303,335,129692,1,0,1:0:0:0:
493,294,129859,2,0,P|508:232|496:160,1,120.000004577637,2|0,0:0|0:0,0:0:0:0:
444,100,130359,1,0,0:0:0:0:
368,160,130525,2,0,P|336:160|308:140,1,60.0000022888184,8|0,0:0|0:0,0:0:0:0:
264,16,130859,1,0,1:0:0:0:
140,184,131192,5,4,1:0:0:0:
80,108,131359,1,8,0:0:0:0:
12,176,131525,1,0,1:0:0:0:
44,264,131692,1,0,0:0:0:0:
28,360,131859,1,8,0:0:0:0:
28,360,132192,2,0,P|88:340|160:348,1,120.000004577637,0|0,0:0|1:0,0:0:0:0:
212,272,132692,1,8,0:0:0:0:
276,360,132859,2,0,P|312:356|328:340,1,60.0000022888184
428,240,133192,2,0,P|414:297|422:357,2,120.000004577637,8|0|4,0:0|1:0|1:0,0:0:0:0:
428,240,134192,6,0,P|456:216|468:180,1,60.0000022888184
428,108,134525,1,8,0:0:0:0:
476,24,134692,1,0,0:0:0:0:
332,100,134859,2,0,P|272:104|208:76,1,120.000004577637,0|0,1:0|1:0,0:0:0:0:
136,132,135359,1,8,0:0:0:0:
44,76,135525,5,0,0:0:0:0:
40,184,135692,1,0,0:0:0:0:
132,240,135859,1,8,0:0:0:0:
168,340,136025,1,0,1:0:0:0:
68,376,136192,2,0,L|8:368,1,60.0000022888184,0|0,1:0|0:0,0:0:0:0:
260,284,136525,6,0,L|392:304,1,120.000004577637,4|0,1:0|1:0,0:0:0:0:
444,364,137025,1,0,0:0:0:0:
500,296,137192,2,0,P|510:265|508:232,1,60.0000022888184,8|0,0:0|0:0,0:0:0:0:
408,172,137525,2,0,P|397:141|400:108,1,60.0000022888184
324,20,137859,2,0,P|268:12|196:36,1,120.000004577637,0|0,1:0|1:0,0:0:0:0:
164,116,138359,1,0,0:0:0:0:
76,80,138525,1,8,0:0:0:0:
4,140,138692,1,0,0:0:0:0:
52,224,138859,2,0,P|60:256|48:296,1,60.0000022888184,0|0,1:0|0:0,0:0:0:0:
76,376,139192,6,0,P|103:357|145:355,1,60.0000022888184,4|0,1:0|0:0,0:0:0:0:
148,260,139525,1,0,0:0:0:0:
240,288,139692,1,0,0:0:0:0:
328,248,139859,2,0,P|354:252|381:270,1,60.0000022888184,8|2,0:0|0:0,0:0:0:0:
448,356,140192,1,0,1:0:0:0:
464,248,140359,1,0,0:0:0:0:
480,140,140525,2,0,L|500:8,1,120.000004577637,2|0,0:0|1:0,0:0:0:0:
404,44,141025,1,0,0:0:0:0:
332,104,141192,6,0,P|300:108|268:88,1,60.0000022888184,8|0,0:0|0:0,0:0:0:0:
120,80,141525,2,0,P|151:87|170:106,1,60.0000022888184,0|0,1:0|0:0,0:0:0:0:
96,188,141859,5,4,1:0:0:0:
128,280,142025,1,0,0:0:0:0:
84,364,142192,2,0,P|52:364|24:344,1,60.0000022888184,0|0,1:0|0:0,0:0:0:0:
180,352,142525,2,0,P|240:332|316:340,1,120.000004577637,8|2,0:0|0:0,0:0:0:0:
384,376,143025,1,0,0:0:0:0:
452,308,143192,1,0,1:0:0:0:
424,216,143359,1,8,0:0:0:0:
480,140,143525,2,0,L|488:60,1,60.0000022888184
416,12,143859,1,8,0:0:0:0:
324,36,144025,1,0,0:0:0:0:
280,124,144192,1,0,1:0:0:0:
280,124,144525,6,0,L|224:136,3,40,4|0|8|0,1:0|0:0|0:0|0:0,0:0:0:0:
172,28,144859,2,0,L|156:79,3,40,2|0|0|0,1:2|0:0|0:0|0:0,0:0:0:0:
36,44,145192,2,0,L|65:89,3,40,8|0|8|0,1:2|1:0|1:2|1:2,0:0:0:0:
124,196,145525,2,0,L|108:244,3,40,2|0|2|0,1:2|1:0|1:2|1:0,0:0:0:0:
84,312,145859,5,0,1:0:0:0:
100,336,145942,1,0,1:0:0:0:
120,352,146025,1,0,1:0:0:0:
148,360,146109,1,0,0:0:0:0:
176,356,146192,1,0,1:0:0:0:
200,344,146275,1,0,1:0:0:0:
216,320,146359,1,0,1:0:0:0:
224,292,146442,1,0,1:0:0:0:
220,264,146525,5,0,1:0:0:0:
264,292,146609,1,0,1:0:0:0:
317,294,146692,1,0,1:0:0:0:
362,274,146775,1,0,1:0:0:0:
396,236,146859,1,0,1:0:0:0:
416,187,146942,1,0,1:0:0:0:
411,136,147025,1,0,1:0:0:0:
386,87,147109,1,0,1:0:0:0:
344,58,147192,6,0,P|282:56|221:79,1,120.000004577637,4|0,1:0|0:0,1:0:0:0:
148,128,147692,2,0,P|175:73|180:8,1,120.000004577637,0|0,1:0|0:0,0:0:0:0:
216,200,148192,2,0,P|232:224|236:260,1,60.0000022888184,4|0,1:0|0:0,0:0:0:0:
176,328,148525,1,0,2:0:0:0:
272,344,148692,2,0,P|336:328|408:336,1,120.000004577637,0|0,1:0|0:0,0:0:0:0:
456,264,149192,2,0,P|476:292|480:332,1,60.0000022888184,0|0,1:0|0:0,0:0:0:0:
492,176,149525,2,0,P|472:148|468:108,1,60.0000022888184,0|0,1:0|0:0,0:0:0:0:
416,12,149859,6,0,P|356:8|288:32,1,120.000004577637,4|0,1:0|0:0,0:0:0:0:
248,108,150359,2,0,P|229:121|193:125,1,60.0000022888184,0|0,1:0|0:0,0:0:0:0:
112,72,150692,1,0,0:0:0:0:
20,152,150859,2,0,P|22:179|38:207,1,60.0000022888184,4|0,1:0|0:0,0:0:0:0:
124,248,151192,1,0,0:0:0:0:
40,332,151359,2,0,P|108:328|176:352,1,120.000004577637,0|0,1:0|0:0,0:0:0:0:
283,296,151859,2,0,P|252:292|228:276,1,60.0000022888184,0|0,1:0|0:0,0:0:0:0:
352,360,152192,2,0,P|376:344|407:339,1,60.0000022888184,0|0,1:0|0:0,0:0:0:0:
456,228,152525,5,4,1:0:0:0:
488,136,152692,2,0,L|504:88,2,30.0000011444092,0|0|2,0:0|0:0|0:0,0:0:0:0:
392,152,153025,5,0,1:0:0:0:
373,56,153192,2,0,L|362:6,2,30.0000011444092,0|0|2,0:0|0:0|0:0,0:0:0:0:
300,120,153525,5,4,1:0:0:0:
235,46,153692,2,0,L|201:8,2,30.0000011444092,0|0|2,0:0|0:0|0:0,0:0:0:0:
208,140,154025,5,0,1:0:0:0:
114,108,154192,2,0,L|65:92,2,30.0000011444092,0|0|2,0:0|0:0|0:0,0:0:0:0:
132,204,154525,5,0,1:0:0:0:
40,172,154692,1,2,0:0:0:0:
28,188,154775,1,0,0:0:0:0:
24,212,154859,1,2,1:2:0:0:
28,232,154942,1,0,0:0:0:0:
36,252,155025,1,2,0:0:0:0:
40,272,155109,1,0,0:0:0:0:
36,292,155192,5,4,1:0:0:0:
136,369,155359,2,0,L|112:352,2,30.0000011444092,0|0|2,0:0|0:0|0:0,0:0:0:0:
124,256,155692,5,0,1:0:0:0:
256,296,155859,2,0,L|228:288,2,30.0000011444092,0|0|2,0:0|0:0|0:0,0:0:0:0:
196,184,156192,5,4,1:0:0:0:
345,161,156359,2,0,L|316:164,2,30.0000011444092,0|0|2,0:0|0:0|0:0,0:0:0:0:
240,72,156692,5,0,1:0:0:0:
388,4,156859,2,0,L|361:17,2,30.0000011444092,0|0|2,0:0|0:0|0:0,0:0:0:0:
500,72,157192,5,0,1:0:0:0:
464,200,157359,1,2,0:0:0:0:
456,220,157442,1,0,0:0:0:0:
452,240,157525,1,2,1:2:0:0:
456,260,157609,1,0,0:0:0:0:
464,280,157692,1,2,0:0:0:0:
472,300,157775,1,0,0:0:0:0:
468,320,157859,5,4,1:0:0:0:
388,372,158025,1,0,0:0:0:0:
388,372,158109,1,0,0:0:0:0:
388,372,158192,1,2,0:0:0:0:
383,275,158359,5,0,1:0:0:0:
279,309,158525,1,0,0:0:0:0:
279,309,158609,1,0,0:0:0:0:
279,309,158692,1,2,0:0:0:0:
301,204,158859,5,4,1:0:0:0:
182,197,159025,1,0,0:0:0:0:
182,197,159109,1,0,0:0:0:0:
182,197,159192,1,2,0:0:0:0:
249,95,159359,5,0,1:0:0:0:
124,40,159525,1,0,0:0:0:0:
124,40,159609,1,0,0:0:0:0:
124,40,159692,1,2,0:0:0:0:
0,96,159859,5,0,1:0:0:0:
60,172,160025,1,2,0:0:0:0:
64,194,160109,1,0,0:0:0:0:
65,216,160192,1,2,1:2:0:0:
58,235,160275,1,0,0:0:0:0:
51,254,160359,1,2,0:0:0:0:
48,274,160442,1,0,0:0:0:0:
56,292,160525,5,4,1:0:0:0:
96,380,160692,1,0,0:0:0:0:
96,380,160775,1,0,0:0:0:0:
96,380,160859,1,2,0:0:0:0:
144,160,161025,5,0,1:0:0:0:
148,256,161192,1,0,0:0:0:0:
148,276,161275,1,0,0:0:0:0:
148,300,161359,1,2,0:0:0:0:
308,64,161525,5,4,1:0:0:0:
260,148,161692,1,0,0:0:0:0:
244,176,161775,1,0,0:0:0:0:
228,204,161859,1,2,0:0:0:0:
512,72,162025,5,0,1:0:0:0:
428,112,162192,1,0,0:0:0:0:
392,132,162275,1,0,0:0:0:0:
356,148,162359,1,2,0:0:0:0:
504,168,162525,5,0,1:0:0:0:
432,224,162692,1,2,0:0:0:0:
428,244,162775,1,0,0:0:0:0:
432,264,162859,1,2,1:2:0:0:
440,284,162942,1,0,0:0:0:0:
444,304,163025,1,2,0:0:0:0:
440,324,163109,1,0,0:0:0:0:
428,340,163192,5,4,1:0:0:0:
412,352,163275,1,0,0:0:0:0:
392,360,163359,1,0,0:0:0:0:
372,360,163442,1,0,0:0:0:0:
352,356,163525,1,2,0:0:0:0:
196,288,163692,5,0,1:0:0:0:
216,284,163775,1,0,0:0:0:0:
236,284,163858,1,0,0:0:0:0:
256,288,163942,1,0,0:0:0:0:
276,296,164025,1,2,0:0:0:0:
405,240,164192,5,4,1:0:0:0:
385,242,164275,1,0,0:0:0:0:
364,239,164359,1,0,0:0:0:0:
347,229,164442,1,0,0:0:0:0:
332,216,164525,1,2,0:0:0:0:
266,73,164692,5,0,1:0:0:0:
286,79,164775,1,0,0:0:0:0:
303,89,164858,1,0,0:0:0:0:
318,103,164942,1,0,0:0:0:0:
332,120,165025,1,2,0:0:0:0:
252,172,165192,5,0,1:0:0:0:
180,108,165359,1,2,0:0:0:0:
160,100,165442,1,0,0:0:0:0:
140,100,165525,1,2,1:2:0:0:
120,108,165609,1,0,0:0:0:0:
104,120,165692,1,2,0:0:0:0:
84,124,165775,1,0,0:0:0:0:
64,120,165859,6,0,L|48:76,3,40,4|0|0|0,1:0|0:0|0:0|0:0,0:0:0:0:
6,282,166192,2,0,L|32:252,3,40,0|0|0|0,0:0|0:0|1:0|0:0,0:0:0:0:
156,212,166525,2,0,L|202:220,3,40,0|0|0|0,0:0|0:0|0:0|0:0,0:0:0:0:
136,336,166859,2,0,L|152:380,3,40,4|0|0|0,1:0|0:0|1:0|0:0,0:0:0:0:
264,324,167192,6,0,L|312:320,1,40,0|0,0:0|0:0,0:0:0:0:
416,372,167359,2,0,L|427:325,1,40,0|0,1:0|0:0,0:0:0:0:
512,244,167525,2,0,L|470:219,1,40,0|0,0:0|0:0,0:0:0:0:
416,112,167692,2,0,L|379:143,1,40,0|0,0:0|0:0,0:0:0:0:
280,200,167859,5,0,1:0:0:0:
228,188,167942,1,0,0:0:0:0:
200,144,168025,1,0,0:0:0:0:
196,92,168109,1,0,0:0:0:0:
152,64,168192,1,0,1:0:0:0:
100,52,168275,1,0,0:0:0:0:
52,72,168359,1,0,0:0:0:0:
28,120,168442,1,0,0:0:0:0:
40,172,168525,1,12,1:0:0:0:
256,192,171192,12,8,173275,0:0:0:0:
256,192,173859,5,4,1:0:0:0:
96,48,184525,6,0,P|104:108|80:184,1,120.000004577637,4|0,1:0|1:0,0:0:0:0:
20,228,185025,1,0,0:0:0:0:
95,315,185192,2,0,P|95:291|111:259,1,60.0000022888184,8|0,0:0|0:0,0:0:0:0:
204,236,185525,1,0,0:0:0:0:
280,292,185692,1,0,0:0:0:0:
400,276,185859,6,0,P|416:244|416:208,1,60.0000022888184,0|0,1:0|0:0,0:0:0:0:
466,96,186192,2,0,P|468:120|484:152,1,60.0000022888184,0|8,0:0|0:0,0:0:0:0:
392,128,186525,1,8,0:0:0:0:
300,160,186692,1,0,0:0:0:0:
184,128,186859,1,0,1:0:0:0:
259,66,187026,1,0,0:0:0:0:
96,76,187192,5,0,1:0:0:0:
62,167,187359,1,0,0:0:0:0:
108,252,187525,2,0,P|112:284|100:320,1,60.0000022888184
184,368,187859,1,0,1:0:0:0:
272,332,188025,1,0,0:0:0:0:
364,364,188192,1,0,1:0:0:0:
428,292,188359,1,0,0:0:0:0:
356,196,188525,5,0,1:0:0:0:
296,120,188692,1,0,0:0:0:0:
344,36,188859,1,0,1:0:0:0:
436,60,189025,1,0,0:0:0:0:
444,156,189192,5,0,1:0:0:0:
332,112,189359,1,0,1:0:0:0:
220,156,189525,1,0,1:0:0:0:
140,68,189692,1,0,1:0:0:0:
12,152,189859,6,0,P|4:208|28:272,1,120.000004577637,4|0,1:0|1:0,0:0:0:0:
96,332,190359,1,0,0:0:0:0:
116,240,190525,2,0,P|148:228|180:232,1,60.0000022888184,8|0,0:0|0:0,0:0:0:0:
293,325,190859,2,0,P|261:337|236:336,1,60.0000022888184
352,220,191192,6,0,P|416:220|476:248,1,120.000004577637,0|0,1:0|0:0,0:0:0:0:
496,152,191692,1,8,0:0:0:0:
420,92,191859,2,0,P|420:56|432:20,1,60.0000022888184,8|0,0:0|0:0,0:0:0:0:
332,8,192192,1,0,1:0:0:0:
244,48,192359,1,0,0:0:0:0:
132,88,192525,6,0,P|119:54|118:16,1,60.0000022888184,0|0,1:0|0:0,0:0:0:0:
40,184,192859,2,0,P|63:211|77:246,1,60.0000022888184,0|0,1:0|0:0,0:0:0:0:
68,364,193192,2,0,P|132:372|188:344,1,120.000004577637,0|0,1:0|1:0,0:0:0:0:
181,349,193859,5,0,0:0:0:0:
331,35,194025,1,0,0:0:0:0:
104,240,194192,1,0,0:0:0:0:
408,144,194359,1,8,0:0:0:0:
104,116,194525,1,8,0:0:0:0:
408,268,194692,1,0,0:0:0:0:
200,32,194859,1,0,0:0:0:0:
312,352,195025,1,0,0:0:0:0:
216,268,195192,6,0,P|172:268|128:300,1,80,4|8,1:0|0:0,0:0:0:0:
72,360,195525,1,0,1:0:0:0:
4,284,195692,1,0,0:0:0:0:
68,172,195859,2,0,P|80:96|64:8,2,160,8|2|0,0:0|0:0|1:0,0:0:0:0:
68,172,196692,1,8,0:0:0:0:
68,172,196859,1,0,0:0:0:0:
160,124,197025,1,0,0:0:0:0:
260,148,197192,2,0,P|304:148|344:128,1,80,8|0,0:0|0:0,0:0:0:0:
416,68,197525,2,0,P|392:124|400:200,1,120,0|0,1:0|0:0,0:0:0:0:
408,208,197859,5,4,1:0:0:0:
488,144,198025,1,0,0:0:0:0:
308,236,198192,2,0,P|313:273|301:316,1,80,0|0,1:0|0:0,0:0:0:0:
216,372,198525,2,0,P|178:370|138:352,1,80,8|2,0:0|0:0,0:0:0:0:
212,276,198859,1,0,0:0:0:0:
128,216,199025,1,0,1:0:0:0:
260,152,199192,2,0,P|276:92|272:28,1,120,2|0,0:0|0:0,0:0:0:0:
252,16,199525,5,0,1:0:0:0:
368,68,199692,1,0,0:0:0:0:
488,28,199859,1,8,0:0:0:0:
444,164,200025,1,0,0:0:0:0:
444,164,200109,1,0,0:0:0:0:
444,164,200192,1,0,1:0:0:0:
480,304,200359,1,0,0:0:0:0:
344,252,200525,6,0,P|304:252|256:280,1,80,4|8,1:0|0:0,0:0:0:0:
192,344,200859,2,0,P|152:337|110:301,1,80,0|0,1:0|0:0,0:0:0:0:
72,196,201192,2,0,P|76:268|44:360,2,160,8|2|0,0:0|0:0|1:0,0:0:0:0:
72,196,202192,1,0,0:0:0:0:
16,108,202359,1,0,0:0:0:0:
80,24,202525,2,0,P|120:24|156:48,1,80,8|0,0:0|0:0,0:0:0:0:
228,148,202859,2,0,P|296:152|344:120,1,120,0|0,1:0|0:0,0:0:0:0:
372,84,203192,6,0,P|352:136|364:204,1,120.000004577637,4|0,1:0|0:0,0:0:0:0:
432,336,203859,2,0,P|384:307|315:307,1,120.000004577637,8|0,0:0|1:0,0:0:0:0:
236,364,204359,1,0,0:0:0:0:
124,304,204525,2,0,P|116:264|132:224,1,80,0|8,1:0|0:0,0:0:0:0:
60,32,204859,1,0,0:0:0:0:
80,136,205025,1,0,0:0:0:0:
24,224,205192,5,8,0:0:0:0:
108,128,205359,1,0,1:0:0:0:
232,148,205525,1,0,1:0:0:0:
260,152,205609,1,0,0:0:0:0:
288,144,205692,1,0,1:0:0:0:
308,128,205775,1,0,0:0:0:0:
324,104,205859,6,0,P|360:84|404:84,1,80,4|8,1:0|0:0,0:0:0:0:
500,68,206192,2,0,P|499:109|477:147,1,80,0|0,1:0|0:0,0:0:0:0:
372,212,206525,2,0,P|352:288|388:364,1,160,8|2,0:0|0:0,0:0:0:0:
488,344,207025,1,0,0:0:0:0:
300,296,207192,2,0,P|260:296|216:320,1,80,0|8,1:0|0:0,0:0:0:0:
144,380,207525,5,0,0:0:0:0:
24,336,207692,1,0,0:0:0:0:
12,312,207775,1,0,0:0:0:0:
16,284,207859,1,8,0:0:0:0:
104,232,208025,1,0,0:0:0:0:
196,180,208192,2,0,P|208:116|188:52,1,120,0|0,1:0|0:0,0:0:0:0:
194,63,208525,6,0,P|228:88|272:92,1,80,4|0,1:0|0:0,0:0:0:0:
344,20,208859,1,0,1:0:0:0:
440,56,209025,1,0,0:0:0:0:
428,160,209192,1,8,0:0:0:0:
324,180,209359,1,2,0:0:0:0:
324,180,209442,1,0,0:0:0:0:
324,180,209525,1,0,0:0:0:0:
360,100,209692,1,0,1:0:0:0:
492,224,209859,6,0,P|500:300|472:384,1,160,2|0,0:0|1:0,0:0:0:0:
448,372,210275,1,0,1:0:0:0:
420,364,210359,1,0,1:0:0:0:
392,356,210442,1,0,1:0:0:0:
364,348,210525,5,0,1:0:0:0:
262,162,210692,1,0,1:0:0:0:
239,378,210859,1,0,1:0:0:0:
373,220,211026,1,4,1:0:0:0:
182,262,211192,6,0,P|140:264|104:248,1,80,4|8,1:0|0:0,0:0:0:0:
0,228,211525,2,0,P|16:260|12:316,1,80,0|0,1:0|0:0,0:0:0:0:
56,168,211859,2,0,P|48:84|76:12,1,160,8|2,0:0|0:0,0:0:0:0:
104,16,212275,1,0,0:0:0:0:
132,28,212359,1,0,0:0:0:0:
176,120,212525,5,0,1:0:0:0:
260,56,212692,1,8,0:0:0:0:
284,40,212775,1,0,0:0:0:0:
312,32,212859,1,0,0:0:0:0:
340,36,212942,1,0,0:0:0:0:
368,44,213025,1,0,0:0:0:0:
348,148,213192,1,8,0:0:0:0:
424,220,213359,1,0,0:0:0:0:
452,220,213442,1,0,0:0:0:0:
476,208,213525,1,0,1:0:0:0:
496,104,213692,1,0,0:0:0:0:
448,308,213859,6,0,P|440:332|444:360,3,40,4|0|0|0,1:0|0:0|0:0|0:0,0:0:0:0:
352,220,214192,2,0,P|346:195|329:172,3,40,0|0|0|0,1:0|0:0|0:0|0:0,0:0:0:0:
264,316,214525,2,0,P|280:334|307:345,3,40,0|0|0|0,1:0|0:0|0:0|0:0,0:0:0:0:
148,376,214859,2,0,P|124:368|96:372,3,40,0|0|0|0,1:0|0:0|0:0|0:0,0:0:0:0:
12,260,215192,6,0,P|2:237|2:221,1,40,0|0,1:0|0:0,0:0:0:0:
101,85,215359,2,0,P|97:108|90:123,1,40,0|0,1:0|0:0,0:0:0:0:
170,252,215525,2,0,P|173:228|180:213,1,40,0|0,1:0|0:0,0:0:0:0:
339,190,215692,2,0,P|324:209|310:218,1,40,0|0,1:0|0:0,0:0:0:0:
296,344,215859,5,0,1:0:0:0:
332,308,215942,1,0,1:0:0:0:
384,312,216025,1,0,1:0:0:0:
424,344,216109,1,0,1:0:0:0:
476,336,216192,1,0,1:0:0:0:
500,292,216275,1,0,1:0:0:0:
492,240,216359,1,0,1:0:0:0:
468,196,216442,1,0,1:0:0:0:
480,144,216525,5,4,1:0:0:0:
464,40,216692,1,8,0:0:0:0:
352,132,216859,2,0,P|312:132|276:108,1,80,0|0,1:0|0:0,0:0:0:0:
244,12,217192,1,8,0:0:0:0:
104,44,217359,1,0,0:0:0:0:
104,44,217442,1,0,0:0:0:0:
104,44,217525,2,0,P|80:92|88:168,1,120,2|0,0:0|0:0,0:0:0:0:
32,280,217859,2,0,P|32:238|12:204,1,80,0|8,1:0|0:0,0:0:0:0:
156,256,218192,5,0,0:0:0:0:
280,220,218359,1,0,0:0:0:0:
360,320,218525,1,8,0:0:0:0:
236,356,218692,1,0,0:0:0:0:
344,248,218859,1,0,1:0:0:0:
344,248,218942,1,0,0:0:0:0:
344,248,219025,1,0,0:0:0:0:
484,312,219192,6,0,P|500:272|496:228,1,80,4|0,1:0|0:0,0:0:0:0:
432,156,219525,1,0,1:0:0:0:
480,64,219692,1,0,0:0:0:0:
324,96,219859,1,8,0:0:0:0:
310,198,220026,1,2,0:0:0:0:
208,132,220192,1,0,0:0:0:0:
186,31,220359,5,0,0:0:0:0:
166,26,220442,1,0,0:0:0:0:
147,18,220525,1,2,0:0:0:0:
76,124,220692,1,0,0:0:0:0:
57,129,220775,1,0,0:0:0:0:
36,132,220858,1,2,0:0:0:0:
32,256,221025,1,0,0:0:0:0:
18,269,221108,1,0,0:0:0:0:
1,282,221191,1,2,0:0:0:0:
176,228,221359,5,0,1:0:0:0:
272,336,221525,1,0,1:0:0:0:
128,364,221692,1,0,1:0:0:0:
316,200,221859,5,4,1:0:0:0:
396,268,222025,1,8,0:0:0:0:
492,228,222192,2,0,P|507:189|504:144,1,80,0|0,1:0|0:0,0:0:0:0:
410,11,222525,2,0,P|408:49|424:88,1,80,8|0,0:0|0:0,0:0:0:0:
424,88,222775,1,0,0:0:0:0:
424,88,222859,2,0,P|376:60|304:64,1,120,2|0,0:0|0:0,0:0:0:0:
268,128,223192,2,0,P|232:148|176:140,1,80,0|8,1:0|0:0,0:0:0:0:
100,104,223525,5,0,0:0:0:0:
80,0,223692,1,0,0:0:0:0:
36,188,223859,1,8,0:0:0:0:
90,278,224026,1,0,0:0:0:0:
52,376,224192,1,0,1:0:0:0:
52,376,224275,1,0,0:0:0:0:
52,376,224359,1,0,0:0:0:0:
192,264,224525,6,0,P|276:256|352:292,1,160,4|0,1:0|0:0,0:0:0:0:
472,268,225025,1,0,0:0:0:0:
452,288,225109,1,0,0:0:0:0:
448,316,225192,1,8,0:0:0:0:
416,216,225359,1,2,0:0:0:0:
436,196,225442,1,0,0:0:0:0:
444,168,225525,1,0,1:0:0:0:
448,140,225609,1,0,0:0:0:0:
444,112,225692,1,0,0:0:0:0:
372,36,225859,2,0,P|311:29|248:56,1,120,0|0,1:0|0:0,0:0:0:0:
240,72,226192,5,0,1:0:0:0:
112,8,226359,1,0,0:0:0:0:
4,108,226525,1,8,1:2:0:0:
140,160,226692,1,0,1:0:0:0:
276,204,226859,1,0,1:0:0:0:
160,292,227025,1,0,1:0:0:0:
24,240,227192,6,0,P|8:276|20:328,1,80,4|8,1:0|0:0,0:0:0:0:
108,184,227525,2,0,P|103:144|67:105,1,80,0|0,1:0|0:0,0:0:0:0:
220,192,227859,2,0,P|243:223|294:239,1,80,8|0,0:0|0:0,0:0:0:0:
279,239,228109,1,0,0:0:0:0:
279,239,228192,2,0,P|344:216|416:232,1,120,2|0,0:0|0:0,0:0:0:0:
448,280,228525,2,0,P|450:319|421:364,1,80,0|8,1:0|0:0,0:0:0:0:
372,296,228859,5,0,0:0:0:0:
420,180,229025,1,0,0:0:0:0:
328,92,229192,2,0,P|312:52|320:8,1,80,8|0,0:0|0:0,0:0:0:0:
420,36,229525,1,0,1:0:0:0:
420,36,229609,1,0,0:0:0:0:
420,36,229692,1,0,0:0:0:0:
224,68,229859,5,4,1:0:0:0:
46,99,230025,1,0,0:0:0:0:
162,237,230192,1,0,1:0:0:0:
126,32,230359,1,0,0:0:0:0:
242,170,230525,1,8,0:0:0:0:
64,201,230692,1,2,0:0:0:0:
144,128,230859,1,0,0:0:0:0:
200,244,231025,5,0,1:0:0:0:
200,244,231109,1,0,0:0:0:0:
200,244,231192,1,2,0:0:0:0:
184,372,231359,1,0,0:0:0:0:
184,372,231442,1,0,0:0:0:0:
184,372,231525,1,2,0:0:0:0:
304,320,231692,1,0,0:0:0:0:
296,192,231859,5,0,1:0:0:0:
408,132,232025,1,0,1:0:0:0:
496,224,232192,1,0,1:0:0:0:
432,336,232359,1,0,1:0:0:0:
392,240,232525,5,4,1:0:0:0:
432,144,232692,1,8,0:0:0:0:
348,84,232859,2,0,P|332:44|336:0,1,80,0|0,1:0|0:0,0:0:0:0:
232,28,233192,1,8,0:0:0:0:
188,124,233359,1,0,0:0:0:0:
160,132,233442,1,0,0:0:0:0:
132,132,233525,1,2,0:0:0:0:
104,124,233609,1,0,0:0:0:0:
84,104,233692,1,0,0:0:0:0:
8,32,233859,6,0,P|28:88|20:160,1,120,4|0,1:0|0:0,0:0:0:0:
58,277,234192,2,0,P|60:236|80:204,1,80,0|0,1:0|0:0,0:0:0:0:
200,351,234525,2,0,P|165:365|124:360,2,80,8|0|0,0:0|0:0|1:0,0:0:0:0:
224,336,234942,1,0,0:0:0:0:
252,340,235025,1,0,0:0:0:0:
412,348,235192,6,0,P|432:332|440:312,3,40,4|0|0|0,1:0|0:0|0:0|0:0,0:0:0:0:
432,156,235525,2,0,P|418:177|418:199,3,40,0|0|0|0,1:0|0:0|0:0|0:0,0:0:0:0:
288,264,235859,2,0,P|293:238|286:218,3,40,0|0|0|0,1:0|0:0|0:0|0:0,0:0:0:0:
160,128,236192,2,0,P|163:153|177:170,3,40,0|0|0|0,1:0|0:0|0:0|0:0,0:0:0:0:
156,300,236525,6,0,P|136:316|115:321,1,40,0|0,1:0|0:0,0:0:0:0:
8,256,236692,2,0,P|2:230|9:210,1,40,0|0,1:0|0:0,0:0:0:0:
112,144,236859,2,0,P|125:122|125:100,1,40,0|0,1:0|0:0,0:0:0:0:
244,8,237025,2,0,P|238:33|245:53,1,40,0|0,1:0|0:0,0:0:0:0:
260,208,237192,5,0,1:0:0:0:
252,260,237275,1,0,1:0:0:0:
288,296,237359,1,0,1:0:0:0:
340,300,237442,1,0,1:0:0:0:
380,268,237525,1,0,1:0:0:0:
412,228,237609,1,0,1:0:0:0:
464,228,237692,1,0,1:0:0:0:
504,260,237775,1,0,1:0:0:0:
500,312,237859,6,0,P|472:232|480:144,1,160,4|0,1:0|0:0,0:0:0:0:
504,60,238359,1,0,1:0:0:0:
412,16,238525,2,0,P|374:11|336:32,1,80
268,140,238859,2,0,P|230:137|195:111,1,80,4|0,1:0|0:0,0:0:0:0:
192,8,239192,1,0,0:0:0:0:
400,148,239359,2,0,P|412:220|372:316,1,160,0|0,1:0|0:0,0:0:0:0:
383,300,239775,1,0,0:0:0:0:
383,300,239859,6,0,L|280:284,1,100,0|0,1:0|0:0,0:0:0:0:
176,360,240192,2,0,L|76:344,1,100,0|0,1:0|0:0,0:0:0:0:
4,236,240525,5,4,1:0:0:0:
84,168,240692,1,0,0:0:0:0:
4,104,240859,1,0,0:0:0:0:
72,24,241025,2,0,P|156:20|232:52,1,160,0|0,1:0|0:0,0:0:0:0:
348,16,241525,2,0,P|324:48|324:100,1,80,4|0,1:0|0:0,0:0:0:0:
364,184,241859,1,0,0:0:0:0:
504,220,242025,2,0,P|500:296|452:364,1,160,0|0,1:0|0:0,0:0:0:0:
388,284,242525,6,0,P|344:264|292:272,1,100,0|0,1:0|0:0,0:0:0:0:
212,372,242859,2,0,P|172:369|139:347,1,80,0|0,1:0|0:0,0:0:0:0:
16,372,243192,6,0,P|48:292|40:212,1,160,4|0,1:0|0:0,0:0:0:0:
111,66,243692,2,0,P|100:104|108:144,1,80,0|0,1:0|0:0,0:0:0:0:
192,204,244025,1,0,0:0:0:0:
264,128,244192,2,0,L|364:116,1,80,4|0,1:0|0:0,0:0:0:0:
424,52,244525,1,0,0:0:0:0:
504,152,244692,2,0,P|512:228|480:316,1,160,0|0,1:0|0:0,0:0:0:0:
468,328,245109,1,0,0:0:0:0:
444,340,245192,1,0,1:0:0:0:
348,300,245359,1,0,0:0:0:0:
256,212,245525,2,0,P|196:204|128:236,1,120,0|0,1:0|0:0,0:0:0:0:
68,260,245859,6,0,P|84:220|80:172,1,80,4|0,1:0|0:0,0:0:0:0:
24,96,246192,1,0,0:0:0:0:
88,16,246359,2,0,P|172:12|252:48,1,160,0|0,1:0|0:0,0:0:0:0:
304,124,246859,2,0,P|348:124|392:100,1,80,4|0,1:0|0:0,0:0:0:0:
468,16,247192,1,0,0:0:0:0:
468,16,247359,2,0,P|436:76|440:180,1,160,0|0,1:0|0:0,0:0:0:0:
480,288,247859,6,0,P|436:264|384:272,1,100,0|0,1:0|0:0,0:0:0:0:
198,384,248192,2,0,P|248:384|288:356,1,100,0|0,1:0|0:0,0:0:0:0:
136,288,248525,5,4,1:0:0:0:
108,284,248609,1,0,0:0:0:0:
80,288,248692,1,0,0:0:0:0:
56,304,248775,1,0,0:0:0:0:
40,328,248859,1,2,0:0:0:0:
60,204,249025,5,0,1:0:0:0:
67,178,249109,1,0,0:0:0:0:
58,151,249192,1,0,0:0:0:0:
42,129,249275,1,0,0:0:0:0:
45,100,249359,1,2,0:0:0:0:
140,16,249525,5,4,1:0:0:0:
168,12,249609,1,0,0:0:0:0:
196,20,249692,1,0,0:0:0:0:
220,36,249775,1,0,0:0:0:0:
236,60,249859,1,2,0:0:0:0:
220,188,250025,5,0,1:0:0:0:
240,168,250109,1,0,0:0:0:0:
268,160,250192,1,0,0:0:0:0:
296,164,250275,1,0,0:0:0:0:
320,176,250359,1,2,0:0:0:0:
416,92,250525,5,2,1:2:0:0:
384,132,250609,1,0,0:0:0:0:
376,184,250692,1,2,0:0:0:0:
408,224,250775,1,0,0:0:0:0:
440,264,250859,1,2,1:2:0:0:
444,316,250942,1,0,0:0:0:0:
428,364,251025,1,2,0:0:0:0:
380,380,251109,1,0,0:0:0:0:
328,368,251192,5,4,1:0:0:0:
304,352,251275,1,0,0:0:0:0:
276,344,251359,1,0,0:0:0:0:
248,348,251442,1,0,0:0:0:0:
220,356,251525,1,2,0:0:0:0:
100,316,251692,1,0,1:0:0:0:
76,300,251775,1,0,0:0:0:0:
64,272,251859,1,0,0:0:0:0:
64,244,251942,1,0,0:0:0:0:
76,220,252025,1,2,0:0:0:0:
60,60,252192,5,4,1:0:0:0:
85,47,252275,1,0,0:0:0:0:
116,50,252359,1,0,0:0:0:0:
140,64,252442,1,0,0:0:0:0:
155,87,252525,1,2,0:0:0:0:
300,156,252692,5,0,1:0:0:0:
298,184,252775,1,0,0:0:0:0:
280,209,252859,1,0,0:0:0:0:
256,223,252942,1,0,0:0:0:0:
229,224,253025,1,2,0:0:0:0:
156,172,253192,5,0,1:0:0:0:
16,144,253359,1,0,0:0:0:0:
100,316,253525,1,0,1:0:0:0:
240,288,253692,1,0,0:0:0:0:
392,332,253859,5,4,1:0:0:0:
420,340,253942,1,0,0:0:0:0:
448,336,254025,1,0,0:0:0:0:
472,320,254109,1,0,0:0:0:0:
488,296,254192,1,2,0:0:0:0:
492,268,254275,1,0,0:0:0:0:
472,220,254359,5,0,1:0:0:0:
460,196,254442,1,0,0:0:0:0:
452,168,254525,1,0,0:0:0:0:
456,140,254609,1,0,0:0:0:0:
464,112,254692,1,2,0:0:0:0:
456,84,254775,1,0,0:0:0:0:
412,56,254859,5,4,1:0:0:0:
384,48,254942,1,0,0:0:0:0:
356,48,255025,1,0,0:0:0:0:
328,52,255109,1,0,0:0:0:0:
304,68,255192,1,2,0:0:0:0:
288,92,255275,1,0,0:0:0:0:
276,144,255359,5,0,1:0:0:0:
288,168,255442,1,0,0:0:0:0:
292,196,255525,1,0,0:0:0:0:
284,224,255609,1,0,0:0:0:0:
268,248,255692,1,2,0:0:0:0:
244,260,255775,1,0,0:0:0:0:
192,260,255859,5,2,1:2:0:0:
152,228,255942,1,0,0:0:0:0:
148,176,256025,1,2,0:0:0:0:
172,128,256109,1,0,0:0:0:0:
164,76,256192,1,2,1:2:0:0:
132,36,256275,1,0,0:0:0:0:
80,24,256359,1,2,0:0:0:0:
36,52,256442,1,0,0:0:0:0:
12,100,256525,5,4,1:0:0:0:
20,152,256609,1,0,0:0:0:0:
48,196,256692,1,0,0:0:0:0:
52,248,256775,1,0,0:0:0:0:
28,292,256859,5,0,0:0:0:0:
36,344,256942,1,0,0:0:0:0:
76,376,257025,1,0,1:0:0:0:
128,372,257109,1,0,0:0:0:0:
160,332,257192,5,0,0:0:0:0:
156,280,257276,1,0,0:0:0:0:
180,232,257359,1,0,0:0:0:0:
228,208,257442,1,0,0:0:0:0:
276,220,257525,5,4,1:0:0:0:
316,256,257609,1,0,0:0:0:0:
308,308,257692,1,0,0:0:0:0:
324,356,257775,1,0,0:0:0:0:
376,372,257859,6,0,L|408:336,1,40
380,112,258025,2,0,L|371:159,1,40,0|0,1:0|0:0,0:0:0:0:
248,316,258192,2,0,L|233:270,1,40
16,208,258359,2,0,L|52:240,1,40
192,108,258525,5,0,1:0:0:0:
232,76,258609,1,0,0:0:0:0:
284,72,258692,1,0,0:0:0:0:
328,88,258775,1,0,0:0:0:0:
376,68,258859,5,0,1:0:0:0:
448,80,258942,1,0,0:0:0:0:
488,140,259025,1,0,0:0:0:0:
484,212,259109,1,0,0:0:0:0:
432,260,259192,1,4,1:0:0:0:
