osu file format v7

[General]
AudioFilename: anisakis dj yoshitaka.mp3
AudioLeadIn: 0
PreviewTime: 89512
Countdown: 1
SampleSet: Normal
StackLeniency: 0.6
Mode: 0
LetterboxInBreaks: 0

[Editor]
Bookmarks: 14300,27273,35057,44447,55813
DistanceSpacing: 0.800000011920929
BeatDivisor: 4
GridSize: 8

[Metadata]
Title:Anisakis -somatic mutation type "Forza"-
Artist:Suzaku
Creator:tsukamaete
Version:Normal
Source:Beatmania IIDX 15 DJ Troopers
Tags:Alace

[Difficulty]
HPDrainRate:4
CircleSize:4
OverallDifficulty:6
SliderMultiplier:1.2
SliderTickRate:2

[Events]
//Background and Video events
0,0,"BG.png"
//Break Periods
2,34268,43397
2,55025,58964
2,80971,82316
//Storyboard Layer 0 (Background)
//Storyboard Layer 1 (Fail)
//Storyboard Layer 2 (Pass)
//Storyboard Layer 3 (Foreground)
//Storyboard Sound Samples
//Background Colour Transformations
3,100,163,162,255

[TimingPoints]
339,324.324324324324,4,1,0,100,1,0
12987,-100,4,1,0,57,0,0
18744,-100,4,2,0,49,0,0
18987,-100,4,1,0,57,0,0
19393,-100,4,2,0,49,0,0
19636,-100,4,1,0,57,0,0
21338,-100,4,2,0,49,0,0
21582,-100,4,1,0,57,0,0
22018,-100,4,2,0,49,0,0
22230,-100,4,1,0,57,0,0
31474,-100,4,2,0,49,0,0
44122,-100,4,2,0,69,0,0
59690,-200,4,2,1,69,0,0
67474,-100,4,2,1,69,0,0
68933,-200,4,2,1,69,0,0
70230,-100,4,2,0,69,0,0
83203,-100,4,1,0,69,0,0
109149,-200,4,2,1,69,0,0
119690,-100,4,1,0,69,0,0
130068,-200,4,2,0,69,0,0
135257,-100,4,2,0,0,0,0

[Colours]
Combo1 : 255,255,255
Combo2 : 255,255,128
Combo3 : 255,128,128

[HitObjects]
256,192,10717,12,0,12014
152,56,13311,6,0,L|88:64|128:120,1,120
208,144,13960,2,0,L|200:208|144:240,1,120
168,328,14609,1,0
256,288,14933,2,0,L|272:264|288:296,4,60
344,336,15906,6,0,L|392:296|376:216,1,120
296,192,16555,2,0,L|304:136|344:144|376:104,1,120
432,72,17203,1,0
432,72,17528,2,0,L|469:133,4,60
360,136,18501,6,0,L|264:152,1,60
264,120,18825,1,8
264,120,19149,2,0,L|208:208,1,60
184,176,19474,1,8
88,200,19798,1,0
168,256,20122,2,0,L|224:328|272:280|384:296,1,240
408,216,21095,6,0,L|448:136,1,60
434,162,21420,1,8
416,64,21744,2,0,L|336:104,1,60
320,104,22068,2,0,L|272:176,1,60,8|0
240,160,22393,1,4
128,72,23690,6,0,B|64:120|128:192,1,120
184,240,24338,1,0
264,192,24663,2,0,B|312:152,2,60
336,256,25311,2,0,B|432:256|464:152|400:80,1,240
328,144,26284,6,0,B|184:144,1,120
120,176,26933,1,0
120,176,27257,2,0,B|48:176,2,60
120,176,28230,5,0
312,176,28879,1,0
360,88,29203,2,0,L|416:56|472:96,1,120
424,176,29852,1,0
400,272,30176,6,0,L|344:248|336:352|288:320|248:344,2,240,0|0|4
320,216,31798,1,4
320,216,32122,1,4
320,216,32447,1,4
256,192,32771,12,4,34068
80,128,44447,6,0,C|112:104|144:128|184:104,1,120,2|8
264,72,45095,2,0,B|344:72|336:168,2,120,2|8|2
232,160,46068,2,0,B|208:224,1,60,8|0
160,208,46393,2,0,B|96:256|144:328,2,120,2|8|2
232,272,47366,5,8
328,288,47690,2,0,C|352:256|384:256|368:200,2,120,2|8|2
328,288,48663,1,8
288,200,48987,2,0,C|304:128,1,60,2|0
352,136,49311,2,0,C|368:72,1,60,8|0
408,64,49636,5,2
408,64,49960,1,8
408,64,50284,2,0,B|368:128|296:104,1,120,2|8
216,80,50933,2,0,B|248:208,1,120,2|8
192,280,51582,2,0,B|144:240,1,60,2|0
152,192,51906,2,0,B|104:136|40:168,1,120,8|2
44,165,52555,1,8
64,72,52879,2,0,B|136:72,1,60,2|0
160,104,53203,2,0,B|224:104,1,60,8|0
264,128,53528,1,2
256,192,53852,12,0,54825
288,112,60014,6,0,L|320:80,4,30,0|2|0|2|0
288,112,60987,1,2
288,112,61311,1,0
104,160,62609,6,0,L|72:192,4,30,0|2|0|2|0
104,160,63582,1,2
104,160,63906,1,0
104,160,64230,1,2
104,160,64555,1,0
192,208,65203,6,0,L|224:240,4,30,0|2|0|2|0
192,208,66176,1,2
192,208,66500,1,0
312,192,67798,6,0,C|280:208|232:184|192:200,3,120,0|2|0|2
256,112,69095,2,0,C|256:72,4,30,0|2|0|2|0
352,280,70393,6,0,L|288:336|264:280,1,120,0|2
248,216,71041,1,0
96,96,71690,2,0,L|32:136|96:160,1,120,0|2
96,248,72338,1,0
240,120,72987,2,0,L|288:176|352:176,1,120,0|2
416,128,73635,1,0
376,312,74284,2,0,L|408:248|464:280,1,120,0|2
480,184,74933,1,0
344,48,75582,5,4
251,72,75906,1,2
158,97,76230,1,0
65,122,76555,1,2
160,96,76879,5,4
253,120,77203,1,2
346,145,77527,1,0
439,170,77852,1,2
256,192,78176,12,0,79393
256,192,79474,12,4,80771
256,128,83366,5,0
176,184,83690,1,0
256,240,84014,1,0
336,184,84339,1,0
336,184,84663,2,0,L|400:184,3,60
400,136,85311,2,0,L|440:136,8,30
256,192,86122,12,0,88230
136,352,88555,6,0,B|64:328|96:248,1,120,0|8
152,184,89203,2,0,B|224:160,2,60,0|0|8
216,256,89852,2,0,B|328:336,1,120,0|8
400,280,90501,2,0,B|302:210,1,120,0|8
400,192,91149,6,0,B|463:150|411:81,1,120,0|8
341,33,91797,2,0,B|265:28,2,60,0|0|8
297,119,92446,2,0,B|209:225,1,120,0|8
126,190,93095,2,0,B|202:97,1,120,0|8
264,24,93744,5,0
288,117,94068,1,8
313,210,94392,1,0
338,303,94717,1,8
256,360,95041,5,0
232,267,95365,1,8
207,174,95689,1,0
182,81,96014,1,8
104,136,96338,6,0,B|32:176|80:256,1,120,0|8
168,240,96987,2,0,B|296:208,1,120,0|8
344,136,97636,2,0,B|424:176|376:256,1,120,0|8
336,312,98284,2,0,B|208:304,1,120,0|8
160,224,98933,6,0,C|184:192|136:152|160:112,1,120,0|8
200,64,99582,2,0,C|208:32|160:40,2,60,0|0|8
288,96,100230,2,0,L|352:80|416:120,1,120,0|8
440,200,100879,2,0,L|376:216|312:176,1,120,0|8
240,216,101528,6,0,C|216:248|264:288|240:328,1,120,0|8
168,312,102176,2,0,L|80:328,1,60,0|8
48,248,102663,2,0,L|120:232,1,60,8|0
144,144,103149,1,8
224,96,103474,2,0,L|232:32,2,60,8|0|8
320,88,104122,5,0
408,136,104447,1,8
448,224,104771,1,0
440,320,105095,1,8
368,256,105420,5,0
287,196,105744,1,8
190,197,106069,1,0
107,245,106393,1,8
176,176,106717,2,0,B|232:120|168:56,1,120,0|8
272,56,107366,2,0,B|216:112|280:176,1,120,0|8
352,120,108014,2,0,B|432:136,1,60
448,160,108339,1,8
392,240,108663,1,8
360,280,108825,1,0
328,320,108987,1,8
328,320,109311,6,0,B|256:304,1,60,0|2
232,280,109960,2,0,B|160:264,1,60,0|2
136,240,110609,2,0,B|136:168,3,60,0|2|0|2
160,144,111906,6,0,B|232:128,1,60,0|2
256,104,112555,2,0,B|328:88,1,60,0|2
352,64,113204,2,0,B|408:8,3,60,0|2|0|2
408,64,114501,5,0
424,112,114825,1,2
440,160,115149,1,0
456,208,115474,1,2
408,192,115798,1,0
360,176,116122,1,2
312,160,116446,1,0
264,144,116771,1,2
280,192,117095,1,0
296,240,117419,1,2
312,288,117743,1,0
328,336,118068,1,2
256,192,118393,12,0,119690
192,112,120014,5,8
288,136,120339,2,0,B|312:200,2,60,0|0|8
376,96,120987,2,0,B|354:39,2,60,0|0|8
440,168,121636,2,0,B|464:232,2,60,0|0|8
368,232,122284,6,0,B|272:280|304:352,1,120,0|8
208,288,122933,2,0,B|120:288,2,60,0|0|8
144,216,123582,2,0,B|88:96,1,120,0|8
184,72,124230,2,0,B|234:180,1,120,0|8
280,96,124879,5,0
320,72,125041,1,0
360,48,125203,1,8
392,136,125528,1,0
352,160,125690,1,0
312,184,125852,1,8
352,272,126176,1,0
392,248,126338,1,0
432,224,126500,1,8
472,312,126825,1,0
432,336,126987,1,0
392,360,127149,1,8
296,336,127474,6,0,B|136:336,1,120,0|8
144,248,128122,2,0,B|264:248,1,120,0|8
336,184,128771,6,0,L|352:152|384:168,2,60,0|0|8
288,96,129420,2,0,L|216:120,1,60,8|0
184,104,129744,2,0,L|152:168,1,60,8|0
112,168,130068,6,0,L|112:240,1,60,0|4
256,192,130474,12,0,135257
