osu file format v7

[General]
AudioFilename: anisakis dj yoshitaka.mp3
AudioLeadIn: 1500
PreviewTime: 89512
Countdown: 1
SampleSet: Soft
StackLeniency: 0.6
Mode: 0
LetterboxInBreaks: 0

[Editor]
Bookmarks: 14300,27273,35057,44447,55813
DistanceSpacing: 1.39999997615814
BeatDivisor: 2
GridSize: 8

[Metadata]
Title:Anisakis -somatic mutation type "Forza"-
Artist:Suzaku
Creator:tsukamaete
Version:Beginner
Source:Beatmania IIDX 15 DJ Troopers
Tags:Alace

[Difficulty]
HPDrainRate:2
CircleSize:4
OverallDifficulty:3
SliderMultiplier:0.5
SliderTickRate:2

[Events]
//Background and Video events
0,0,"BG.png"
//Break Periods
2,34268,43007
2,55025,58574
//Storyboard Layer 0 (Background)
//Storyboard Layer 1 (Fail)
//Storyboard Layer 2 (Pass)
//Storyboard Layer 3 (Foreground)
//Storyboard Sound Samples
//Background Colour Transformations
3,100,163,162,255

[TimingPoints]
339,324.324324324324,4,2,0,69,1,0
11690,-100,4,1,0,71,0,0
13636,-100,4,2,0,69,0,0
32609,-100,4,1,0,71,0,0
44122,-100,4,2,0,69,0,0
59690,-100,4,2,1,50,0,0
70068,-100,4,1,0,56,0,0
70068,-100,4,1,0,56,0,0
76717,-100,4,1,0,55,0,0
79311,-100,4,1,0,0,0,0
79474,-100,4,1,0,100,0,0
88230,-100,4,1,0,70,0,0
109149,-100,4,2,0,69,0,0
119366,-100,4,1,0,70,0,0
129906,-100,4,2,0,69,0,0
135257,-100,4,2,0,0,0,0

[Colours]
Combo1 : 255,255,255
Combo2 : 255,255,128
Combo3 : 255,128,128

[HitObjects]
160,104,338,1,0
24,160,1636,1,0
75,294,2933,1,0
205,238,4230,1,0
352,280,5528,5,0
483,225,6825,1,0
437,90,8122,1,0
307,146,9420,1,0
256,192,10717,5,0
256,192,12014,12,4,13311
184,56,13960,5,0
104,168,14609,1,2
104,168,14933,2,0,B|120:280,1,100
176,312,15906,1,2
304,256,16555,1,0
360,128,17203,1,2
360,128,17528,2,0,B|280:64,1,100
216,80,18501,6,0,B|160:96,1,50,0|2
112,136,19149,2,0,B|96:192,1,50,0|2
144,240,19798,1,0
144,240,20122,2,0,B|200:216|224:280,1,100
288,304,21095,6,0,B|336:280,1,50,0|2
320,216,21744,2,0,B|275:238,2,50,0|2|4
376,176,22717,2,0,B|352:128|384:96|384:72,1,100
320,48,23690,5,4
192,104,24338,1,2
192,248,24987,1,0
192,248,25311,2,0,B|200:304,2,50
264,248,26284,5,0
384,184,26933,1,2
280,88,27582,1,0
280,88,28230,1,4
144,136,28879,5,0
160,208,29203,2,0,B|136:232,2,25,2|0|0
216,256,29852,1,2
280,272,30176,1,0
352,272,30501,1,2
416,240,30825,1,0
464,192,31149,1,2
488,128,31474,6,4,B|432:104,1,50
448,40,32122,2,4,B|493:59,1,50
256,192,32771,12,4,34068
89,81,44447,5,0
160,88,44771,1,8
232,96,45095,1,0
304,104,45420,1,8
352,160,45744,1,0
296,200,46068,1,8
232,232,46393,2,0,B|224:288,1,50
168,320,47041,5,0
144,256,47366,1,8
120,192,47690,1,0
96,128,48014,1,8
152,88,48338,2,0,B|208:80,1,50,0|0
224,144,48987,2,0,B|272:184,1,50,0|0
336,176,49636,5,0
400,160,49960,1,8
360,104,50284,1,0
296,120,50609,1,8
232,144,50933,1,0
272,200,51257,1,8
312,256,51582,2,0,B|304:312,1,50,0|0
240,328,52230,5,0
168,320,52555,1,8
216,264,52879,1,0
144,256,53203,1,8
256,192,53528,12,4,54825
112,88,60014,6,0,B|224:88,1,100
264,48,60987,1,0
320,88,61311,1,0
488,312,62609,6,0,B|376:312,1,100
336,352,63582,1,0
280,312,63906,1,0
224,352,64230,1,0
168,312,64555,1,0
96,192,65203,6,0,B|96:80,1,100
144,40,66176,1,0
144,40,66501,1,0
400,152,67798,6,0,B|344:152,1,50,0|2
312,208,68447,2,0,B|256:208,1,50,0|2
200,248,69095,2,0,B|168:248,4,25
272,128,70393,6,0,B|323:150,1,50
381,176,71041,1,0
320,304,71690,6,0,B|268:281,1,50
210,255,72338,1,0
136,136,72987,6,0,B|158:84,1,50
184,27,73636,1,0
312,88,74284,6,0,B|289:139,1,50
263,198,74933,1,0
344,312,75582,6,0,B|302:284,1,50
302,284,76230,2,0,B|256:320,1,50
262,314,76879,2,0,B|224:280,1,50
225,281,77528,2,0,B|184:320,1,50
256,192,78176,12,0,79393
256,192,79474,12,4,80771
256,112,83366,5,0
222,173,83690,1,0
291,173,84014,1,0
256,232,84338,1,0
288,296,84663,6,0,L|320:264|384:256,2,100,0|0|4
256,192,86041,12,0,87257
168,88,88555,6,0,L|168:144,1,50,0|8
168,208,89203,2,0,L|144:232,2,25,0|0|8
232,232,89852,2,0,L|264:192,1,50,0|8
328,224,90501,2,0,L|360:184,1,50,0|8
400,128,91149,6,0,L|368:88,1,50,0|8
304,64,91798,2,0,L|272:80,2,25,0|0|8
304,64,92447,2,0,L|288:120,1,50,0|8
224,112,93095,2,0,L|208:168,1,50,0|8
232,224,93744,5,0
352,304,94393,1,0
456,208,95041,1,0
336,128,95690,1,0
216,56,96338,6,0,B|176:48|168:80,1,50,0|8
200,136,96987,2,0,B|216:160|200:192,1,50,0|8
136,208,97636,2,0,B|96:232|112:256,1,50,0|8
144,304,98284,2,0,B|184:288|192:312,1,50,0|8
256,336,98933,6,0,B|304:320,1,50,0|8
376,320,99582,2,0,B|400:336,2,25,0|0|8
408,256,100230,5,0
384,192,100555,1,8
320,224,100879,1,0
296,160,101203,1,8
224,168,101528,6,0,L|192:168|176:192,1,50,0|8
136,240,102176,2,0,L|128:264,1,25,0|8
56,256,102663,2,0,L|63:232,1,25,8|0
96,168,103149,1,8
128,104,103474,2,0,L|120:72,2,25,8|0|8
200,104,104122,5,0
224,240,104771,1,0
336,152,105420,1,0
376,288,106068,1,0
440,168,106717,6,0,L|432:200|416:208,1,50,0|2
352,224,107366,2,0,L|328:240|320:272,1,50,2|2
272,312,108014,2,0,L|264:280|240:272,1,50,0|2
176,256,108663,2,0,L|160:248|168:216,1,50,2|2
184,152,109311,5,2
408,320,110609,1,2
440,40,111906,1,2
248,240,113203,1,2
32,56,114501,5,2
304,136,115798,1,2
120,344,117095,1,2
392,288,118393,1,2
224,64,119690,6,0,L|208:112,1,50,0|8
280,120,120338,2,0,L|264:168,1,50,0|8
224,224,120987,6,0,L|176:208,1,50,0|8
128,264,121636,2,0,L|175:279,1,50,0|8
232,320,122284,6,0,L|280:288|336:304|368:272,1,150,0|8
424,248,123582,2,0,L|472:224,1,50,0|8
416,176,124230,2,0,L|376:144,1,50,8|8
360,80,124879,5,0
224,96,125528,1,0
192,232,126176,1,0
328,200,126825,1,0
288,336,127474,5,0
216,329,127798,1,8
144,323,128122,1,0
72,317,128447,1,8
112,264,128771,6,0,L|128:208,1,50,0|8
192,216,129420,2,0,L|208:160,1,50,0|8
272,152,130068,6,2,L|280:136|272:128|280:104,1,50,2|6
256,192,130474,12,0,135257
