osu file format v12

[General]
AudioFilename: Neguse (TV Size).mp3
AudioLeadIn: 1750
PreviewTime: 59219
Countdown: 0
SampleSet: Soft
StackLeniency: 0.7
Mode: 0
LetterboxInBreaks: 0

[Editor]
DistanceSpacing: 0.5
BeatDivisor: 4
GridSize: 8

[Metadata]
Title:Neguse (TV Size)
TitleUnicode:ねぐせ (TV Size)
Artist:Suzaki Aya
ArtistUnicode:洲崎綾
Creator:wcx19911123
Version:Hard
Source:Tamako Market
Tags:ED ending Kyoto Animation Kitashirakawa Tamako Tokiwa Midori Makino Kanna Asagiri Shiori Nagatsuma Juri popner Curisu yangzd88
BeatmapID:208929
BeatmapSetID:73334

[Difficulty]
HPDrainRate:6
CircleSize:4
OverallDifficulty:6
ApproachRate:8
SliderMultiplier:1.6
SliderTickRate:1

[Events]
//Background and Video events
Video,-30,"Neguse (TV Size).avi"
0,0,"BG.jpg",0,0
//Break Periods
//Storyboard Layer 0 (Background)
//Storyboard Layer 1 (Fail)
//Storyboard Layer 2 (Pass)
//Storyboard Layer 3 (Foreground)
//Storyboard Sound Samples
//Background Colour Transformations
3,100,163,162,255

[TimingPoints]
643,437.956204379562,4,2,1,60,1,0
11701,-100,4,2,1,5,0,0
14219,-100,4,2,1,30,0,0
14657,-100,4,2,1,60,0,0
27796,-100,4,2,1,50,0,0
28234,-100,4,2,1,60,0,0
57467,-100,4,2,1,5,0,0
58891,-100,4,2,1,30,0,0
59329,437.956204379562,4,2,1,70,1,1
73124,-100,4,2,1,5,0,1
73234,-100,4,2,1,5,0,0
73343,-100,4,2,1,70,0,1
84292,-100,4,2,1,70,0,0
87577,-100,4,2,1,60,0,0
87796,-100,4,2,1,70,0,0
88453,-100,4,2,1,30,0,0

[Colours]
Combo1 : 70,255,55
Combo2 : 236,247,255
Combo3 : 255,255,98

[HitObjects]
352,24,643,1,2,0:0:0:0:
440,152,1080,1,0,0:0:0:0:
416,312,1518,1,0,0:0:0:0:
352,24,1956,5,2,0:0:0:0:
440,152,2175,2,0,L|496:232,1,80
416,312,2613,2,0,P|376:344|264:344,1,160,2|0,0:0|0:0,0:0:0:0:
208,168,3270,2,0,L|144:320,1,160,2|0,0:0|0:0,0:0:0:0:
256,40,4146,5,2,0:0:0:0:
120,120,4584,1,0,0:0:0:0:
136,280,5022,1,0,0:0:0:0:
256,40,5460,5,2,0:0:0:0:
120,120,5679,2,0,L|48:168,1,80
136,280,6117,2,0,P|176:320|280:328,1,160,2|0,0:0|0:0,0:0:0:0:
368,200,6774,2,0,L|424:352,1,160,2|0,0:0|0:0,0:0:0:0:
416,64,7650,6,0,P|424:128|368:200,1,160,0|2,0:0|0:0,0:0:0:0:
160,152,8526,1,0,0:0:0:0:
192,80,8745,2,0,P|232:48|288:48,1,80,2|0,0:0|0:0,0:0:0:0:
432,96,9183,6,0,P|448:168|416:248,1,160,0|0,0:0|0:0,0:0:0:0:
352,288,9840,1,2,0:0:0:0:
240,152,10059,2,0,P|168:136|80:176,1,160
48,232,10715,1,2,0:0:0:0:
152,384,10934,6,0,P|200:360|256:272,1,160
256,192,11591,1,2,0:0:0:0:
256,192,11701,12,4,14219,0:0:0:0:
176,96,14657,6,0,P|136:120|112:160,1,80,8|0,0:0|0:0,0:0:0:0:
96,224,15095,1,8,0:0:0:0:
176,200,15314,2,0,P|216:200|256:224,1,80,0|8,0:0|0:0,0:0:0:0:
296,288,15752,1,0,0:0:0:0:
296,288,15971,1,8,0:0:0:0:
224,352,16190,6,0,P|128:376|64:352,1,160
16,304,16847,1,8,0:0:0:0:
72,248,17066,2,0,P|168:224|232:248,1,160
288,288,17723,1,8,0:0:0:0:
216,320,17942,1,0,0:0:0:0:
296,208,18161,6,0,P|344:176|448:176,1,160,8|8,0:0|0:0,0:0:0:0:
496,232,18818,1,0,0:0:0:0:
488,312,19037,1,8,0:0:0:0:
416,344,19256,1,0,0:0:0:0:
336,360,19475,6,0,L|176:360,1,160,8|8,0:0|0:0,0:0:0:0:
360,280,20351,2,0,L|200:280,1,160,8|8,0:0|0:0,0:0:0:0:
384,200,21226,2,0,B|240:200|240:200|224:192,1,160,8|8,0:0|0:0,0:0:0:0:
56,48,22102,5,8,0:0:0:0:
112,104,22321,2,0,P|128:144|120:192,1,80,0|8,0:0|0:0,0:0:0:0:
80,248,22759,1,0,0:0:0:0:
80,248,22978,1,8,0:0:0:0:
200,104,23197,6,0,P|232:80|360:72,1,160
416,112,23854,1,8,0:0:0:0:
376,184,24073,2,0,P|344:208|216:216,1,160
160,184,24730,1,8,0:0:0:0:
80,192,24949,1,0,0:0:0:0:
32,256,25168,6,0,P|40:328|112:368,1,160,8|8,0:0|0:0,0:0:0:0:
232,200,26044,2,0,P|160:208|120:280,1,160,8|8,0:0|0:0,0:0:0:0:
320,224,26920,2,0,P|312:152|240:112,1,160,8|8,0:0|0:0,0:0:0:0:
32,72,27796,6,0,B|40:96|40:96|80:32|160:48,1,160,10|8,0:0|0:0,0:0:0:0:
320,224,28672,2,0,B|312:248|312:248|272:184|192:200,1,160,8|8,0:0|0:0,0:0:0:0:
64,352,29548,5,8,0:0:0:0:
64,352,29657,1,0,0:0:0:0:
64,352,29767,2,0,P|32:328|16:288,1,80,0|8,0:0|0:0,0:0:0:0:
96,280,30205,2,0,P|168:320|256:312,1,160
312,280,30861,1,8,0:0:0:0:
432,128,31299,1,8,0:0:0:0:
256,48,31737,1,8,0:0:0:0:
200,104,31956,6,0,P|184:112|32:96,1,160
0,40,32613,1,8,0:0:0:0:
32,184,32832,2,0,P|72:224|184:240,1,160
256,200,33489,6,0,L|288:152,1,40,8|0,0:0|0:0,0:0:0:0:
320,168,33708,2,0,L|336:112,1,40
344,88,33927,2,0,P|416:56|496:72,1,160,10|0,0:0|0:0,0:0:0:0:
512,264,34803,2,0,P|440:296|360:280,1,160,8|8,0:0|0:0,0:0:0:0:
224,144,35679,5,8,0:0:0:0:
32,176,36117,1,8,0:0:0:0:
104,216,36336,2,0,P|128:256|128:312,1,80,0|8,0:0|0:0,0:0:0:0:
96,360,36774,1,0,0:0:0:0:
96,360,36993,1,8,0:0:0:0:
32,176,37212,6,0,P|80:104|160:80,1,160,2|0,0:0|0:0,0:0:0:0:
224,96,37869,1,8,0:0:0:0:
168,152,38088,2,0,P|152:216|184:304,1,160
248,352,38745,1,8,0:0:0:0:
328,360,38964,1,0,0:0:0:0:
408,344,39183,6,0,P|456:312|488:200,1,160,8|8,0:0|0:0,0:0:0:0:
400,48,40059,2,0,L|368:72,1,40,8|0,0:0|0:0,0:0:0:0:
368,112,40278,2,0,L|336:136,1,40
296,136,40497,2,0,L|248:120,1,40,8|0,0:0|0:0,0:0:0:0:
240,88,40715,2,0,L|192:72,1,40,2|0,0:0|0:0,0:0:0:0:
160,64,40934,6,0,P|80:64|16:120,1,160,8|0,0:0|0:0,0:0:0:0:
0,192,41591,1,8,0:0:0:0:
200,248,42029,1,8,0:0:0:0:
128,280,42248,1,8,0:0:0:0:
136,200,42467,1,0,0:0:0:0:
192,328,42686,6,0,P|224:344|312:344,1,120,8|2,0:0|0:0,0:0:0:0:
336,320,43124,2,0,L|368:240,1,80,8|0,0:0|0:0,0:0:0:0:
440,104,43562,2,0,P|472:168|464:216,1,120,8|2,0:0|0:0,0:0:0:0:
440,248,44000,1,8,0:0:0:0:
368,176,44219,6,0,P|296:168|216:216,1,160,0|0,0:0|0:0,0:0:0:0:
200,248,44767,2,0,L|176:296,1,40,2|8,0:0|0:0,0:0:0:0:
192,128,45095,2,0,P|248:144|304:224,1,160,0|0,0:0|0:0,0:0:0:0:
312,264,45642,2,0,L|320:320,1,40,2|8,0:0|0:0,0:0:0:0:
248,344,45971,1,0,0:0:0:0:
152,232,46190,6,0,P|96:240|40:288,1,120,8|2,0:0|0:0,0:0:0:0:
32,312,46628,1,8,0:0:0:0:
200,296,46847,2,0,P|224:264|168:152,1,160
152,152,47394,2,0,L|112:144,1,40,2|8,0:0|0:0,0:0:0:0:
40,56,47723,6,0,L|208:88,1,160
224,112,48270,2,0,L|264:120,1,40,2|8,0:0|0:0,0:0:0:0:
464,48,48818,1,8,0:0:0:0:
384,64,49037,2,0,L|344:56,2,40,0|2|8,0:0|0:0|0:0,0:0:0:0:
440,120,49475,1,0,0:0:0:0:
456,200,49694,6,0,P|456:240|408:304,1,120,8|2,0:0|0:0,0:0:0:0:
368,304,50132,2,0,L|272:280,1,80,8|0,0:0|0:0,0:0:0:0:
192,224,50570,2,0,P|232:200|320:208,1,120,8|2,0:0|0:0,0:0:0:0:
336,224,51007,1,8,0:0:0:0:
232,336,51226,6,0,P|152:336|88:288,1,160
64,256,51774,2,0,L|40:216,1,40,2|8,0:0|0:0,0:0:0:0:
24,144,52102,1,0,0:0:0:0:
56,72,52321,2,0,P|112:32|168:40,1,120,8|2,0:0|0:0,0:0:0:0:
192,64,52759,1,8,0:0:0:0:
312,56,52978,6,0,P|256:104|240:192,1,160
248,224,53526,2,0,L|256:264,1,40,2|8,0:0|0:0,0:0:0:0:
192,336,53854,2,0,P|264:304|360:320,1,160
376,328,54402,2,0,L|416:344,1,40,2|8,0:0|0:0,0:0:0:0:
448,200,54730,6,0,P|400:176|288:200,1,160
272,208,55278,1,2,0:0:0:0:
248,224,55387,2,0,P|208:240|160:232,1,80,8|0,0:0|0:0,0:0:0:0:
148,100,55825,2,0,P|182:127|199:173,1,80,8|0,0:0|0:0,0:0:0:0:
92,248,56263,2,0,P|98:205|129:167,1,80,0|0,0:0|0:0,0:0:0:0:
256,48,56701,5,8,0:0:0:0:
256,48,56920,1,8,0:0:0:0:
256,192,57358,1,8,0:0:0:0:
256,192,57467,12,4,58891,0:0:0:0:
368,88,59329,5,8,0:0:0:0:
416,152,59548,2,0,L|440:184,1,40,0|2,0:0|0:0,0:0:0:0:
464,216,59767,2,0,P|472:272|456:312,1,80,8|0,0:0|0:0,0:0:0:0:
408,352,60205,2,0,P|352:368|296:344,1,120,8|2,0:0|0:0,0:0:0:0:
276,312,60642,1,8,0:0:0:0:
384,224,60861,6,0,B|356:244|356:288|356:288|340:236|280:224,1,160
256,232,61409,2,0,L|208:240,1,40,2|8,0:0|0:0,0:0:0:0:
236,152,61737,1,0,0:0:0:0:
276,312,61956,2,0,P|224:336|144:320,1,120,8|2,0:0|0:0,0:0:0:0:
102,375,62394,2,0,P|142:359|166:319,1,80,8|0,0:0|0:0,0:0:0:0:
28,156,62832,5,8,0:0:0:0:
60,228,63051,2,0,L|84:284,1,40,0|2,0:0|0:0,0:0:0:0:
93,300,63270,2,0,P|133:328|169:328,1,80,8|0,0:0|0:0,0:0:0:0:
280,296,63708,2,0,P|216:280|192:232,1,120,8|2,0:0|0:0,0:0:0:0:
192,192,64146,1,8,0:0:0:0:
256,72,64365,6,0,B|244:112|216:120|216:120|160:104|124:156,1,160
116,184,64913,2,0,L|108:224,1,40,2|8,0:0|0:0,0:0:0:0:
144,48,65241,1,0,0:0:0:0:
192,192,65460,2,0,P|216:224|296:240,1,120,8|2,0:0|0:0,0:0:0:0:
342,295,65898,2,0,P|302:271|294:215,1,80,8|0,0:0|0:0,0:0:0:0:
448,136,66336,5,8,0:0:0:0:
392,192,66555,2,0,L|360:224,2,40,0|2|8,0:0|0:0|0:0,0:0:0:0:
372,116,66993,1,0,0:0:0:0:
468,212,67212,2,0,P|476:268|436:340,1,120,8|2,0:0|0:0,0:0:0:0:
416,344,67650,1,8,0:0:0:0:
352,256,67869,6,0,P|304:240|200:272,1,160
176,296,68416,2,0,L|152:328,1,40,2|8,0:0|0:0,0:0:0:0:
248,160,68745,2,0,P|272:216|256:312,1,160
232,344,69292,2,0,L|208:376,1,40,2|8,0:0|0:0,0:0:0:0:
192,216,69621,1,0,0:0:0:0:
336,152,69840,6,0,P|408:144|464:176,1,120,8|2,0:0|0:0,0:0:0:0:
472,192,70278,1,8,0:0:0:0:
440,80,70497,2,0,P|392:160|400:232,1,160
416,256,71044,2,0,L|440:296,1,40,2|8,0:0|0:0,0:0:0:0:
488,352,71372,5,8,0:0:0:0:
256,320,71810,2,0,L|256:280,1,40,8|2,0:0|0:0,0:0:0:0:
24,352,72248,1,8,0:0:0:0:
200,80,72686,2,0,B|272:88|328:144|256:184|184:144|240:88|312:80,1,240,8|8,0:0|0:0,0:0:0:0:
392,72,73562,6,0,L|432:80,1,40,0|2,0:0|0:0,0:0:0:0:
464,96,73781,2,0,P|496:144|496:192,1,80,8|0,0:0|0:0,0:0:0:0:
488,244,74219,2,0,P|460:284|360:312,1,120,8|2,0:0|0:0,0:0:0:0:
360,316,74657,1,8,0:0:0:0:
400,152,74876,6,0,P|424:208|332:208,1,160
320,208,75424,2,0,L|296:176,1,40,2|8,0:0|0:0,0:0:0:0:
248,112,75752,1,0,0:0:0:0:
112,168,75971,2,0,P|152:144|176:72,1,120,8|2,0:0|0:0,0:0:0:0:
115,38,76409,2,0,P|139:70|179:78,1,80,8|0,0:0|0:0,0:0:0:0:
296,48,76847,5,8,0:0:0:0:
376,64,77066,2,0,L|424:72,1,40,0|2,0:0|0:0,0:0:0:0:
448,96,77285,2,0,P|472:128|472:176,1,80,8|0,0:0|0:0,0:0:0:0:
296,240,77723,2,0,P|304:200|368:152,1,120,8|2,0:0|0:0,0:0:0:0:
400,152,78161,1,8,0:0:0:0:
352,296,78380,6,0,P|264:312|216:240,1,160
208,224,78927,2,0,L|200:184,1,40,2|8,0:0|0:0,0:0:0:0:
184,104,79256,1,0,0:0:0:0:
26,93,79475,2,0,P|74:141|130:149,1,120,8|2,0:0|0:0,0:0:0:0:
184,104,79913,2,0,P|144:120|120:160,1,80,8|0,0:0|0:0,0:0:0:0:
120,232,80351,6,0,P|136:296|176:336,1,120,8|2,0:0|0:0,0:0:0:0:
208,352,80788,2,0,P|256:360|296:352,1,80,8|0,0:0|0:0,0:0:0:0:
352,312,81226,1,8,0:0:0:0:
416,168,81445,2,0,L|432:120,2,40,0|2|8,0:0|0:0|0:0,0:0:0:0:
384,240,81883,2,0,P|344:264|224:248,1,160
200,232,82431,2,0,L|160:200,1,40,2|8,0:0|0:0,0:0:0:0:
24,144,82759,6,0,P|64:168|184:152,1,160
208,136,83307,2,0,L|248:104,1,40,2|8,0:0|0:0,0:0:0:0:
328,48,83635,2,0,P|408:40|480:88,1,160
488,104,84183,1,2,0:0:0:0:
496,132,84292,2,0,P|496:172|416:268,1,160,8|0,0:0|0:0,0:0:0:0:
352,296,84949,6,0,L|296:312,2,40,0|2|0,0:0|0:0|0:0,0:0:0:0:
368,216,85387,2,0,P|368:184|272:88,1,160
248,80,85934,2,0,L|192:64,1,40,2|0,0:0|0:0,0:0:0:0:
96,48,86263,2,0,P|136:96|136:208,1,160
128,224,86810,2,0,L|104:272,1,40,2|0,0:0|0:0,0:0:0:0:
40,296,87139,2,0,P|56:320|120:336,1,80,0|8,0:0|0:0,0:0:0:0:
176,304,87577,5,2,0:0:0:0:
256,280,87796,1,0,0:0:0:0:
336,304,88015,1,8,0:0:0:0:
312,72,88453,1,0,0:0:0:0:
256,88,88672,1,0,0:0:0:0:
200,72,88891,1,0,0:0:0:0:
