osu file format v11

[General]
AudioFilename: 01 - Dramatic Market Ride ~TV size~.mp3
AudioLeadIn: 2000
PreviewTime: 54840
Countdown: 0
SampleSet: Soft
StackLeniency: 0.7
Mode: 0
LetterboxInBreaks: 0

[Editor]
DistanceSpacing: 1.2
BeatDivisor: 4
GridSize: 4

[Metadata]
Title:Dramatic Market Ride (TV Size)
TitleUnicode:ドラマチックマーケットライド (TV Size)
Artist:Suzaki Aya
ArtistUnicode:洲崎 綾
Creator:Kawayi Rika
Version:Rika
Source:Tamako Market
Tags:opening alacat moe kyoto
BeatmapID:210105
BeatmapSetID:73844

[Difficulty]
HPDrainRate:7
CircleSize:4
OverallDifficulty:7
ApproachRate:9
SliderMultiplier:1.8
SliderTickRate:2

[Events]
//Background and Video events
Video,-705,"Video.avi"
0,0,"BG.jpg"
//Break Periods
//Storyboard Layer 0 (Background)
//Storyboard Layer 1 (Fail)
//Storyboard Layer 2 (Pass)
//Storyboard Layer 3 (Foreground)
//Storyboard Sound Samples
//Background Colour Transformations
3,100,163,162,255

[TimingPoints]
191,350.877192982456,4,1,1,50,1,0
1594,-100,4,2,1,65,0,0
14840,-100,4,2,1,5,0,0
14927,-100,4,2,1,30,0,0
15278,-100,4,2,1,65,0,0
15629,-100,4,2,1,50,0,0
18436,-100,4,2,1,60,0,0
29313,-100,4,2,1,45,0,0
29664,-100,4,2,1,65,0,0
39489,-100,4,2,1,45,0,0
40892,-100,4,2,1,65,0,0
41155,-100,4,2,1,50,0,0
41506,-100,4,2,2,50,0,0
41682,-100,4,2,1,50,0,0
52208,-100,4,2,1,40,0,0
54927,-100,4,2,1,60,0,1
61945,-100,4,2,1,45,0,1
62033,-100,4,2,1,60,0,1
62647,-100,4,2,1,40,0,1
63348,-100,4,2,1,60,0,1
64927,-100,4,2,1,45,0,1
65190,-100,4,2,1,55,0,1
66682,-100,4,2,1,60,0,1
74050,-100,4,1,1,30,0,1
74576,-100,4,2,1,60,0,1
75629,-100,4,2,1,50,0,1
77383,-100,4,2,1,40,0,0
77471,-100,4,2,1,60,0,0
79138,-100,4,2,1,40,0,0
79840,-100,4,2,1,60,0,0
80190,-100,4,2,1,50,0,0
84576,-100,4,2,1,30,0,0
85278,-100,4,2,1,20,0,0
87208,-100,4,2,1,10,0,0
88612,-100,4,2,1,5,0,0

[Colours]
Combo1 : 50,162,228
Combo2 : 121,34,217
Combo3 : 49,49,251

[HitObjects]
276,48,191,1,0,0:0:0
380,72,366,1,0,0:0:0
380,72,454,2,0,P|340:92|312:132,1,90
316,164,717,1,0,0:0:0
424,184,892,1,0,0:0:0
424,184,980,1,0,0:0:0
368,276,1155,1,0,0:0:0
340,300,1244,1,0,0:0:0
304,300,1331,1,0,0:0:0
272,284,1419,1,0,0:0:0
256,252,1507,1,0,0:0:0
228,232,1595,6,0,P|192:204|140:188,1,90,4|0,0:0|0:0,0:0:0
52,316,1945,2,0,P|88:344|140:360,2,90,8|0|8,0:0|0:0|0:0,0:0:0
44,208,2471,1,0,0:0:0
44,208,2647,2,0,P|80:120,1,90,8|0,0:0|0:0,0:0:0
274,32,2998,6,0,P|240:116,1,90,8|0,0:0|0:0,0:0:0
168,196,3348,2,0,P|188:236|232:264,1,90,8|0,0:0|0:0,0:0:0
272,360,3699,2,0,P|308:334|328:294,1,90,8|0,0:0|0:0,0:0:0
356,122,4050,2,0,P|320:148|300:188,1,90,8|0,0:0|0:0,0:0:0
168,196,4401,6,0,P|136:260|144:328,1,135,8|0,0:0|0:0,0:0:0
65,364,4752,2,0,P|105:353|141:321,1,90,8|0,0:0|0:0,0:0:0
240,276,5103,1,8,0:0:0
96,116,5278,2,0,P|56:127|20:159,2,90,0|8|0,0:0|0:0|0:0,0:0:0
144,144,5717,1,0,0:0:0
196,152,5805,1,8,0:0:0
248,144,5893,1,0,0:0:0
296,116,5981,1,0,0:0:0
348,120,6069,1,0,0:0:0
392,152,6155,6,0,P|424:184|432:232,1,90,8|0,0:0|0:0,0:0:0
324,228,6506,2,0,P|240:276|188:360,1,180,8|8,0:0|0:0,0:0:0
88,368,7033,1,0,0:0:0
40,272,7208,6,0,P|12:236|-4:184,1,90,4|0,0:0|0:0,0:0:0
97,70,7559,2,0,P|125:106|140:148,1,90,8|0,0:0|0:0,0:0:0
216,228,7910,2,0,P|176:256|132:256,1,90,8|0,0:0|0:0,0:0:0
140,148,8261,2,0,P|180:120|224:120,1,90,8|0,0:0|0:0,0:0:0
380,84,8612,6,0,P|444:84|444:84|484:96|500:144,1,135,8|0,0:0|0:0,0:0:0
420,156,8962,2,0,P|324:156,1,90,8|0,0:0|0:0,0:0:0
248,228,9313,2,0,P|383:228,1,135,8|0,0:0|0:0,0:0:0
460,248,9664,2,0,P|448:288|416:300|416:300|296:300,1,180,8|8,0:0|0:0,0:0:0
208,340,10190,5,0,0:0:0
88,260,10366,2,0,P|40:256|-8:228,1,90,8|0,0:0|0:0,0:0:0
64,144,10717,1,8,0:0:0
156,88,10892,1,0,0:0:0
256,132,11068,1,8,0:0:0
356,88,11243,6,0,P|307:26|260:97,1,180,2|2,0:0|0:0,0:0:0
256,196,11769,2,0,P|256:288,1,90,8|2,0:0|0:0,0:0:0
332,364,12120,2,0,P|256:323|177:368,2,180,8|8|4,0:0|0:0|0:0,0:0:0
484,152,13173,5,2,0:0:0
304,32,13524,1,0,0:0:0
304,32,13699,2,0,P|256:48|208:48,1,90,0|2,0:0|0:0,0:0:0
52,160,14050,2,0,P|132:192|180:280,1,180
135,66,14576,2,0,P|168:116|240:128,1,135,2|0,0:0|0:0,0:0:0
268,148,14927,2,0,P|304:184,2,45,2|2|2,0:0|0:0|0:0,0:0:0
372,248,15278,1,2,0:0:0
372,248,15366,1,0,0:0:0
372,248,15453,1,0,0:0:0
166,332,15629,6,0,P|256:332,1,90,8|4,0:0|0:0,0:0:0
346,52,16155,2,0,P|256:52,1,90,8|4,0:0|0:0,0:0:0
56,140,16682,5,8,0:0:0
96,240,16857,1,4,0:0:0
456,140,17208,1,8,0:0:0
416,240,17383,1,4,0:0:0
256,96,17734,1,8,0:0:0
256,204,17910,1,4,0:0:0
56,140,18261,1,0,0:0:0
56,140,18348,1,0,0:0:0
56,140,18436,6,0,P|80:100|120:76,1,90,4|0,0:0|0:0,0:0:0
176,168,18787,1,8,0:0:0
256,96,18962,1,0,0:0:0
256,96,19138,2,0,P|344:124|424:84,1,180,0|8,0:0|0:0,0:0:0
508,28,19665,1,0,0:0:0
420,88,19840,2,0,P|432:172|512:236,1,180,0|8,0:0|0:0,0:0:0
316,316,20366,1,0,0:0:0
316,316,20454,1,0,0:0:0
316,316,20541,2,0,P|212:332,1,90
156,248,20892,2,0,P|52:264,1,90,8|0,0:0|0:0,0:0:0
80,352,21243,6,0,P|136:312|136:312|160:240,1,135
148,168,21594,2,0,P|240:160,1,90,8|0,0:0|0:0,0:0:0
416,176,21945,1,0,0:0:0
280,60,22120,1,0,0:0:0
320,236,22296,1,8,0:0:0
388,68,22471,1,0,0:0:0
280,60,22647,6,0,P|88:88,1,180,0|8,0:0|0:0,0:0:0
101,298,23173,2,0,P|280:324,1,180
388,336,23699,1,8,0:0:0
468,260,23875,1,0,0:0:0
468,260,23962,1,0,0:0:0
468,260,24050,6,0,P|492:220|492:172,1,90
345,21,24401,2,0,P|321:61|320:104,1,90,8|0,0:0|0:0,0:0:0
428,96,24752,1,0,0:0:0
384,196,24927,1,0,0:0:0
384,196,25015,1,0,0:0:0
384,196,25103,2,0,P|292:188|212:232,1,180,8|0,0:0|0:0,0:0:0
13,363,25629,6,0,P|57:359|92:332,1,90,0|8,0:0|0:0,0:0:0
200,340,25980,1,0,0:0:0
200,340,26068,1,0,0:0:0
200,340,26155,1,0,0:0:0
136,252,26331,2,0,P|136:204|156:168,1,90,0|8,0:0|0:0,0:0:0
236,128,26682,1,0,0:0:0
336,88,26857,6,0,P|404:80|444:24,1,135
442,30,27208,2,0,P|502:102,1,90,8|0,0:0|0:0,0:0:0
444,192,27559,1,0,0:0:0
500,284,27734,1,0,0:0:0
396,312,27910,1,8,0:0:0
396,312,27998,1,0,0:0:0
396,312,28085,2,0,P|344:356|272:296|220:336,1,180,0|8,0:0|0:0,0:0:0
120,300,28612,1,8,0:0:0
19,129,28787,6,0,P|56:164,1,45,2|0,0:0|0:0,0:0:0
156,36,29138,1,8,0:0:0
152,144,29313,1,8,0:0:0
176,172,29401,1,8,0:0:0
212,176,29489,1,8,0:0:0
248,164,29576,1,8,0:0:0
260,128,29664,6,0,P|304:64|400:32,1,180,4|8,0:0|0:0,0:0:0
500,68,30190,1,0,0:0:0
508,176,30366,2,0,P|516:220|508:276,1,90
412,224,30717,2,0,P|404:180|412:134,2,90,8|0|0,0:0|0:0|0:0,0:0:0
424,332,31243,5,0,0:0:0
388,328,31331,1,0,0:0:0
352,336,31419,2,0,P|304:340|260:360,1,90,8|0,0:0|0:0,0:0:0
160,368,31769,2,0,P|184:280|148:196,1,180,0|8,0:0|0:0,0:0:0
4,40,32296,1,0,0:0:0
40,140,32471,6,0,P|80:120|108:72,1,90
132,60,32734,1,0,0:0:0
168,56,32822,1,8,0:0:0
256,120,32998,1,0,0:0:0
344,56,33173,2,0,P|384:40|440:40,1,90
412,140,33524,1,8,0:0:0
412,140,33699,2,0,P|448:160|472:204,2,90
368,236,34226,5,8,0:0:0
368,236,34313,1,0,0:0:0
368,236,34401,1,0,0:0:0
144,236,34576,1,0,0:0:0
144,236,34664,1,0,0:0:0
144,236,34752,2,0,P|100:256|76:288,1,90,0|8,0:0|0:0,0:0:0
4,368,35103,2,0,P|60:328|60:220,1,180
4,132,35629,5,8,0:0:0
80,56,35805,2,0,P|122:54|166:38,1,90
192,144,36155,1,0,0:0:0
276,76,36331,2,0,P|356:36|448:40,1,180,8|0,0:0|0:0,0:0:0
416,84,36769,1,0,0:0:0
420,136,36857,1,0,0:0:0
456,176,36945,1,0,0:0:0
508,192,37033,2,0,P|522:232|510:276,1,90,8|0,0:0|0:0,0:0:0
420,332,37383,1,0,0:0:0
256,316,37559,5,0,0:0:0
156,352,37734,1,8,0:0:0
80,276,37910,2,0,P|12:228|1:133,1,180
142,118,38436,2,0,P|106:141|82:181,1,90,8|0,0:0|0:0,0:0:0
370,118,38787,2,0,P|406:141|430:181,2,90,0|0|8,0:0|0:0|0:0,0:0:0
256,118,39313,1,0,0:0:0
348,252,39489,5,8,0:0:0
256,308,39664,1,8,0:0:0
256,308,39840,1,8,0:0:0
164,252,40015,1,8,0:0:0
84,180,40190,6,8,P|120:144,1,45
60,56,40454,2,8,P|116:40,1,45
210,60,40717,2,0,P|256:68|306:60,1,90,8|4,0:0|0:0,0:0:0
408,44,41068,1,0,0:0:0
496,180,41243,5,8,0:0:0
436,268,41419,2,0,P|376:268|376:268|316:256|316:256|244:256,1,180
204,348,41945,1,8,0:0:0
144,256,42120,1,0,0:0:0
144,256,42208,1,0,0:0:0
144,256,42296,6,0,P|100:244|100:244|44:244,1,90,8|0,0:0|0:0,0:0:0
12,344,42647,2,0,P|56:304|56:304|56:164,1,180,8|8,0:0|0:0,0:0:0
144,128,43173,1,0,0:0:0
56,68,43348,2,0,P|88:40|148:28,1,90,8|0,0:0|0:0,0:0:0
168,28,43612,1,0,0:0:0
200,44,43699,1,8,0:0:0
224,68,43787,1,0,0:0:0
232,104,43875,6,0,P|232:200,1,90,0|8,0:0|0:0,0:0:0
448,286,44226,2,0,P|448:196,1,90,0|8,0:0|0:0,0:0:0
340,196,44576,1,0,0:0:0
256,268,44752,1,8,0:0:0
176,340,44927,1,0,0:0:0
92,268,45103,6,0,P|48:276|0:264,1,90,8|0,0:0|0:0,0:0:0
4,117,45454,2,0,P|48:108|92:116,1,90,8|0,0:0|0:0,0:0:0
255,190,45805,2,0,P|212:200|168:192,1,90,8|0,0:0|0:0,0:0:0
167,39,46156,2,0,P|211:31|255:41,1,90,8|0,0:0|0:0,0:0:0
512,33,46506,6,0,P|468:84|396:97,1,135,8|0,0:0|0:0,0:0:0
326,52,46857,2,0,P|398:92|438:188,1,180,8|8,0:0|0:0,0:0:0
472,280,47383,1,0,0:0:0
392,352,47559,2,0,P|324:332|292:264,1,135,8|0,0:0|0:0,0:0:0
340,213,47910,6,0,P|292:280|192:277,1,180,8|8,0:0|0:0,0:0:0
20,160,48436,1,0,0:0:0
104,228,48612,2,0,P|124:188|120:140,1,90,8|0,0:0|0:0,0:0:0
221,112,48962,2,0,P|236:196|200:281,1,180,8|8,0:0|0:0,0:0:0
352,344,49489,5,8,0:0:0
460,344,49664,1,8,0:0:0
488,240,49840,2,8,P|428:168|344:136,1,180,8|8,0:0|0:0,0:0:0
256,192,50366,1,8,0:0:0
163,136,50541,1,0,0:0:0
29,332,50717,6,0,P|72:328|104:296,1,90,8|0,0:0|0:0,0:0:0
200,348,51068,1,0,0:0:0
180,240,51243,2,0,P|256:280|336:236,1,180,8|0,0:0|0:0,0:0:0
312,348,51769,1,8,0:0:0
448,56,52120,5,4,0:0:0
384,144,52296,1,8,0:0:0
320,56,52471,1,0,0:0:0
212,56,52647,2,0,P|172:80,3,45,8|0|8|0,0:0|0:0|0:0|0:0,0:0:0
140,92,52998,1,0,0:0:0
108,108,53085,2,0,P|68:132,1,45,8|8,0:0|0:0,0:0:0
68,252,53348,2,0,P|108:276,1,45,8|8,0:0|0:0,0:0:0
124,308,53524,5,8,0:0:0
156,328,53612,1,0,0:0:0
192,328,53699,1,8,0:0:0
220,308,53787,1,8,0:0:0
256,320,53875,2,8,P|296:338,1,45
332,339,54050,2,8,P|372:320,1,45
408,312,54226,2,0,P|492:280|500:192,1,180,8|8,0:0|0:0,0:0:0
492,164,54664,1,8,0:0:0
456,156,54752,1,8,0:0:0
424,172,54840,1,8,0:0:0
412,204,54927,6,0,P|352:172|332:104,1,135,4|0,0:0|0:0,0:0:0
331,111,55278,2,0,P|292:128|240:128,1,90,8|0,0:0|0:0,0:0:0
81,69,55629,2,0,P|121:52|168:52,1,90
212,84,55892,1,0,0:0:0
244,128,55980,2,0,P|188:160|112:160,1,135,8|0,0:0|0:0,0:0:0
118,161,56331,6,0,P|148:252,1,90
184,348,56682,1,8,0:0:0
260,272,56857,2,0,P|320:244|404:256,1,135
461,288,57208,2,0,P|419:280|387:248,1,90,0|8,0:0|0:0,0:0:0
472,180,57559,1,0,0:0:0
472,180,57647,1,0,0:0:0
472,180,57734,6,0,P|440:148|397:139,1,90
192,84,58085,1,8,0:0:0
170,187,58261,2,0,P|256:172|300:96,1,180
72,140,58787,1,8,0:0:0
72,244,58962,5,0,0:0:0
72,244,59050,1,0,0:0:0
72,244,59138,2,0,P|192:316,1,135
267,317,59489,2,0,P|255:361|220:384,1,90,8|0,0:0|0:0,0:0:0
108,312,59840,2,0,P|120:268|155:245,1,90,0|0,0:0|0:0,0:0:0
268,208,60190,1,8,0:0:0
364,260,60366,1,0,0:0:0
472,140,60541,6,0,P|476:92|456:48,1,90
272,40,60892,2,0,P|362:40,1,90,8|0,0:0|0:0,0:0:0
240,128,61243,2,0,P|148:128,1,90
51,54,61594,2,0,P|36:92|40:140,1,90,8|0,0:0|0:0,0:0:0
20,320,61945,5,4,0:0:0
36,232,62120,2,0,P|128:240|204:304,1,180
316,291,62647,2,0,P|384:240|476:232,2,180,2|2|0,1:0|1:0|0:0,0:0:0
492,320,63699,5,8,0:0:0
172,152,64050,1,0,0:0:0
256,84,64226,1,0,0:0:0
340,152,64401,1,8,0:0:0
256,220,64576,1,0,0:0:0
256,220,64752,6,0,P|256:312,1,90
256,348,65015,1,0,0:0:0
256,380,65103,1,8,0:0:0
152,348,65278,1,8,0:0:0
68,280,65454,2,0,P|28:236,3,45,2|0|2|0,0:0|0:0|0:0|0:0,0:0:0
60,216,65805,2,0,P|40:164,3,45,2|0|2|0,0:0|0:0|0:0|0:0,0:0:0
32,140,66155,6,0,P|88:76|180:76,1,180,0|8,0:0|0:0,0:0:0
335,183,66682,2,0,P|256:220|176:184,1,180,4|0,0:0|0:0,0:0:0
176,184,67208,1,8,0:0:0
334,75,67383,2,0,P|424:76|480:140,1,180
480,248,67910,1,8,0:0:0
480,248,67998,1,0,0:0:0
480,248,68085,2,0,P|396:288,1,90
300,328,68436,1,0,0:0:0
100,248,68612,2,0,P|60:220,2,45,8|0|0,0:0|0:0|0:0,0:0:0
128,352,68962,6,0,P|196:300|196:204,1,180,0|8,0:0|0:0,0:0:0
116,140,69489,1,0,0:0:0
12,116,69664,2,0,P|28:76|62:45,1,90
172,44,70015,1,8,0:0:0
256,112,70190,2,0,P|344:96|436:116,1,180
444,296,70717,2,0,P|400:304|352:296,1,90,8|0,0:0|0:0,0:0:0
396,196,71068,2,0,P|327:366,1,180,0|8,0:0|0:0,0:0:0
172,320,71594,5,0,0:0:0
144,296,71682,1,0,0:0:0
108,292,71769,1,0,0:0:0
64,192,71945,1,0,0:0:0
72,84,72120,1,8,0:0:0
174,80,72296,2,0,P|152:156|64:192,1,180
256,148,72822,1,8,0:0:0
337,80,72998,2,0,P|360:156|448:192,1,180
388,260,73524,6,0,P|447:192,1,90,8|0,0:0|0:0,0:0:0
472,296,73875,2,0,P|412:363,1,90
376,360,74138,1,0,0:0:0
340,356,74226,1,0,0:0:0
304,348,74313,1,0,0:0:0
268,340,74401,1,0,0:0:0
232,332,74489,1,0,0:0:0
196,324,74576,1,4,0:0:0
96,280,74752,2,0,P|56:260|32:220,1,90,0|8,0:0|0:0,0:0:0
40,116,75103,1,0,0:0:0
108,32,75278,1,8,0:0:0
188,104,75454,5,0,0:0:0
216,84,75541,1,0,0:0:0
252,84,75629,2,0,P|292:64|344:56,1,90,8|0,0:0|0:0,0:0:0
488,212,75980,2,0,P|448:232|404:240,1,90,8|0,0:0|0:0,0:0:0
388,132,76331,1,8,0:0:0
388,132,76506,1,0,0:0:0
404,240,76682,1,8,0:0:0
404,240,76857,1,0,0:0:0
344,332,77033,2,0,P|300:336|252:324,1,90,8|0,0:0|0:0,0:0:0
220,320,77296,1,0,0:0:0
192,296,77383,6,0,P|116:256|16:272,1,180,4|2,0:0|0:0,0:0:0
96,352,77910,1,2,0:0:0
96,352,78085,2,0,P|132:168,1,180,0|0,0:0|0:0,0:0:0
381,175,78612,2,0,P|416:352,1,180,2|0,0:0|0:0,0:0:0
416,352,79138,2,2,P|464:352,6,45
308,352,79840,1,2,0:0:0
204,352,80015,1,2,0:0:0
172,192,80190,5,8,0:0:0
148,68,80366,1,4,0:0:0
364,68,80717,1,8,0:0:0
340,192,80893,1,4,0:0:0
256,348,81243,1,8,0:0:0
256,220,81419,2,0,P|256:36,1,180,4|0,0:0|0:0,0:0:0
256,40,81945,1,8,0:0:0
100,192,82296,6,0,P|80:232|40:256,1,90,0|8,0:0|0:0,0:0:0
412,192,82822,2,0,P|432:152|472:128,1,90,0|8,0:0|0:0,0:0:0
256,348,83348,2,0,P|256:256,1,90,0|8,0:0|0:0,0:0:0
256,36,83875,1,0,0:0:0
256,36,84050,2,0,P|256:216,1,180,8|0,0:0|0:0,0:0:0
156,260,84576,2,0,P|256:336|358:255,1,270
256,192,85278,12,0,88612,0:0:0
