osu file format v12

[General]
AudioFilename: Aya Suzaki - Dramatic Market Ride.mp3
AudioLeadIn: 1000
PreviewTime: 55327
Countdown: 0
SampleSet: Normal
StackLeniency: 0.7
Mode: 0
LetterboxInBreaks: 0

[Editor]
DistanceSpacing: 0.8
BeatDivisor: 4
GridSize: 4

[Metadata]
Title:Dramatic Market Ride (TV Size)
TitleUnicode:ドラマチックマーケットライド (TV Size)
Artist:Suzaki Aya
ArtistUnicode:洲崎綾
Creator:EmPao
Version:Easy
Source:Tamako Market
Tags:たまこまーけっと 北白川たまこ opening Kyoto Animation Kitashirakawa Tamako Tokiwa Midori Makino Kanna ms0543724 ReySHeL yanlu DarknessAngel kg2161012 0gre
BeatmapID:210747
BeatmapSetID:73219

[Difficulty]
HPDrainRate:2
CircleSize:3
OverallDifficulty:2
ApproachRate:3
SliderMultiplier:1
SliderTickRate:1

[Events]
//Background and Video events
Video,0,"OP.avi"
0,0,"BG.jpg",0,0
//Break Periods
//Storyboard Layer 0 (Background)
//Storyboard Layer 1 (Fail)
//Storyboard Layer 2 (Pass)
//Storyboard Layer 3 (Foreground)
//Storyboard Sound Samples
//Background Colour Transformations
3,100,163,162,255

[TimingPoints]
619,350.877192982456,4,1,0,50,1,0
19215,-100,4,2,1,60,0,0
25531,-100,4,2,2,60,0,0
25618,-100,4,2,1,60,0,0
26233,-100,4,2,2,60,0,0
26320,-100,4,2,1,60,0,0
31847,-100,4,2,2,60,0,0
31934,-100,4,2,1,60,0,0
32548,-100,4,2,2,60,0,0
32636,-100,4,2,1,60,0,0
39566,-100,4,2,2,60,0,0
39654,-100,4,2,1,60,0,0
47987,-100,4,2,2,60,0,0
48075,-100,4,2,1,60,0,0
48689,-100,4,2,2,60,0,0
48776,-100,4,2,1,60,0,0
54303,-100,4,2,2,60,0,0
54390,-100,4,2,1,60,0,0
55355,-100,4,2,1,70,0,1
59917,-100,4,2,2,70,0,1
60004,-100,4,2,1,70,0,1
64829,-100,4,2,2,70,0,1
64917,-100,4,2,1,70,0,1
66934,-100,4,2,2,70,0,1
67022,-100,4,2,1,70,0,1
67088,-100,4,2,1,70,0,0
67110,-100,4,2,1,70,0,1
71145,-100,4,2,2,70,0,1
71233,-100,4,2,1,70,0,1
72548,-100,4,2,2,70,0,1
72636,-100,4,2,1,70,0,1
77811,-100,4,2,1,70,0,0
78162,-100,4,2,2,70,0,0
78250,-100,4,2,1,70,0,0
78864,-100,4,2,2,70,0,0
78952,-100,4,2,1,70,0,0
87168,-100,4,2,0,60,0,0

[Colours]
Combo1 : 251,215,89
Combo2 : 123,220,249
Combo3 : 240,162,249

[HitObjects]
148,232,2022,2,0,B|164:344|348:344|364:232,1,300,4|8,0:0|0:0,0:0:0:0:
364,152,3426,2,0,B|348:40|164:40|148:152,1,300,8|8,0:0|0:0,0:0:0:0:
76,192,4829,5,8,0:0:0:0:
76,272,5180,2,0,B|152:336|152:336|256:336,1,200,8|8,0:0|0:0,0:0:0:0:
332,336,6233,1,8,0:0:0:0:
412,336,6583,2,0,B|476:260|476:260|476:156,1,200,8|8,0:0|0:0,0:0:0:0:
396,160,7636,5,4,0:0:0:0:
348,96,7987,2,8,P|304:80|256:96,2,100,8|8|8,0:0|0:0|0:0,0:0:0:0:
302,160,9040,1,8,0:0:0:0:
256,224,9390,2,0,P|300:240|348:224,2,100,8|8|8,0:0|0:0|0:0,0:0:0:0:
192,272,10443,6,0,P|176:224|192:180,1,100,8|8,0:0|0:0,0:0:0:0:
132,128,11145,2,0,P|148:84|132:36,1,100,8|8,0:0|0:0,0:0:0:0:
64,80,11847,2,0,L|264:80,1,200,8|8,0:0|0:0,0:0:0:0:
424,80,13250,5,4,0:0:0:0:
344,220,13952,2,0,L|344:372,2,150,0|0|8,0:0|0:0|0:0,0:0:0:0:
68,224,16233,6,0,P|44:156|68:84,1,150,4|0,0:0|0:0,0:0:0:0:
168,152,17285,2,0,P|192:220|168:292,2,150,0|0|0,0:0|0:0|0:0,0:0:0:0:
168,32,18864,1,4,0:0:0:0:
224,88,19215,6,8,L|324:88,1,100,8|0,0:0|0:0,0:0:0:0:
404,88,19917,1,8,0:0:0:0:
364,156,20268,2,0,P|348:200|364:248,1,100,0|8,0:0|0:0,0:0:0:0:
428,200,20969,2,0,P|444:248|428:296,2,100,0|8|0,0:0|0:0|0:0,0:0:0:0:
364,156,22022,5,8,0:0:0:0:
364,76,22373,1,0,0:0:0:0:
296,116,22724,2,0,P|248:132|204:116,1,100,8|0,0:0|0:0,0:0:0:0:
132,76,23426,2,0,P|88:60|36:76,2,100,8|0|8,0:0|0:0|0:0,0:0:0:0:
84,140,24478,6,0,L|84:240,1,100,0|8,0:0|0:0,0:0:0:0:
160,268,25180,2,0,B|140:340|28:340|8:268,2,200,0|4|0,0:0|0:0|0:0,0:0:0:0:
240,268,26934,6,0,L|340:268,1,100,8|0,0:0|0:0,0:0:0:0:
420,268,27636,1,8,0:0:0:0:
488,220,27987,2,0,P|504:264|488:312,2,100,0|8|4,0:0|0:0|0:0,0:0:0:0:
392,148,29215,1,0,0:0:0:0:
216,52,30092,1,4,0:0:0:0:
216,132,30443,6,0,L|216:232,2,100,8|0|8,0:0|0:0|0:0,0:0:0:0:
284,92,31496,2,0,L|484:92,2,200,0|0|4,0:0|0:0|0:0,0:0:0:0:
204,92,33250,5,8,0:0:0:0:
124,92,33601,1,0,0:0:0:0:
60,44,33952,2,0,P|44:92|60:140,1,100,8|0,0:0|0:0,0:0:0:0:
228,308,35355,5,8,0:0:0:0:
308,308,35706,2,0,L|408:308,1,100,0|8,0:0|0:0,0:0:0:0:
472,356,36408,2,0,P|488:308|472:260,1,100,0|8,0:0|0:0,0:0:0:0:
472,184,37110,1,0,0:0:0:0:
424,120,37461,1,8,0:0:0:0:
348,92,37811,1,0,0:0:0:0:
268,92,38162,6,0,L|168:92,2,100,8|0|8,0:0|0:0|0:0,0:0:0:0:
308,164,39215,2,0,B|352:196|352:316|308:348,1,200,0|4,0:0|0:0,0:0:0:0:
428,48,41320,5,4,0:0:0:0:
476,112,41671,2,0,P|500:180|476:252,1,150,8|8,0:0|0:0,0:0:0:0:
380,184,42724,2,0,P|356:252|380:324,2,150,8|8|8,0:0|0:0|0:0,0:0:0:0:
328,124,44127,5,4,0:0:0:0:
276,184,44478,2,0,P|208:208|136:184,1,150,8|8,0:0|0:0,0:0:0:0:
204,88,45531,2,0,P|136:64|64:88,2,150,8|8|8,0:0|0:0|0:0,0:0:0:0:
204,168,46934,6,0,L|204:276,1,100,4|8,0:0|0:0,0:0:0:0:
204,348,47636,2,0,B|256:348|280:292|280:292|304:348|356:348,2,200,8|8|8,0:0|0:0|0:0,0:0:0:0:
136,308,49390,1,8,0:0:0:0:
72,260,49741,6,0,P|48:192|72:120,1,150,4|4,0:0|0:0,0:0:0:0:
264,60,51145,2,0,L|414:60,2,150,4|8|8,0:0|0:0|0:0,0:0:0:0:
184,60,52548,5,0,0:0:0:0:
184,140,52899,2,0,L|184:240,2,100,8|0|8,0:0|0:0|0:0,0:0:0:0:
252,100,53952,2,0,B|356:100|356:184|356:268|472:268,1,300,0|8,0:0|0:0,0:0:0:0:
472,348,55355,5,4,0:0:0:0:
392,348,55706,1,8,0:0:0:0:
312,348,56057,2,0,P|264:364|216:348,1,100,0|8,0:0|0:0,0:0:0:0:
264,280,56759,2,0,L|264:180,1,100,0|8,0:0|0:0,0:0:0:0:
184,196,57461,2,0,L|184:96,1,100,0|8,0:0|0:0,0:0:0:0:
144,28,58162,5,4,0:0:0:0:
64,28,58513,1,8,0:0:0:0:
104,96,58864,2,0,L|104:204,1,100,0|8,0:0|0:0,0:0:0:0:
104,276,59566,2,0,B|120:392|296:392|316:276,1,300,0|8,0:0|0:0,0:0:0:0:
316,196,60969,6,0,L|416:196,1,100,4|8,0:0|0:0,0:0:0:0:
484,240,61671,2,0,P|500:192|484:148,1,100,0|8,0:0|0:0,0:0:0:0:
416,100,62373,2,0,B|309:100|309:100|262:129|220:104,1,200,0|4,0:0|0:0,0:0:0:0:
260,32,63426,1,4,0:0:0:0:
180,32,63776,5,0,0:0:0:0:
100,32,64127,1,8,0:0:0:0:
140,104,64478,2,0,L|140:304,1,200,0|4,0:0|0:0,0:0:0:0:
388,104,66583,6,0,L|238:104,2,150,0|4|8,0:0|0:0|0:0,0:0:0:0:
468,104,67987,1,0,0:0:0:0:
428,172,68338,2,0,P|444:220|428:268,1,100,8|0,0:0|0:0,0:0:0:0:
364,220,69040,1,8,0:0:0:0:
356,300,69390,6,0,P|308:316|260:300,1,100,4|8,0:0|0:0,0:0:0:0:
188,268,70092,2,0,P|172:220|188:172,1,100,0|8,0:0|0:0,0:0:0:0:
124,124,70794,2,0,B|84:176|84:260|120:312,1,200,4|0,0:0|0:0,0:0:0:0:
200,312,71847,1,8,0:0:0:0:
280,312,72197,6,0,L|432:312,1,150,4|0,0:0|0:0,0:0:0:0:
496,360,73075,2,0,P|512:312|496:264,1,100,0|4,0:0|0:0,0:0:0:0:
496,64,74303,1,0,0:0:0:0:
496,144,74654,1,8,0:0:0:0:
428,104,75004,6,0,L|328:104,1,100,4|8,0:0|0:0,0:0:0:0:
248,104,75706,1,0,0:0:0:0:
288,172,76057,2,0,P|304:220|288:264,1,100,12|0,0:0|0:0,0:0:0:0:
220,308,76759,2,0,P|204:260|220:216,2,100,8|0|8,0:0|0:0|0:0,0:0:0:0:
288,264,77811,6,0,L|88:264,2,200,4|0|0,0:0|0:0|0:0,0:0:0:0:
368,264,79566,1,8,0:0:0:0:
328,196,79917,2,0,P|312:148|332:96,1,100,0|8,0:0|0:0,0:0:0:0:
396,148,80618,6,0,L|448:148,1,50,2|4,0:0|0:0,0:0:0:0:
504,44,81320,1,4,0:0:0:0:
384,44,81847,2,0,L|234:44,2,150,4|4|4,0:0|0:0|0:0,0:0:0:0:
312,140,83426,2,0,L|162:140,2,150,4|4|4,0:0|0:0|0:0,0:0:0:0:
256,192,84829,12,2,87197,0:0:0:0:
