osu file format v14

[General]
AudioFilename: Aya Suzuki - Koi No Uta FULL [Tamako Market Love Story Ending].mp3
AudioLeadIn: 0
PreviewTime: 83485
Countdown: 0
SampleSet: None
StackLeniency: 0.7
Mode: 3
LetterboxInBreaks: 0
SpecialStyle: 0
WidescreenStoryboard: 1

[Editor]
DistanceSpacing: 1.5
BeatDivisor: 4
GridSize: 8
TimelineZoom: 1.818801

[Metadata]
Title:Koi no Uta
TitleUnicode:うたの恋
Artist:Suzaki Aya
ArtistUnicode:須崎彩
Creator:resuner
Version:Tamako x Mochizou
Source:たまこラブストーリー
Tags:
BeatmapID:802308
BeatmapSetID:365538

[Difficulty]
HPDrainRate:7
CircleSize:7
OverallDifficulty:8
ApproachRate:5
SliderMultiplier:1.4
SliderTickRate:1

[Events]
//Background and Video events
0,0,"yande.re 286744 sample disc_cover kitashirakawa_tamako tagme tamako_market.jpg",0,0
//Break Periods
//Storyboard Layer 0 (Background)
//Storyboard Layer 1 (Fail)
//Storyboard Layer 2 (Pass)
//Storyboard Layer 3 (Foreground)
//Storyboard Sound Samples

[TimingPoints]
628,357.142857142857,4,2,0,30,1,0
628,-142.857142857143,4,2,0,30,0,0
9199,-111.111111111111,4,2,0,30,0,0
9299,-111.111111111111,4,2,0,30,0,0
9556,-100,4,2,0,30,0,0
9913,-90.909090909091,4,2,0,30,0,0
10013,-90.909090909091,4,2,0,30,0,0
10270,-83.3333333333333,4,2,0,30,0,0
10627,-76.9230769230769,4,2,0,30,0,0
11342,-71.4285714285715,4,2,0,30,0,0
11699,-71.4285714285714,4,2,0,30,0,0
12056,-100,4,2,0,30,0,0
34913,-76.9230769230769,4,2,0,30,0,0
35270,-76.9230769230769,4,2,0,30,0,0
35627,-100,4,2,0,30,0,0
35985,-76.9230769230769,4,2,0,30,0,0
36342,-76.9230769230769,4,2,0,30,0,0
36699,-76.9230769230769,4,2,0,30,0,0
37056,-76.9230769230769,4,2,0,30,0,0
37413,-76.9230769230769,4,2,0,30,0,0
37770,-100,4,2,0,30,0,0
83485,-100,4,2,0,30,0,1
117413,-100,4,2,0,30,0,0
117770,-166.666666666667,4,2,0,30,0,0
122770,-83.3333333333333,4,2,0,30,0,0
122870,-76.9230769230769,4,2,0,30,0,0
123127,-83.3333333333333,4,2,0,30,0,0
123485,-100,4,2,0,30,0,0
163485,-181.818181818181,4,2,0,30,0,0
165985,-399.999999999997,4,2,0,30,0,0
168127,-100,4,2,0,30,0,0
192413,-76.9230769230769,4,2,0,30,0,0
192770,-76.9230769230769,4,2,0,30,0,0
193127,-100,4,2,0,30,0,0
193485,-76.9230769230769,4,2,0,30,0,0
193842,-76.9230769230769,4,2,0,30,0,0
194199,-76.9230769230769,4,2,0,30,0,0
194556,-76.9230769230769,4,2,0,30,0,0
194913,-100,4,2,0,30,0,0

[HitObjects]
36,192,628,5,0,0:0:0:0:
475,192,628,128,0,2056:0:0:0:0:
109,192,657,1,0,0:0:0:0:
182,192,687,1,0,0:0:0:0:
182,192,985,1,0,0:0:0:0:
109,192,985,1,0,0:0:0:0:
402,192,1163,1,0,0:0:0:0:
329,192,1163,1,0,0:0:0:0:
109,192,1520,1,0,0:0:0:0:
182,192,1520,1,0,0:0:0:0:
402,192,1699,1,0,0:0:0:0:
329,192,1699,1,0,0:0:0:0:
109,192,1877,1,0,0:0:0:0:
182,192,1877,1,0,0:0:0:0:
36,192,2056,128,0,3485:0:0:0:0:
402,192,2056,1,0,0:0:0:0:
329,192,2086,1,0,0:0:0:0:
256,192,2116,1,0,0:0:0:0:
182,192,2413,1,0,0:0:0:0:
109,192,2413,1,0,0:0:0:0:
402,192,2592,1,0,0:0:0:0:
475,192,2592,1,0,0:0:0:0:
475,192,2949,1,0,0:0:0:0:
402,192,2949,1,0,0:0:0:0:
109,192,3127,1,0,0:0:0:0:
182,192,3127,1,0,0:0:0:0:
475,192,3306,1,0,0:0:0:0:
402,192,3306,1,0,0:0:0:0:
182,192,3485,128,0,4913:0:0:0:0:
256,192,3485,1,0,0:0:0:0:
329,192,3514,1,0,0:0:0:0:
402,192,3544,1,0,0:0:0:0:
36,192,3842,1,0,0:0:0:0:
109,192,3842,1,0,0:0:0:0:
256,192,4020,1,0,0:0:0:0:
329,192,4020,1,0,0:0:0:0:
475,192,4377,1,0,0:0:0:0:
402,192,4377,1,0,0:0:0:0:
329,192,4556,1,0,0:0:0:0:
256,192,4556,1,0,0:0:0:0:
36,192,4735,1,0,0:0:0:0:
109,192,4735,1,0,0:0:0:0:
329,192,4913,128,0,6342:0:0:0:0:
256,192,4913,1,0,0:0:0:0:
402,192,4943,1,0,0:0:0:0:
475,192,4973,1,0,0:0:0:0:
109,192,5270,1,0,0:0:0:0:
36,192,5270,1,0,0:0:0:0:
402,192,5449,1,0,0:0:0:0:
475,192,5449,1,0,0:0:0:0:
402,192,5806,1,0,0:0:0:0:
475,192,5806,1,0,0:0:0:0:
109,192,5985,1,0,0:0:0:0:
36,192,5985,1,0,0:0:0:0:
402,192,6163,1,0,0:0:0:0:
475,192,6163,1,0,0:0:0:0:
182,192,6342,128,0,7770:0:0:0:0:
256,192,6342,1,0,0:0:0:0:
109,192,6372,1,0,0:0:0:0:
36,192,6401,1,0,0:0:0:0:
329,192,6699,1,0,0:0:0:0:
402,192,6699,1,0,0:0:0:0:
109,192,6877,1,0,0:0:0:0:
36,192,6877,1,0,0:0:0:0:
36,192,7235,1,0,0:0:0:0:
109,192,7235,1,0,0:0:0:0:
402,192,7413,1,0,0:0:0:0:
475,192,7413,1,0,0:0:0:0:
109,192,7592,1,0,0:0:0:0:
36,192,7592,1,0,0:0:0:0:
402,192,7770,128,0,9199:0:0:0:0:
475,192,7770,1,0,0:0:0:0:
329,192,7800,1,0,0:0:0:0:
256,192,7830,1,0,0:0:0:0:
256,192,8127,1,0,0:0:0:0:
329,192,8127,1,0,0:0:0:0:
182,192,8306,1,0,0:0:0:0:
109,192,8306,1,0,0:0:0:0:
329,192,8663,1,0,0:0:0:0:
256,192,8663,1,0,0:0:0:0:
36,192,8842,1,0,0:0:0:0:
109,192,8842,1,0,0:0:0:0:
329,192,9020,1,0,0:0:0:0:
256,192,9020,1,0,0:0:0:0:
109,192,9199,1,0,0:0:0:0:
402,192,9288,1,0,0:0:0:0:
109,192,9377,1,0,0:0:0:0:
402,192,9467,1,0,0:0:0:0:
109,192,9556,1,0,0:0:0:0:
402,192,9645,1,0,0:0:0:0:
109,192,9735,1,0,0:0:0:0:
402,192,9824,1,0,0:0:0:0:
36,192,9913,1,0,0:0:0:0:
475,192,10002,1,0,0:0:0:0:
329,192,10002,1,0,0:0:0:0:
36,192,10092,1,0,0:0:0:0:
475,192,10181,1,0,0:0:0:0:
329,192,10181,1,0,0:0:0:0:
36,192,10270,1,0,0:0:0:0:
475,192,10360,1,0,0:0:0:0:
329,192,10360,1,0,0:0:0:0:
36,192,10449,1,0,0:0:0:0:
475,192,10538,1,0,0:0:0:0:
329,192,10538,1,0,0:0:0:0:
109,192,10627,1,0,0:0:0:0:
256,192,10717,1,0,0:0:0:0:
402,192,10717,1,0,0:0:0:0:
109,192,10806,1,0,0:0:0:0:
256,192,10895,1,0,0:0:0:0:
402,192,10895,1,0,0:0:0:0:
109,192,10985,1,0,0:0:0:0:
256,192,11074,1,0,0:0:0:0:
402,192,11074,1,0,0:0:0:0:
109,192,11163,1,0,0:0:0:0:
256,192,11252,1,0,0:0:0:0:
402,192,11252,1,0,0:0:0:0:
329,192,11342,1,0,0:0:0:0:
475,192,11342,1,0,0:0:0:0:
182,192,11342,1,0,0:0:0:0:
36,192,11342,1,0,0:0:0:0:
475,192,11520,1,0,0:0:0:0:
329,192,11520,1,0,0:0:0:0:
36,192,11520,1,0,0:0:0:0:
182,192,11520,1,0,0:0:0:0:
475,192,12056,128,0,12235:0:0:0:0:
329,192,12056,1,0,0:0:0:0:
109,192,12056,1,0,0:0:0:0:
402,192,12235,128,0,12413:0:0:0:0:
182,192,12235,1,0,0:0:0:0:
329,192,12413,128,0,12592:0:0:0:0:
475,192,12413,1,0,0:0:0:0:
36,192,12413,1,0,0:0:0:0:
109,192,12413,1,0,0:0:0:0:
256,192,12592,128,0,12770:0:0:0:0:
36,192,12592,1,0,0:0:0:0:
329,192,12770,128,0,12949:0:0:0:0:
109,192,12770,1,0,0:0:0:0:
182,192,12770,1,0,0:0:0:0:
402,192,12949,128,0,13306:0:0:0:0:
256,192,12949,1,0,0:0:0:0:
36,192,13127,1,0,0:0:0:0:
109,192,13127,1,0,0:0:0:0:
329,192,13127,1,0,0:0:0:0:
475,192,13306,128,0,13663:0:0:0:0:
182,192,13306,1,0,0:0:0:0:
329,192,13485,1,0,0:0:0:0:
256,192,13485,1,0,0:0:0:0:
402,192,13663,128,0,13842:0:0:0:0:
182,192,13663,1,0,0:0:0:0:
329,192,13842,128,0,13931:0:0:0:0:
36,192,13842,1,0,0:0:0:0:
475,192,13842,1,0,0:0:0:0:
109,192,13842,1,0,0:0:0:0:
329,192,14020,128,0,14110:0:0:0:0:
256,192,14020,1,0,0:0:0:0:
182,192,14199,128,0,14288:0:0:0:0:
109,192,14199,1,0,0:0:0:0:
402,192,14199,1,0,0:0:0:0:
182,192,14377,128,0,14467:0:0:0:0:
329,192,14377,1,0,0:0:0:0:
256,192,14556,128,0,14913:0:0:0:0:
109,192,14556,1,0,0:0:0:0:
36,192,14556,1,0,0:0:0:0:
475,192,14556,1,0,0:0:0:0:
329,192,14913,128,0,15092:0:0:0:0:
402,192,14913,1,0,0:0:0:0:
36,192,14913,1,0,0:0:0:0:
182,192,15092,128,0,15270:0:0:0:0:
109,192,15092,1,0,0:0:0:0:
36,192,15270,128,0,15449:0:0:0:0:
475,192,15270,1,0,0:0:0:0:
402,192,15270,1,0,0:0:0:0:
256,192,15270,1,0,0:0:0:0:
109,192,15449,128,0,15627:0:0:0:0:
182,192,15449,1,0,0:0:0:0:
329,192,15627,128,0,15806:0:0:0:0:
36,192,15627,1,0,0:0:0:0:
256,192,15627,1,0,0:0:0:0:
402,192,15806,128,0,16163:0:0:0:0:
182,192,15806,1,0,0:0:0:0:
329,192,15985,1,0,0:0:0:0:
256,192,15985,1,0,0:0:0:0:
109,192,15985,1,0,0:0:0:0:
475,192,16163,128,0,16520:0:0:0:0:
36,192,16163,1,0,0:0:0:0:
329,192,16342,1,0,0:0:0:0:
182,192,16342,1,0,0:0:0:0:
402,192,16520,128,0,16699:0:0:0:0:
109,192,16520,1,0,0:0:0:0:
329,192,16699,128,0,16788:0:0:0:0:
256,192,16699,1,0,0:0:0:0:
182,192,16699,1,0,0:0:0:0:
36,192,16699,1,0,0:0:0:0:
329,192,16877,128,0,16967:0:0:0:0:
402,192,16877,1,0,0:0:0:0:
182,192,17056,128,0,17145:0:0:0:0:
475,192,17056,1,0,0:0:0:0:
109,192,17056,1,0,0:0:0:0:
182,192,17235,128,0,17324:0:0:0:0:
402,192,17235,1,0,0:0:0:0:
36,192,17413,128,0,17770:0:0:0:0:
329,192,17413,1,0,0:0:0:0:
256,192,17413,1,0,0:0:0:0:
109,192,17413,1,0,0:0:0:0:
475,192,17770,128,0,17949:0:0:0:0:
329,192,17770,1,0,0:0:0:0:
182,192,17770,1,0,0:0:0:0:
402,192,17949,128,0,18127:0:0:0:0:
36,192,17949,1,0,0:0:0:0:
329,192,18127,128,0,18306:0:0:0:0:
475,192,18127,1,0,0:0:0:0:
182,192,18127,1,0,0:0:0:0:
109,192,18127,1,0,0:0:0:0:
256,192,18306,128,0,18485:0:0:0:0:
36,192,18306,1,0,0:0:0:0:
329,192,18485,128,0,18663:0:0:0:0:
475,192,18485,1,0,0:0:0:0:
182,192,18485,1,0,0:0:0:0:
402,192,18663,128,0,19020:0:0:0:0:
109,192,18663,1,0,0:0:0:0:
182,192,18842,1,0,0:0:0:0:
36,192,18842,1,0,0:0:0:0:
329,192,18842,1,0,0:0:0:0:
475,192,19020,128,0,19377:0:0:0:0:
256,192,19020,1,0,0:0:0:0:
329,192,19199,1,0,0:0:0:0:
109,192,19199,1,0,0:0:0:0:
402,192,19377,128,0,19556:0:0:0:0:
182,192,19377,1,0,0:0:0:0:
475,192,19556,1,0,0:0:0:0:
256,192,19556,1,0,0:0:0:0:
36,192,19556,1,0,0:0:0:0:
329,192,19556,128,0,19645:0:0:0:0:
329,192,19735,128,0,19824:0:0:0:0:
109,192,19735,1,0,0:0:0:0:
182,192,19913,128,0,20002:0:0:0:0:
256,192,19913,1,0,0:0:0:0:
402,192,19913,1,0,0:0:0:0:
182,192,20092,128,0,20181:0:0:0:0:
329,192,20092,1,0,0:0:0:0:
402,192,20270,1,0,0:0:0:0:
36,192,20270,128,0,20627:0:0:0:0:
475,192,20270,1,0,0:0:0:0:
109,192,20270,1,0,0:0:0:0:
256,192,20449,1,0,0:0:0:0:
109,192,20627,128,0,20717:0:0:0:0:
329,192,20627,1,0,0:0:0:0:
475,192,20627,1,0,0:0:0:0:
182,192,20806,128,0,20895:0:0:0:0:
402,192,20806,1,0,0:0:0:0:
182,192,20985,128,0,21074:0:0:0:0:
329,192,20985,1,0,0:0:0:0:
475,192,20985,1,0,0:0:0:0:
36,192,20985,1,0,0:0:0:0:
182,192,21163,128,0,21252:0:0:0:0:
402,192,21163,1,0,0:0:0:0:
36,192,21342,128,0,21431:0:0:0:0:
109,192,21342,1,0,0:0:0:0:
329,192,21342,1,0,0:0:0:0:
256,192,21520,128,0,21610:0:0:0:0:
182,192,21520,1,0,0:0:0:0:
256,192,21699,128,0,21788:0:0:0:0:
329,192,21699,1,0,0:0:0:0:
109,192,21699,1,0,0:0:0:0:
475,192,21699,1,0,0:0:0:0:
256,192,21877,128,0,21967:0:0:0:0:
402,192,21877,1,0,0:0:0:0:
36,192,22056,128,0,22235:0:0:0:0:
329,192,22056,1,0,0:0:0:0:
109,192,22056,1,0,0:0:0:0:
475,192,22235,128,0,22413:0:0:0:0:
182,192,22235,1,0,0:0:0:0:
329,192,22413,128,0,22592:0:0:0:0:
109,192,22413,1,0,0:0:0:0:
36,192,22413,1,0,0:0:0:0:
402,192,22413,1,0,0:0:0:0:
475,192,22592,128,0,23127:0:0:0:0:
182,192,22592,1,0,0:0:0:0:
256,192,22681,1,0,0:0:0:0:
109,192,22770,1,0,0:0:0:0:
402,192,22770,1,0,0:0:0:0:
182,192,22860,1,0,0:0:0:0:
329,192,22949,1,0,0:0:0:0:
402,192,23038,1,0,0:0:0:0:
329,192,23127,1,0,0:0:0:0:
182,192,23127,1,0,0:0:0:0:
36,192,23127,1,0,0:0:0:0:
329,192,23306,1,0,0:0:0:0:
402,192,23306,1,0,0:0:0:0:
109,192,23306,1,0,0:0:0:0:
182,192,23306,1,0,0:0:0:0:
109,192,23395,1,0,0:0:0:0:
182,192,23395,1,0,0:0:0:0:
329,192,23395,1,0,0:0:0:0:
402,192,23395,1,0,0:0:0:0:
475,192,23485,128,0,23663:0:0:0:0:
256,192,23485,1,0,0:0:0:0:
36,192,23485,1,0,0:0:0:0:
402,192,23663,128,0,23842:0:0:0:0:
182,192,23663,1,0,0:0:0:0:
329,192,23842,128,0,24020:0:0:0:0:
475,192,23842,1,0,0:0:0:0:
36,192,23842,1,0,0:0:0:0:
109,192,23842,1,0,0:0:0:0:
256,192,24020,128,0,24199:0:0:0:0:
182,192,24020,1,0,0:0:0:0:
329,192,24199,128,0,24377:0:0:0:0:
109,192,24199,1,0,0:0:0:0:
475,192,24199,1,0,0:0:0:0:
402,192,24377,128,0,24735:0:0:0:0:
36,192,24377,1,0,0:0:0:0:
182,192,24556,1,0,0:0:0:0:
109,192,24556,1,0,0:0:0:0:
329,192,24556,1,0,0:0:0:0:
475,192,24735,128,0,25092:0:0:0:0:
256,192,24735,1,0,0:0:0:0:
36,192,24913,1,0,0:0:0:0:
329,192,24913,1,0,0:0:0:0:
402,192,25092,128,0,25270:0:0:0:0:
182,192,25092,1,0,0:0:0:0:
329,192,25270,128,0,25360:0:0:0:0:
256,192,25270,1,0,0:0:0:0:
109,192,25270,1,0,0:0:0:0:
36,192,25270,1,0,0:0:0:0:
329,192,25449,128,0,25538:0:0:0:0:
402,192,25449,1,0,0:0:0:0:
182,192,25538,128,0,25627:0:0:0:0:
256,192,25627,1,0,0:0:0:0:
36,192,25627,1,0,0:0:0:0:
182,192,25717,128,0,25806:0:0:0:0:
329,192,25806,1,0,0:0:0:0:
256,192,25985,128,0,26342:0:0:0:0:
109,192,25985,1,0,0:0:0:0:
36,192,25985,1,0,0:0:0:0:
402,192,25985,1,0,0:0:0:0:
182,192,26163,1,0,0:0:0:0:
329,192,26342,128,0,26520:0:0:0:0:
475,192,26342,1,0,0:0:0:0:
109,192,26342,1,0,0:0:0:0:
36,192,26520,128,0,26699:0:0:0:0:
182,192,26520,1,0,0:0:0:0:
109,192,26699,128,0,26877:0:0:0:0:
256,192,26699,1,0,0:0:0:0:
402,192,26699,1,0,0:0:0:0:
475,192,26699,1,0,0:0:0:0:
182,192,26877,128,0,27056:0:0:0:0:
36,192,26877,1,0,0:0:0:0:
329,192,27056,128,0,27235:0:0:0:0:
256,192,27056,1,0,0:0:0:0:
475,192,27056,1,0,0:0:0:0:
402,192,27235,128,0,27592:0:0:0:0:
109,192,27235,1,0,0:0:0:0:
182,192,27413,1,0,0:0:0:0:
36,192,27413,1,0,0:0:0:0:
329,192,27413,1,0,0:0:0:0:
475,192,27592,128,0,27949:0:0:0:0:
256,192,27592,1,0,0:0:0:0:
182,192,27770,1,0,0:0:0:0:
329,192,27770,1,0,0:0:0:0:
402,192,27949,128,0,28127:0:0:0:0:
109,192,27949,1,0,0:0:0:0:
329,192,28127,128,0,28217:0:0:0:0:
182,192,28127,1,0,0:0:0:0:
475,192,28127,1,0,0:0:0:0:
36,192,28127,1,0,0:0:0:0:
329,192,28306,128,0,28395:0:0:0:0:
256,192,28306,1,0,0:0:0:0:
182,192,28485,128,0,28574:0:0:0:0:
109,192,28485,1,0,0:0:0:0:
402,192,28485,1,0,0:0:0:0:
182,192,28663,128,0,28752:0:0:0:0:
329,192,28663,1,0,0:0:0:0:
402,192,28842,128,0,29199:0:0:0:0:
109,192,28842,1,0,0:0:0:0:
36,192,28842,1,0,0:0:0:0:
475,192,28842,1,0,0:0:0:0:
256,192,29020,1,0,0:0:0:0:
36,192,29199,128,0,29377:0:0:0:0:
182,192,29199,1,0,0:0:0:0:
329,192,29199,1,0,0:0:0:0:
109,192,29377,128,0,29556:0:0:0:0:
475,192,29377,1,0,0:0:0:0:
182,192,29556,128,0,29735:0:0:0:0:
402,192,29556,1,0,0:0:0:0:
256,192,29556,1,0,0:0:0:0:
36,192,29556,1,0,0:0:0:0:
329,192,29735,128,0,29913:0:0:0:0:
475,192,29735,1,0,0:0:0:0:
402,192,29913,128,0,30092:0:0:0:0:
109,192,29913,1,0,0:0:0:0:
36,192,29913,1,0,0:0:0:0:
475,192,30092,128,0,30449:0:0:0:0:
182,192,30092,1,0,0:0:0:0:
329,192,30270,1,0,0:0:0:0:
109,192,30270,1,0,0:0:0:0:
36,192,30270,1,0,0:0:0:0:
402,192,30449,128,0,30806:0:0:0:0:
256,192,30449,1,0,0:0:0:0:
475,192,30627,1,0,0:0:0:0:
109,192,30627,1,0,0:0:0:0:
329,192,30806,128,0,30985:0:0:0:0:
256,192,30806,1,0,0:0:0:0:
182,192,30985,128,0,31074:0:0:0:0:
109,192,30985,1,0,0:0:0:0:
402,192,30985,1,0,0:0:0:0:
475,192,30985,1,0,0:0:0:0:
182,192,31163,128,0,31252:0:0:0:0:
256,192,31163,1,0,0:0:0:0:
36,192,31342,128,0,31431:0:0:0:0:
329,192,31342,1,0,0:0:0:0:
402,192,31342,1,0,0:0:0:0:
36,192,31520,128,0,31610:0:0:0:0:
256,192,31520,1,0,0:0:0:0:
109,192,31699,128,0,32056:0:0:0:0:
329,192,31699,1,0,0:0:0:0:
475,192,31699,1,0,0:0:0:0:
182,192,31699,1,0,0:0:0:0:
402,192,31877,1,0,0:0:0:0:
475,192,32056,128,0,32145:0:0:0:0:
329,192,32056,1,0,0:0:0:0:
36,192,32056,1,0,0:0:0:0:
402,192,32235,128,0,32324:0:0:0:0:
182,192,32235,1,0,0:0:0:0:
402,192,32413,128,0,32502:0:0:0:0:
109,192,32413,1,0,0:0:0:0:
36,192,32413,1,0,0:0:0:0:
256,192,32413,1,0,0:0:0:0:
402,192,32592,128,0,32681:0:0:0:0:
182,192,32592,1,0,0:0:0:0:
329,192,32770,128,0,32860:0:0:0:0:
256,192,32770,1,0,0:0:0:0:
109,192,32770,1,0,0:0:0:0:
182,192,32949,128,0,33038:0:0:0:0:
402,192,32949,1,0,0:0:0:0:
182,192,33127,128,0,33217:0:0:0:0:
109,192,33127,1,0,0:0:0:0:
475,192,33127,1,0,0:0:0:0:
182,192,33306,128,0,33395:0:0:0:0:
329,192,33306,1,0,0:0:0:0:
256,192,33485,128,0,33574:0:0:0:0:
402,192,33485,1,0,0:0:0:0:
36,192,33485,1,0,0:0:0:0:
475,192,33485,1,0,0:0:0:0:
109,192,33663,128,0,33752:0:0:0:0:
329,192,33663,1,0,0:0:0:0:
109,192,33842,128,0,33931:0:0:0:0:
182,192,33842,1,0,0:0:0:0:
402,192,33842,1,0,0:0:0:0:
109,192,34020,128,0,34110:0:0:0:0:
256,192,34020,1,0,0:0:0:0:
36,192,34199,128,0,34288:0:0:0:0:
402,192,34199,1,0,0:0:0:0:
475,192,34199,1,0,0:0:0:0:
182,192,34199,1,0,0:0:0:0:
109,192,34288,1,0,0:0:0:0:
329,192,34377,128,0,34467:0:0:0:0:
182,192,34377,1,0,0:0:0:0:
256,192,34467,1,0,0:0:0:0:
329,192,34556,128,0,34645:0:0:0:0:
182,192,34556,1,0,0:0:0:0:
109,192,34645,1,0,0:0:0:0:
329,192,34735,128,0,34824:0:0:0:0:
36,192,34735,1,0,0:0:0:0:
109,192,34824,1,0,0:0:0:0:
36,192,34913,128,0,35270:0:0:0:0:
475,192,34913,128,0,35270:0:0:0:0:
256,192,34913,128,0,35270:0:0:0:0:
329,192,35092,1,0,0:0:0:0:
402,192,35092,1,0,0:0:0:0:
182,192,35181,1,0,0:0:0:0:
109,192,35181,1,0,0:0:0:0:
329,192,35270,1,0,0:0:0:0:
402,192,35270,1,0,0:0:0:0:
36,192,35449,128,0,35806:0:0:0:0:
256,192,35449,128,0,35806:0:0:0:0:
475,192,35449,128,0,35806:0:0:0:0:
329,192,35627,1,0,0:0:0:0:
402,192,35627,1,0,0:0:0:0:
109,192,35717,1,0,0:0:0:0:
182,192,35717,1,0,0:0:0:0:
402,192,35806,1,0,0:0:0:0:
329,192,35806,1,0,0:0:0:0:
36,192,35985,1,0,0:0:0:0:
109,192,35985,1,0,0:0:0:0:
256,192,35985,1,0,0:0:0:0:
475,192,35985,1,0,0:0:0:0:
402,192,35985,1,0,0:0:0:0:
475,192,36163,1,0,0:0:0:0:
402,192,36163,1,0,0:0:0:0:
256,192,36163,1,0,0:0:0:0:
109,192,36163,1,0,0:0:0:0:
36,192,36163,1,0,0:0:0:0:
475,192,36342,128,0,36699:0:0:0:0:
256,192,36342,128,0,36699:0:0:0:0:
36,192,36342,128,0,36699:0:0:0:0:
329,192,36520,1,0,0:0:0:0:
402,192,36520,1,0,0:0:0:0:
109,192,36610,1,0,0:0:0:0:
182,192,36610,1,0,0:0:0:0:
402,192,36699,1,0,0:0:0:0:
329,192,36699,1,0,0:0:0:0:
36,192,36877,128,0,37235:0:0:0:0:
256,192,36877,128,0,37235:0:0:0:0:
475,192,36877,128,0,37235:0:0:0:0:
402,192,37056,1,0,0:0:0:0:
329,192,37056,1,0,0:0:0:0:
182,192,37145,1,0,0:0:0:0:
109,192,37145,1,0,0:0:0:0:
329,192,37235,1,0,0:0:0:0:
402,192,37235,1,0,0:0:0:0:
109,192,37413,1,0,0:0:0:0:
256,192,37413,1,0,0:0:0:0:
475,192,37413,1,0,0:0:0:0:
36,192,37413,1,0,0:0:0:0:
402,192,37413,1,0,0:0:0:0:
256,192,37592,1,0,0:0:0:0:
36,192,37592,1,0,0:0:0:0:
475,192,37592,1,0,0:0:0:0:
109,192,37592,1,0,0:0:0:0:
402,192,37592,1,0,0:0:0:0:
182,192,37770,1,0,0:0:0:0:
329,192,37949,1,0,0:0:0:0:
475,192,37949,1,0,0:0:0:0:
402,192,38127,1,0,0:0:0:0:
256,192,38127,1,0,0:0:0:0:
109,192,38127,1,0,0:0:0:0:
36,192,38127,1,0,0:0:0:0:
182,192,38306,1,0,0:0:0:0:
329,192,38485,1,0,0:0:0:0:
475,192,38485,1,0,0:0:0:0:
182,192,38663,1,0,0:0:0:0:
36,192,38663,1,0,0:0:0:0:
256,192,38842,1,0,0:0:0:0:
402,192,38842,1,0,0:0:0:0:
475,192,38842,1,0,0:0:0:0:
109,192,38842,1,0,0:0:0:0:
329,192,39020,1,0,0:0:0:0:
182,192,39199,1,0,0:0:0:0:
36,192,39199,1,0,0:0:0:0:
329,192,39377,1,0,0:0:0:0:
475,192,39377,1,0,0:0:0:0:
402,192,39556,1,0,0:0:0:0:
256,192,39556,1,0,0:0:0:0:
182,192,39556,1,0,0:0:0:0:
36,192,39556,1,0,0:0:0:0:
329,192,39735,1,0,0:0:0:0:
182,192,39913,1,0,0:0:0:0:
36,192,39913,1,0,0:0:0:0:
329,192,40092,1,0,0:0:0:0:
475,192,40092,1,0,0:0:0:0:
402,192,40270,1,0,0:0:0:0:
256,192,40270,1,0,0:0:0:0:
36,192,40270,1,0,0:0:0:0:
182,192,40270,1,0,0:0:0:0:
109,192,40449,1,0,0:0:0:0:
329,192,40627,1,0,0:0:0:0:
475,192,40627,1,0,0:0:0:0:
182,192,40806,1,0,0:0:0:0:
36,192,40806,1,0,0:0:0:0:
256,192,40985,1,0,0:0:0:0:
402,192,40985,1,0,0:0:0:0:
475,192,40985,1,0,0:0:0:0:
109,192,40985,1,0,0:0:0:0:
329,192,41163,1,0,0:0:0:0:
182,192,41342,1,0,0:0:0:0:
36,192,41342,1,0,0:0:0:0:
329,192,41520,1,0,0:0:0:0:
475,192,41520,1,0,0:0:0:0:
402,192,41699,1,0,0:0:0:0:
182,192,41699,1,0,0:0:0:0:
36,192,41699,1,0,0:0:0:0:
329,192,41699,1,0,0:0:0:0:
256,192,41877,1,0,0:0:0:0:
475,192,41877,1,0,0:0:0:0:
109,192,42056,1,0,0:0:0:0:
256,192,42235,1,0,0:0:0:0:
475,192,42235,1,0,0:0:0:0:
329,192,42413,1,0,0:0:0:0:
402,192,42413,1,0,0:0:0:0:
182,192,42413,1,0,0:0:0:0:
36,192,42413,1,0,0:0:0:0:
256,192,42592,1,0,0:0:0:0:
109,192,42592,1,0,0:0:0:0:
475,192,42770,1,0,0:0:0:0:
256,192,42949,1,0,0:0:0:0:
109,192,42949,1,0,0:0:0:0:
182,192,43127,1,0,0:0:0:0:
329,192,43127,1,0,0:0:0:0:
402,192,43127,1,0,0:0:0:0:
36,192,43127,1,0,0:0:0:0:
256,192,43306,1,0,0:0:0:0:
402,192,43485,1,0,0:0:0:0:
475,192,43485,1,0,0:0:0:0:
36,192,43663,1,0,0:0:0:0:
182,192,43663,1,0,0:0:0:0:
402,192,43663,1,0,0:0:0:0:
256,192,43842,1,0,0:0:0:0:
475,192,43842,1,0,0:0:0:0:
109,192,43842,1,0,0:0:0:0:
402,192,43842,1,0,0:0:0:0:
402,192,44020,1,0,0:0:0:0:
182,192,44020,1,0,0:0:0:0:
402,192,44199,1,0,0:0:0:0:
329,192,44199,1,0,0:0:0:0:
402,192,44377,1,0,0:0:0:0:
36,192,44377,1,0,0:0:0:0:
402,192,44556,1,0,0:0:0:0:
475,192,44556,1,0,0:0:0:0:
182,192,44556,1,0,0:0:0:0:
109,192,44556,1,0,0:0:0:0:
402,192,44735,1,0,0:0:0:0:
256,192,44735,1,0,0:0:0:0:
402,192,44913,1,0,0:0:0:0:
109,192,44913,1,0,0:0:0:0:
109,192,45092,1,0,0:0:0:0:
329,192,45092,1,0,0:0:0:0:
109,192,45270,1,0,0:0:0:0:
182,192,45270,1,0,0:0:0:0:
402,192,45270,1,0,0:0:0:0:
475,192,45270,1,0,0:0:0:0:
109,192,45449,1,0,0:0:0:0:
256,192,45449,1,0,0:0:0:0:
109,192,45627,1,0,0:0:0:0:
329,192,45627,1,0,0:0:0:0:
109,192,45806,1,0,0:0:0:0:
402,192,45806,1,0,0:0:0:0:
109,192,45985,1,0,0:0:0:0:
329,192,45985,1,0,0:0:0:0:
36,192,45985,1,0,0:0:0:0:
475,192,45985,1,0,0:0:0:0:
109,192,46163,1,0,0:0:0:0:
402,192,46163,1,0,0:0:0:0:
109,192,46342,1,0,0:0:0:0:
475,192,46342,1,0,0:0:0:0:
256,192,46342,1,0,0:0:0:0:
475,192,46520,1,0,0:0:0:0:
36,192,46520,1,0,0:0:0:0:
475,192,46699,1,0,0:0:0:0:
329,192,46699,1,0,0:0:0:0:
182,192,46699,1,0,0:0:0:0:
109,192,46699,1,0,0:0:0:0:
475,192,46877,1,0,0:0:0:0:
36,192,46877,1,0,0:0:0:0:
475,192,47056,1,0,0:0:0:0:
256,192,47056,1,0,0:0:0:0:
109,192,47056,1,0,0:0:0:0:
475,192,47235,1,0,0:0:0:0:
182,192,47235,1,0,0:0:0:0:
475,192,47413,1,0,0:0:0:0:
109,192,47413,1,0,0:0:0:0:
36,192,47413,1,0,0:0:0:0:
329,192,47413,1,0,0:0:0:0:
475,192,47592,1,0,0:0:0:0:
402,192,47592,1,0,0:0:0:0:
475,192,47770,1,0,0:0:0:0:
182,192,47770,1,0,0:0:0:0:
109,192,47770,1,0,0:0:0:0:
182,192,47949,1,0,0:0:0:0:
329,192,47949,1,0,0:0:0:0:
182,192,48127,1,0,0:0:0:0:
402,192,48127,1,0,0:0:0:0:
475,192,48127,1,0,0:0:0:0:
36,192,48127,1,0,0:0:0:0:
182,192,48306,1,0,0:0:0:0:
329,192,48306,1,0,0:0:0:0:
182,192,48485,1,0,0:0:0:0:
109,192,48485,1,0,0:0:0:0:
475,192,48485,1,0,0:0:0:0:
402,192,48574,1,0,0:0:0:0:
182,192,48663,1,0,0:0:0:0:
475,192,48663,1,0,0:0:0:0:
182,192,48842,1,0,0:0:0:0:
329,192,48842,1,0,0:0:0:0:
402,192,48842,1,0,0:0:0:0:
36,192,48842,1,0,0:0:0:0:
182,192,49020,1,0,0:0:0:0:
109,192,49020,1,0,0:0:0:0:
329,192,49199,1,0,0:0:0:0:
256,192,49199,128,0,50627:0:0:0:0:
109,192,49199,1,0,0:0:0:0:
475,192,49199,1,0,0:0:0:0:
475,192,49377,1,0,0:0:0:0:
402,192,49377,1,0,0:0:0:0:
475,192,49556,1,0,0:0:0:0:
329,192,49556,1,0,0:0:0:0:
36,192,49556,1,0,0:0:0:0:
109,192,49556,1,0,0:0:0:0:
475,192,49735,1,0,0:0:0:0:
182,192,49735,1,0,0:0:0:0:
475,192,49913,1,0,0:0:0:0:
329,192,49913,1,0,0:0:0:0:
475,192,50092,1,0,0:0:0:0:
182,192,50092,1,0,0:0:0:0:
475,192,50270,1,0,0:0:0:0:
109,192,50270,1,0,0:0:0:0:
36,192,50270,1,0,0:0:0:0:
402,192,50270,1,0,0:0:0:0:
475,192,50449,1,0,0:0:0:0:
329,192,50449,1,0,0:0:0:0:
475,192,50627,1,0,0:0:0:0:
182,192,50627,1,0,0:0:0:0:
36,192,50806,1,0,0:0:0:0:
182,192,50806,1,0,0:0:0:0:
36,192,50985,1,0,0:0:0:0:
475,192,50985,1,0,0:0:0:0:
329,192,50985,1,0,0:0:0:0:
256,192,50985,1,0,0:0:0:0:
36,192,51163,1,0,0:0:0:0:
402,192,51163,1,0,0:0:0:0:
36,192,51342,1,0,0:0:0:0:
329,192,51342,1,0,0:0:0:0:
36,192,51520,1,0,0:0:0:0:
182,192,51520,1,0,0:0:0:0:
36,192,51699,1,0,0:0:0:0:
256,192,51699,1,0,0:0:0:0:
402,192,51699,1,0,0:0:0:0:
475,192,51699,1,0,0:0:0:0:
36,192,51877,1,0,0:0:0:0:
329,192,51877,1,0,0:0:0:0:
36,192,52056,1,0,0:0:0:0:
402,192,52056,1,0,0:0:0:0:
182,192,52056,1,0,0:0:0:0:
402,192,52235,1,0,0:0:0:0:
329,192,52235,1,0,0:0:0:0:
402,192,52413,1,0,0:0:0:0:
475,192,52413,1,0,0:0:0:0:
182,192,52413,1,0,0:0:0:0:
36,192,52413,1,0,0:0:0:0:
402,192,52592,1,0,0:0:0:0:
256,192,52592,1,0,0:0:0:0:
402,192,52770,1,0,0:0:0:0:
182,192,52770,1,0,0:0:0:0:
402,192,52949,1,0,0:0:0:0:
109,192,52949,1,0,0:0:0:0:
402,192,53127,1,0,0:0:0:0:
329,192,53127,1,0,0:0:0:0:
182,192,53127,1,0,0:0:0:0:
36,192,53127,1,0,0:0:0:0:
402,192,53306,1,0,0:0:0:0:
109,192,53306,1,0,0:0:0:0:
402,192,53485,1,0,0:0:0:0:
182,192,53485,1,0,0:0:0:0:
402,192,53663,1,0,0:0:0:0:
256,192,53663,1,0,0:0:0:0:
402,192,53842,1,0,0:0:0:0:
329,192,53842,1,0,0:0:0:0:
182,192,53842,1,0,0:0:0:0:
36,192,53842,1,0,0:0:0:0:
402,192,54020,1,0,0:0:0:0:
109,192,54020,1,0,0:0:0:0:
402,192,54199,1,0,0:0:0:0:
256,192,54199,1,0,0:0:0:0:
402,192,54377,1,0,0:0:0:0:
109,192,54377,1,0,0:0:0:0:
402,192,54556,1,0,0:0:0:0:
182,192,54556,1,0,0:0:0:0:
329,192,54556,1,0,0:0:0:0:
36,192,54556,1,0,0:0:0:0:
402,192,54735,1,0,0:0:0:0:
256,192,54735,1,0,0:0:0:0:
109,192,54913,1,0,0:0:0:0:
36,192,54913,1,0,0:0:0:0:
475,192,54913,1,0,0:0:0:0:
329,192,54913,1,0,0:0:0:0:
182,192,55092,1,0,0:0:0:0:
475,192,55092,1,0,0:0:0:0:
475,192,55270,1,0,0:0:0:0:
256,192,55270,1,0,0:0:0:0:
109,192,55270,1,0,0:0:0:0:
36,192,55270,1,0,0:0:0:0:
402,192,55449,1,0,0:0:0:0:
182,192,55449,1,0,0:0:0:0:
475,192,55449,1,0,0:0:0:0:
329,192,55627,1,0,0:0:0:0:
475,192,55627,1,0,0:0:0:0:
109,192,55627,1,0,0:0:0:0:
256,192,55806,1,0,0:0:0:0:
36,192,55806,1,0,0:0:0:0:
475,192,55806,1,0,0:0:0:0:
182,192,55985,1,0,0:0:0:0:
109,192,55985,1,0,0:0:0:0:
475,192,55985,1,0,0:0:0:0:
329,192,55985,1,0,0:0:0:0:
36,192,56163,1,0,0:0:0:0:
256,192,56163,1,0,0:0:0:0:
475,192,56163,1,0,0:0:0:0:
182,192,56342,1,0,0:0:0:0:
402,192,56342,1,0,0:0:0:0:
475,192,56342,1,0,0:0:0:0:
475,192,56520,1,0,0:0:0:0:
329,192,56520,1,0,0:0:0:0:
402,192,56699,1,0,0:0:0:0:
256,192,56699,1,0,0:0:0:0:
109,192,56699,1,0,0:0:0:0:
36,192,56699,1,0,0:0:0:0:
475,192,56699,1,0,0:0:0:0:
475,192,56877,1,0,0:0:0:0:
329,192,56877,1,0,0:0:0:0:
182,192,56877,1,0,0:0:0:0:
475,192,57056,1,0,0:0:0:0:
36,192,57056,1,0,0:0:0:0:
256,192,57056,1,0,0:0:0:0:
475,192,57235,1,0,0:0:0:0:
109,192,57235,1,0,0:0:0:0:
329,192,57235,1,0,0:0:0:0:
475,192,57413,1,0,0:0:0:0:
402,192,57413,1,0,0:0:0:0:
182,192,57413,1,0,0:0:0:0:
36,192,57413,1,0,0:0:0:0:
475,192,57592,1,0,0:0:0:0:
329,192,57592,1,0,0:0:0:0:
109,192,57592,1,0,0:0:0:0:
475,192,57770,1,0,0:0:0:0:
256,192,57770,1,0,0:0:0:0:
182,192,57770,1,0,0:0:0:0:
329,192,57949,1,0,0:0:0:0:
36,192,57949,1,0,0:0:0:0:
109,192,58127,1,0,0:0:0:0:
402,192,58127,1,0,0:0:0:0:
182,192,58127,1,0,0:0:0:0:
475,192,58306,1,0,0:0:0:0:
256,192,58306,1,0,0:0:0:0:
329,192,58485,1,0,0:0:0:0:
36,192,58485,1,0,0:0:0:0:
256,192,58663,1,0,0:0:0:0:
109,192,58663,1,0,0:0:0:0:
402,192,58842,1,0,0:0:0:0:
475,192,58842,1,0,0:0:0:0:
182,192,58842,1,0,0:0:0:0:
36,192,58842,1,0,0:0:0:0:
329,192,59020,1,0,0:0:0:0:
109,192,59020,1,0,0:0:0:0:
256,192,59199,1,0,0:0:0:0:
475,192,59199,1,0,0:0:0:0:
182,192,59377,1,0,0:0:0:0:
36,192,59377,1,0,0:0:0:0:
329,192,59377,1,0,0:0:0:0:
256,192,59556,1,0,0:0:0:0:
402,192,59556,1,0,0:0:0:0:
475,192,59556,1,0,0:0:0:0:
109,192,59556,1,0,0:0:0:0:
36,192,59735,1,0,0:0:0:0:
329,192,59735,1,0,0:0:0:0:
182,192,59735,1,0,0:0:0:0:
475,192,59913,1,0,0:0:0:0:
109,192,59913,1,0,0:0:0:0:
402,192,60002,1,0,0:0:0:0:
475,192,60092,1,0,0:0:0:0:
182,192,60092,1,0,0:0:0:0:
256,192,60270,1,0,0:0:0:0:
109,192,60270,1,0,0:0:0:0:
36,192,60270,1,0,0:0:0:0:
402,192,60270,1,0,0:0:0:0:
329,192,60449,1,0,0:0:0:0:
475,192,60449,1,0,0:0:0:0:
182,192,60449,1,0,0:0:0:0:
36,192,60449,1,0,0:0:0:0:
36,192,60538,1,0,0:0:0:0:
182,192,60538,1,0,0:0:0:0:
329,192,60538,1,0,0:0:0:0:
475,192,60538,1,0,0:0:0:0:
256,192,60627,1,0,0:0:0:0:
402,192,60627,1,0,0:0:0:0:
109,192,60627,1,0,0:0:0:0:
329,192,60806,1,0,0:0:0:0:
182,192,60806,1,0,0:0:0:0:
109,192,60985,1,0,0:0:0:0:
475,192,60985,1,0,0:0:0:0:
36,192,60985,1,0,0:0:0:0:
256,192,60985,1,0,0:0:0:0:
182,192,61163,1,0,0:0:0:0:
329,192,61163,1,0,0:0:0:0:
256,192,61342,1,0,0:0:0:0:
402,192,61342,1,0,0:0:0:0:
109,192,61520,1,0,0:0:0:0:
329,192,61520,1,0,0:0:0:0:
256,192,61699,1,0,0:0:0:0:
182,192,61699,1,0,0:0:0:0:
475,192,61699,1,0,0:0:0:0:
36,192,61699,1,0,0:0:0:0:
329,192,61877,1,0,0:0:0:0:
109,192,61877,1,0,0:0:0:0:
182,192,62056,1,0,0:0:0:0:
402,192,62056,1,0,0:0:0:0:
475,192,62235,1,0,0:0:0:0:
256,192,62235,1,0,0:0:0:0:
402,192,62413,1,0,0:0:0:0:
36,192,62413,1,0,0:0:0:0:
109,192,62413,1,0,0:0:0:0:
329,192,62413,1,0,0:0:0:0:
475,192,62592,1,0,0:0:0:0:
182,192,62592,1,0,0:0:0:0:
109,192,62770,1,0,0:0:0:0:
402,192,62770,1,0,0:0:0:0:
182,192,62949,1,0,0:0:0:0:
475,192,62949,1,0,0:0:0:0:
109,192,63127,1,0,0:0:0:0:
36,192,63127,1,0,0:0:0:0:
402,192,63127,1,0,0:0:0:0:
256,192,63127,1,0,0:0:0:0:
182,192,63306,1,0,0:0:0:0:
475,192,63306,1,0,0:0:0:0:
329,192,63485,1,0,0:0:0:0:
109,192,63485,1,0,0:0:0:0:
36,192,63663,1,0,0:0:0:0:
402,192,63663,1,0,0:0:0:0:
182,192,63842,1,0,0:0:0:0:
475,192,63842,1,0,0:0:0:0:
329,192,63842,1,0,0:0:0:0:
109,192,63842,1,0,0:0:0:0:
256,192,64020,1,0,0:0:0:0:
402,192,64020,1,0,0:0:0:0:
36,192,64199,1,0,0:0:0:0:
329,192,64199,1,0,0:0:0:0:
109,192,64377,1,0,0:0:0:0:
402,192,64377,1,0,0:0:0:0:
182,192,64556,1,0,0:0:0:0:
475,192,64556,1,0,0:0:0:0:
36,192,64556,1,0,0:0:0:0:
256,192,64556,1,0,0:0:0:0:
329,192,64735,1,0,0:0:0:0:
109,192,64735,1,0,0:0:0:0:
182,192,64913,1,0,0:0:0:0:
402,192,64913,1,0,0:0:0:0:
329,192,65092,1,0,0:0:0:0:
36,192,65092,1,0,0:0:0:0:
402,192,65270,1,0,0:0:0:0:
256,192,65270,1,0,0:0:0:0:
109,192,65270,1,0,0:0:0:0:
475,192,65270,1,0,0:0:0:0:
329,192,65449,1,0,0:0:0:0:
36,192,65449,1,0,0:0:0:0:
182,192,65627,1,0,0:0:0:0:
402,192,65627,1,0,0:0:0:0:
256,192,65806,1,0,0:0:0:0:
475,192,65806,1,0,0:0:0:0:
109,192,65985,1,0,0:0:0:0:
36,192,65985,1,0,0:0:0:0:
329,192,65985,1,0,0:0:0:0:
402,192,65985,1,0,0:0:0:0:
475,192,66163,1,0,0:0:0:0:
182,192,66163,1,0,0:0:0:0:
329,192,66342,1,0,0:0:0:0:
36,192,66342,1,0,0:0:0:0:
182,192,66520,1,0,0:0:0:0:
402,192,66520,1,0,0:0:0:0:
256,192,66699,1,0,0:0:0:0:
329,192,66699,1,0,0:0:0:0:
36,192,66699,1,0,0:0:0:0:
475,192,66699,1,0,0:0:0:0:
109,192,66877,1,0,0:0:0:0:
182,192,66877,1,0,0:0:0:0:
402,192,66877,1,0,0:0:0:0:
256,192,67056,1,0,0:0:0:0:
36,192,67056,1,0,0:0:0:0:
182,192,67235,1,0,0:0:0:0:
475,192,67235,1,0,0:0:0:0:
402,192,67413,1,0,0:0:0:0:
329,192,67413,1,0,0:0:0:0:
109,192,67413,1,0,0:0:0:0:
36,192,67413,1,0,0:0:0:0:
475,192,67592,1,0,0:0:0:0:
182,192,67592,1,0,0:0:0:0:
109,192,67770,1,0,0:0:0:0:
402,192,67770,1,0,0:0:0:0:
256,192,67949,1,0,0:0:0:0:
475,192,67949,1,0,0:0:0:0:
36,192,67949,1,0,0:0:0:0:
182,192,68127,1,0,0:0:0:0:
109,192,68127,1,0,0:0:0:0:
329,192,68127,1,0,0:0:0:0:
402,192,68127,1,0,0:0:0:0:
36,192,68306,1,0,0:0:0:0:
256,192,68306,1,0,0:0:0:0:
182,192,68485,1,0,0:0:0:0:
475,192,68485,1,0,0:0:0:0:
402,192,68663,1,0,0:0:0:0:
36,192,68663,1,0,0:0:0:0:
109,192,68842,1,0,0:0:0:0:
256,192,68842,1,0,0:0:0:0:
329,192,68842,1,0,0:0:0:0:
475,192,68842,1,0,0:0:0:0:
182,192,69020,1,0,0:0:0:0:
402,192,69020,1,0,0:0:0:0:
36,192,69199,1,0,0:0:0:0:
329,192,69199,1,0,0:0:0:0:
256,192,69377,1,0,0:0:0:0:
475,192,69377,1,0,0:0:0:0:
329,192,69556,1,0,0:0:0:0:
402,192,69556,1,0,0:0:0:0:
182,192,69556,1,0,0:0:0:0:
36,192,69556,1,0,0:0:0:0:
109,192,69735,1,0,0:0:0:0:
475,192,69735,1,0,0:0:0:0:
329,192,69913,1,0,0:0:0:0:
36,192,69913,1,0,0:0:0:0:
256,192,70092,1,0,0:0:0:0:
109,192,70092,1,0,0:0:0:0:
402,192,70270,1,0,0:0:0:0:
475,192,70270,1,0,0:0:0:0:
182,192,70270,1,0,0:0:0:0:
36,192,70270,1,0,0:0:0:0:
109,192,70449,1,0,0:0:0:0:
329,192,70449,1,0,0:0:0:0:
182,192,70627,1,0,0:0:0:0:
402,192,70627,1,0,0:0:0:0:
329,192,70627,1,0,0:0:0:0:
256,192,70806,1,0,0:0:0:0:
109,192,70806,1,0,0:0:0:0:
182,192,70985,1,0,0:0:0:0:
329,192,70985,1,0,0:0:0:0:
36,192,70985,1,0,0:0:0:0:
475,192,70985,1,0,0:0:0:0:
256,192,71163,1,0,0:0:0:0:
402,192,71163,1,0,0:0:0:0:
182,192,71342,1,0,0:0:0:0:
109,192,71342,1,0,0:0:0:0:
329,192,71520,1,0,0:0:0:0:
475,192,71520,1,0,0:0:0:0:
109,192,71699,1,0,0:0:0:0:
182,192,71699,1,0,0:0:0:0:
402,192,71699,1,0,0:0:0:0:
329,192,71877,1,0,0:0:0:0:
402,192,71877,1,0,0:0:0:0:
109,192,71877,1,0,0:0:0:0:
475,192,72056,128,0,72235:0:0:0:0:
36,192,72056,1,0,0:0:0:0:
329,192,72235,128,0,72413:0:0:0:0:
109,192,72235,1,0,0:0:0:0:
182,192,72235,1,0,0:0:0:0:
475,192,72413,128,0,72592:0:0:0:0:
256,192,72413,1,0,0:0:0:0:
36,192,72413,1,0,0:0:0:0:
109,192,72413,1,0,0:0:0:0:
329,192,72592,128,0,72770:0:0:0:0:
182,192,72592,1,0,0:0:0:0:
475,192,72770,128,0,72949:0:0:0:0:
256,192,72770,1,0,0:0:0:0:
109,192,72770,1,0,0:0:0:0:
329,192,72949,128,0,73127:0:0:0:0:
182,192,72949,1,0,0:0:0:0:
36,192,72949,1,0,0:0:0:0:
475,192,73127,128,0,73306:0:0:0:0:
256,192,73127,1,0,0:0:0:0:
109,192,73127,1,0,0:0:0:0:
402,192,73127,1,0,0:0:0:0:
329,192,73306,128,0,73485:0:0:0:0:
182,192,73306,1,0,0:0:0:0:
475,192,73485,128,0,73663:0:0:0:0:
109,192,73485,1,0,0:0:0:0:
36,192,73485,1,0,0:0:0:0:
402,192,73663,128,0,73842:0:0:0:0:
256,192,73663,1,0,0:0:0:0:
182,192,73663,1,0,0:0:0:0:
475,192,73842,128,0,74020:0:0:0:0:
329,192,73842,1,0,0:0:0:0:
109,192,73842,1,0,0:0:0:0:
36,192,73842,1,0,0:0:0:0:
329,192,74020,128,0,74199:0:0:0:0:
182,192,74020,1,0,0:0:0:0:
475,192,74199,128,0,74377:0:0:0:0:
109,192,74199,1,0,0:0:0:0:
256,192,74199,1,0,0:0:0:0:
329,192,74377,128,0,74556:0:0:0:0:
182,192,74377,1,0,0:0:0:0:
36,192,74377,1,0,0:0:0:0:
475,192,74556,128,0,74735:0:0:0:0:
256,192,74556,1,0,0:0:0:0:
109,192,74556,1,0,0:0:0:0:
402,192,74556,1,0,0:0:0:0:
329,192,74735,128,0,74913:0:0:0:0:
182,192,74735,1,0,0:0:0:0:
36,192,74913,128,0,75092:0:0:0:0:
475,192,74913,1,0,0:0:0:0:
256,192,74913,1,0,0:0:0:0:
182,192,75092,128,0,75270:0:0:0:0:
402,192,75092,1,0,0:0:0:0:
109,192,75092,1,0,0:0:0:0:
36,192,75270,128,0,75449:0:0:0:0:
256,192,75270,1,0,0:0:0:0:
475,192,75270,1,0,0:0:0:0:
329,192,75270,1,0,0:0:0:0:
182,192,75449,128,0,75627:0:0:0:0:
402,192,75449,1,0,0:0:0:0:
36,192,75627,128,0,75806:0:0:0:0:
329,192,75627,1,0,0:0:0:0:
475,192,75627,1,0,0:0:0:0:
182,192,75806,128,0,75985:0:0:0:0:
109,192,75806,1,0,0:0:0:0:
402,192,75806,1,0,0:0:0:0:
36,192,75985,128,0,76163:0:0:0:0:
475,192,75985,1,0,0:0:0:0:
256,192,75985,1,0,0:0:0:0:
329,192,75985,1,0,0:0:0:0:
182,192,76163,128,0,76342:0:0:0:0:
109,192,76163,1,0,0:0:0:0:
36,192,76342,128,0,76520:0:0:0:0:
475,192,76342,1,0,0:0:0:0:
329,192,76342,1,0,0:0:0:0:
109,192,76520,128,0,76699:0:0:0:0:
256,192,76520,1,0,0:0:0:0:
182,192,76699,128,0,76877:0:0:0:0:
329,192,76699,1,0,0:0:0:0:
475,192,76699,1,0,0:0:0:0:
402,192,76699,1,0,0:0:0:0:
36,192,76877,128,0,77056:0:0:0:0:
256,192,76877,1,0,0:0:0:0:
182,192,77056,128,0,77235:0:0:0:0:
329,192,77056,1,0,0:0:0:0:
402,192,77056,1,0,0:0:0:0:
36,192,77235,128,0,77413:0:0:0:0:
475,192,77235,1,0,0:0:0:0:
256,192,77235,1,0,0:0:0:0:
182,192,77413,128,0,77592:0:0:0:0:
402,192,77413,1,0,0:0:0:0:
329,192,77413,1,0,0:0:0:0:
109,192,77413,1,0,0:0:0:0:
36,192,77592,128,0,77770:0:0:0:0:
256,192,77592,1,0,0:0:0:0:
182,192,77770,128,0,80627:0:0:0:0:
329,192,77770,128,0,80627:0:0:0:0:
402,192,77770,1,0,0:0:0:0:
109,192,77949,1,0,0:0:0:0:
36,192,77949,1,0,0:0:0:0:
256,192,78127,1,0,0:0:0:0:
402,192,78127,1,0,0:0:0:0:
475,192,78127,1,0,0:0:0:0:
109,192,78306,1,0,0:0:0:0:
402,192,78485,1,0,0:0:0:0:
475,192,78485,1,0,0:0:0:0:
109,192,78663,1,0,0:0:0:0:
36,192,78663,1,0,0:0:0:0:
256,192,78842,1,0,0:0:0:0:
402,192,78842,1,0,0:0:0:0:
475,192,78842,1,0,0:0:0:0:
36,192,79020,1,0,0:0:0:0:
109,192,79199,1,0,0:0:0:0:
256,192,79199,1,0,0:0:0:0:
402,192,79377,1,0,0:0:0:0:
475,192,79377,1,0,0:0:0:0:
256,192,79556,1,0,0:0:0:0:
109,192,79556,1,0,0:0:0:0:
36,192,79556,1,0,0:0:0:0:
402,192,79735,1,0,0:0:0:0:
475,192,79735,1,0,0:0:0:0:
36,192,79913,1,0,0:0:0:0:
256,192,79913,1,0,0:0:0:0:
402,192,80092,1,0,0:0:0:0:
109,192,80092,1,0,0:0:0:0:
36,192,80270,1,0,0:0:0:0:
256,192,80270,1,0,0:0:0:0:
475,192,80270,1,0,0:0:0:0:
109,192,80449,1,0,0:0:0:0:
402,192,80449,1,0,0:0:0:0:
36,192,80627,128,0,82056:0:0:0:0:
475,192,80627,128,0,82056:0:0:0:0:
256,192,80627,1,0,0:0:0:0:
402,192,80806,1,0,0:0:0:0:
182,192,80806,1,0,0:0:0:0:
109,192,80985,1,0,0:0:0:0:
256,192,80985,1,0,0:0:0:0:
329,192,80985,1,0,0:0:0:0:
402,192,81163,1,0,0:0:0:0:
256,192,81342,1,0,0:0:0:0:
182,192,81342,1,0,0:0:0:0:
109,192,81520,1,0,0:0:0:0:
329,192,81520,1,0,0:0:0:0:
256,192,81699,1,0,0:0:0:0:
182,192,81699,1,0,0:0:0:0:
402,192,81699,1,0,0:0:0:0:
109,192,81877,1,0,0:0:0:0:
329,192,82056,1,0,0:0:0:0:
402,192,82056,1,0,0:0:0:0:
109,192,82145,1,0,0:0:0:0:
182,192,82145,1,0,0:0:0:0:
402,192,82235,1,0,0:0:0:0:
475,192,82235,1,0,0:0:0:0:
109,192,82324,1,0,0:0:0:0:
36,192,82324,1,0,0:0:0:0:
329,192,82413,1,0,0:0:0:0:
402,192,82413,1,0,0:0:0:0:
109,192,82502,1,0,0:0:0:0:
36,192,82502,1,0,0:0:0:0:
402,192,82592,1,0,0:0:0:0:
475,192,82592,1,0,0:0:0:0:
329,192,82681,1,0,0:0:0:0:
182,192,82681,1,0,0:0:0:0:
256,192,82770,1,0,0:0:0:0:
109,192,82770,1,0,0:0:0:0:
36,192,82770,1,0,0:0:0:0:
402,192,82770,1,0,0:0:0:0:
475,192,82770,1,0,0:0:0:0:
402,192,82949,1,0,0:0:0:0:
256,192,82949,1,0,0:0:0:0:
475,192,82949,1,0,0:0:0:0:
109,192,82949,1,0,0:0:0:0:
36,192,82949,1,0,0:0:0:0:
475,192,83485,1,0,0:0:0:0:
36,192,83485,1,0,0:0:0:0:
182,192,83485,1,0,0:0:0:0:
329,192,83485,1,0,0:0:0:0:
402,192,83663,1,0,0:0:0:0:
329,192,83663,1,0,0:0:0:0:
109,192,83752,1,0,0:0:0:0:
182,192,83752,1,0,0:0:0:0:
329,192,83842,1,0,0:0:0:0:
402,192,83842,1,0,0:0:0:0:
36,192,84020,1,0,0:0:0:0:
109,192,84020,1,0,0:0:0:0:
402,192,84110,1,0,0:0:0:0:
475,192,84110,1,0,0:0:0:0:
182,192,84199,1,0,0:0:0:0:
109,192,84199,1,0,0:0:0:0:
329,192,84288,1,0,0:0:0:0:
402,192,84288,1,0,0:0:0:0:
182,192,84377,1,0,0:0:0:0:
109,192,84377,1,0,0:0:0:0:
329,192,84556,1,0,0:0:0:0:
475,192,84556,1,0,0:0:0:0:
182,192,84645,1,0,0:0:0:0:
36,192,84645,1,0,0:0:0:0:
329,192,84735,1,0,0:0:0:0:
475,192,84735,1,0,0:0:0:0:
182,192,84824,1,0,0:0:0:0:
36,192,84824,1,0,0:0:0:0:
402,192,84913,1,0,0:0:0:0:
109,192,84913,1,0,0:0:0:0:
256,192,84913,1,0,0:0:0:0:
329,192,85092,1,0,0:0:0:0:
475,192,85092,1,0,0:0:0:0:
182,192,85181,1,0,0:0:0:0:
109,192,85181,1,0,0:0:0:0:
329,192,85270,1,0,0:0:0:0:
475,192,85270,1,0,0:0:0:0:
109,192,85449,1,0,0:0:0:0:
182,192,85449,1,0,0:0:0:0:
402,192,85538,1,0,0:0:0:0:
329,192,85538,1,0,0:0:0:0:
182,192,85627,1,0,0:0:0:0:
109,192,85627,1,0,0:0:0:0:
329,192,85717,1,0,0:0:0:0:
402,192,85717,1,0,0:0:0:0:
182,192,85806,1,0,0:0:0:0:
109,192,85806,1,0,0:0:0:0:
475,192,85985,1,0,0:0:0:0:
256,192,85985,1,0,0:0:0:0:
36,192,85985,1,0,0:0:0:0:
329,192,86163,1,0,0:0:0:0:
402,192,86163,1,0,0:0:0:0:
182,192,86163,1,0,0:0:0:0:
109,192,86163,1,0,0:0:0:0:
329,192,86252,1,0,0:0:0:0:
402,192,86252,1,0,0:0:0:0:
182,192,86252,1,0,0:0:0:0:
109,192,86252,1,0,0:0:0:0:
256,192,86342,1,0,0:0:0:0:
475,192,86342,1,0,0:0:0:0:
36,192,86342,1,0,0:0:0:0:
402,192,86520,1,0,0:0:0:0:
329,192,86520,1,0,0:0:0:0:
36,192,86610,1,0,0:0:0:0:
109,192,86610,1,0,0:0:0:0:
256,192,86699,1,0,0:0:0:0:
329,192,86699,1,0,0:0:0:0:
109,192,86967,1,0,0:0:0:0:
182,192,86967,1,0,0:0:0:0:
329,192,87056,1,0,0:0:0:0:
402,192,87056,1,0,0:0:0:0:
182,192,87145,1,0,0:0:0:0:
109,192,87145,1,0,0:0:0:0:
329,192,87235,1,0,0:0:0:0:
402,192,87235,1,0,0:0:0:0:
36,192,87413,1,0,0:0:0:0:
182,192,87413,1,0,0:0:0:0:
329,192,87502,1,0,0:0:0:0:
475,192,87502,1,0,0:0:0:0:
182,192,87592,1,0,0:0:0:0:
36,192,87592,1,0,0:0:0:0:
329,192,87681,1,0,0:0:0:0:
475,192,87681,1,0,0:0:0:0:
256,192,87770,1,0,0:0:0:0:
402,192,87770,1,0,0:0:0:0:
109,192,87770,1,0,0:0:0:0:
402,192,87949,1,0,0:0:0:0:
329,192,87949,1,0,0:0:0:0:
109,192,88038,1,0,0:0:0:0:
36,192,88038,1,0,0:0:0:0:
329,192,88127,1,0,0:0:0:0:
402,192,88127,1,0,0:0:0:0:
402,192,88395,1,0,0:0:0:0:
475,192,88395,1,0,0:0:0:0:
182,192,88485,1,0,0:0:0:0:
109,192,88485,1,0,0:0:0:0:
402,192,88574,1,0,0:0:0:0:
475,192,88574,1,0,0:0:0:0:
182,192,88663,1,0,0:0:0:0:
109,192,88663,1,0,0:0:0:0:
36,192,88842,1,0,0:0:0:0:
182,192,88842,1,0,0:0:0:0:
329,192,88842,1,0,0:0:0:0:
402,192,88931,1,0,0:0:0:0:
475,192,88931,1,0,0:0:0:0:
109,192,89020,1,0,0:0:0:0:
256,192,89020,1,0,0:0:0:0:
402,192,89110,1,0,0:0:0:0:
329,192,89110,1,0,0:0:0:0:
475,192,89199,1,0,0:0:0:0:
36,192,89199,1,0,0:0:0:0:
256,192,89199,1,0,0:0:0:0:
402,192,89377,1,0,0:0:0:0:
182,192,89377,1,0,0:0:0:0:
329,192,89467,1,0,0:0:0:0:
109,192,89467,1,0,0:0:0:0:
256,192,89556,1,0,0:0:0:0:
36,192,89556,1,0,0:0:0:0:
329,192,89824,1,0,0:0:0:0:
402,192,89824,1,0,0:0:0:0:
182,192,89913,1,0,0:0:0:0:
109,192,89913,1,0,0:0:0:0:
329,192,90002,1,0,0:0:0:0:
402,192,90002,1,0,0:0:0:0:
109,192,90092,1,0,0:0:0:0:
182,192,90092,1,0,0:0:0:0:
36,192,90270,1,0,0:0:0:0:
182,192,90270,1,0,0:0:0:0:
109,192,90360,1,0,0:0:0:0:
256,192,90360,1,0,0:0:0:0:
182,192,90449,1,0,0:0:0:0:
329,192,90449,1,0,0:0:0:0:
256,192,90538,1,0,0:0:0:0:
402,192,90538,1,0,0:0:0:0:
329,192,90627,1,0,0:0:0:0:
182,192,90627,1,0,0:0:0:0:
36,192,90627,1,0,0:0:0:0:
475,192,90627,1,0,0:0:0:0:
402,192,90806,1,0,0:0:0:0:
256,192,90806,1,0,0:0:0:0:
182,192,90895,1,0,0:0:0:0:
109,192,90895,1,0,0:0:0:0:
402,192,90985,1,0,0:0:0:0:
256,192,90985,1,0,0:0:0:0:
36,192,91252,1,0,0:0:0:0:
182,192,91252,1,0,0:0:0:0:
329,192,91342,1,0,0:0:0:0:
475,192,91342,1,0,0:0:0:0:
182,192,91431,1,0,0:0:0:0:
36,192,91431,1,0,0:0:0:0:
329,192,91520,1,0,0:0:0:0:
475,192,91520,1,0,0:0:0:0:
256,192,91699,1,0,0:0:0:0:
402,192,91699,1,0,0:0:0:0:
109,192,91699,1,0,0:0:0:0:
329,192,91877,1,0,0:0:0:0:
475,192,91877,1,0,0:0:0:0:
182,192,91877,1,0,0:0:0:0:
36,192,91877,1,0,0:0:0:0:
36,192,91967,1,0,0:0:0:0:
182,192,91967,1,0,0:0:0:0:
329,192,91967,1,0,0:0:0:0:
475,192,91967,1,0,0:0:0:0:
402,192,92056,1,0,0:0:0:0:
256,192,92056,1,0,0:0:0:0:
109,192,92056,1,0,0:0:0:0:
402,192,92235,1,0,0:0:0:0:
329,192,92235,1,0,0:0:0:0:
109,192,92324,5,0,0:0:0:0:
182,192,92324,1,0,0:0:0:0:
329,192,92413,1,0,0:0:0:0:
402,192,92413,1,0,0:0:0:0:
329,192,92681,1,0,0:0:0:0:
402,192,92681,1,0,0:0:0:0:
109,192,92770,1,0,0:0:0:0:
36,192,92770,1,0,0:0:0:0:
402,192,92860,1,0,0:0:0:0:
475,192,92860,1,0,0:0:0:0:
182,192,92949,1,0,0:0:0:0:
109,192,92949,1,0,0:0:0:0:
475,192,93127,1,0,0:0:0:0:
36,192,93127,1,0,0:0:0:0:
109,192,93217,1,0,0:0:0:0:
402,192,93217,1,0,0:0:0:0:
329,192,93306,1,0,0:0:0:0:
182,192,93306,1,0,0:0:0:0:
256,192,93395,1,0,0:0:0:0:
402,192,93395,1,0,0:0:0:0:
475,192,93485,128,0,93663:0:0:0:0:
36,192,93485,1,0,0:0:0:0:
402,192,93663,128,0,93842:0:0:0:0:
109,192,93663,1,0,0:0:0:0:
329,192,93842,128,0,94020:0:0:0:0:
182,192,93842,1,0,0:0:0:0:
256,192,94020,128,0,94199:0:0:0:0:
182,192,94020,1,0,0:0:0:0:
109,192,94110,1,0,0:0:0:0:
36,192,94199,1,0,0:0:0:0:
329,192,94199,128,0,94377:0:0:0:0:
109,192,94288,1,0,0:0:0:0:
256,192,94377,128,0,94556:0:0:0:0:
182,192,94377,1,0,0:0:0:0:
402,192,94377,1,0,0:0:0:0:
475,192,94467,1,0,0:0:0:0:
329,192,94556,128,0,94735:0:0:0:0:
109,192,94556,1,0,0:0:0:0:
36,192,94645,1,0,0:0:0:0:
109,192,94735,1,0,0:0:0:0:
402,192,94735,128,0,94913:0:0:0:0:
182,192,94824,1,0,0:0:0:0:
475,192,94913,1,0,0:0:0:0:
36,192,94913,1,0,0:0:0:0:
182,192,95092,1,0,0:0:0:0:
109,192,95092,1,0,0:0:0:0:
329,192,95092,1,0,0:0:0:0:
475,192,95092,1,0,0:0:0:0:
402,192,95270,1,0,0:0:0:0:
36,192,95270,1,0,0:0:0:0:
109,192,95449,1,0,0:0:0:0:
182,192,95449,1,0,0:0:0:0:
329,192,95449,1,0,0:0:0:0:
475,192,95449,1,0,0:0:0:0:
402,192,95627,1,0,0:0:0:0:
256,192,95627,1,0,0:0:0:0:
329,192,95806,1,0,0:0:0:0:
475,192,95806,1,0,0:0:0:0:
109,192,95806,1,0,0:0:0:0:
36,192,95806,1,0,0:0:0:0:
402,192,95985,1,0,0:0:0:0:
256,192,95985,1,0,0:0:0:0:
475,192,96163,1,0,0:0:0:0:
329,192,96163,1,0,0:0:0:0:
109,192,96163,1,0,0:0:0:0:
36,192,96163,1,0,0:0:0:0:
182,192,96342,1,0,0:0:0:0:
402,192,96342,1,0,0:0:0:0:
256,192,96520,1,0,0:0:0:0:
109,192,96520,1,0,0:0:0:0:
36,192,96520,1,0,0:0:0:0:
475,192,96520,1,0,0:0:0:0:
402,192,96699,1,0,0:0:0:0:
182,192,96699,1,0,0:0:0:0:
256,192,96877,1,0,0:0:0:0:
475,192,96877,1,0,0:0:0:0:
109,192,96877,1,0,0:0:0:0:
36,192,96877,1,0,0:0:0:0:
329,192,97056,1,0,0:0:0:0:
402,192,97056,1,0,0:0:0:0:
182,192,97235,1,0,0:0:0:0:
475,192,97235,1,0,0:0:0:0:
256,192,97235,1,0,0:0:0:0:
36,192,97235,1,0,0:0:0:0:
329,192,97413,1,0,0:0:0:0:
402,192,97413,1,0,0:0:0:0:
475,192,97592,1,0,0:0:0:0:
256,192,97592,1,0,0:0:0:0:
182,192,97592,1,0,0:0:0:0:
36,192,97592,1,0,0:0:0:0:
109,192,97770,1,0,0:0:0:0:
329,192,97770,1,0,0:0:0:0:
256,192,97949,1,0,0:0:0:0:
36,192,97949,1,0,0:0:0:0:
402,192,97949,1,0,0:0:0:0:
475,192,97949,1,0,0:0:0:0:
329,192,98127,1,0,0:0:0:0:
109,192,98127,1,0,0:0:0:0:
402,192,98306,1,0,0:0:0:0:
475,192,98306,1,0,0:0:0:0:
36,192,98306,1,0,0:0:0:0:
256,192,98306,1,0,0:0:0:0:
182,192,98485,1,0,0:0:0:0:
329,192,98485,1,0,0:0:0:0:
402,192,98663,1,0,0:0:0:0:
475,192,98663,1,0,0:0:0:0:
36,192,98663,1,0,0:0:0:0:
256,192,98663,1,0,0:0:0:0:
329,192,98842,1,0,0:0:0:0:
182,192,98842,1,0,0:0:0:0:
256,192,99020,1,0,0:0:0:0:
402,192,99020,1,0,0:0:0:0:
36,192,99020,1,0,0:0:0:0:
475,192,99020,1,0,0:0:0:0:
182,192,99199,1,0,0:0:0:0:
109,192,99199,1,0,0:0:0:0:
329,192,99377,1,0,0:0:0:0:
36,192,99377,1,0,0:0:0:0:
256,192,99377,1,0,0:0:0:0:
475,192,99377,1,0,0:0:0:0:
182,192,99556,1,0,0:0:0:0:
109,192,99556,1,0,0:0:0:0:
36,192,99735,1,0,0:0:0:0:
256,192,99735,1,0,0:0:0:0:
329,192,99735,1,0,0:0:0:0:
475,192,99735,1,0,0:0:0:0:
402,192,99913,1,0,0:0:0:0:
182,192,99913,1,0,0:0:0:0:
256,192,100092,1,0,0:0:0:0:
109,192,100092,1,0,0:0:0:0:
36,192,100092,1,0,0:0:0:0:
475,192,100092,1,0,0:0:0:0:
182,192,100270,1,0,0:0:0:0:
402,192,100270,1,0,0:0:0:0:
36,192,100449,1,0,0:0:0:0:
256,192,100449,1,0,0:0:0:0:
475,192,100449,1,0,0:0:0:0:
109,192,100538,1,0,0:0:0:0:
182,192,100627,1,0,0:0:0:0:
329,192,100627,1,0,0:0:0:0:
402,192,100627,1,0,0:0:0:0:
109,192,100806,1,0,0:0:0:0:
36,192,100806,1,0,0:0:0:0:
256,192,100806,1,0,0:0:0:0:
475,192,100806,1,0,0:0:0:0:
402,192,100985,1,0,0:0:0:0:
329,192,100985,1,0,0:0:0:0:
475,192,101163,1,0,0:0:0:0:
36,192,101163,1,0,0:0:0:0:
182,192,101163,1,0,0:0:0:0:
256,192,101163,1,0,0:0:0:0:
109,192,101342,1,0,0:0:0:0:
329,192,101342,1,0,0:0:0:0:
402,192,101520,1,0,0:0:0:0:
475,192,101520,1,0,0:0:0:0:
182,192,101520,1,0,0:0:0:0:
36,192,101520,1,0,0:0:0:0:
329,192,101699,1,0,0:0:0:0:
109,192,101699,1,0,0:0:0:0:
182,192,101877,1,0,0:0:0:0:
36,192,101877,1,0,0:0:0:0:
402,192,101877,1,0,0:0:0:0:
475,192,101877,1,0,0:0:0:0:
256,192,102056,1,0,0:0:0:0:
109,192,102056,1,0,0:0:0:0:
329,192,102235,1,0,0:0:0:0:
402,192,102235,1,0,0:0:0:0:
182,192,102235,1,0,0:0:0:0:
36,192,102235,1,0,0:0:0:0:
256,192,102413,1,0,0:0:0:0:
475,192,102413,1,0,0:0:0:0:
329,192,102592,1,0,0:0:0:0:
402,192,102592,1,0,0:0:0:0:
182,192,102592,1,0,0:0:0:0:
36,192,102592,1,0,0:0:0:0:
256,192,102770,1,0,0:0:0:0:
109,192,102770,1,0,0:0:0:0:
475,192,102949,1,0,0:0:0:0:
182,192,102949,1,0,0:0:0:0:
36,192,102949,1,0,0:0:0:0:
402,192,102949,1,0,0:0:0:0:
256,192,103127,1,0,0:0:0:0:
109,192,103127,1,0,0:0:0:0:
182,192,103306,1,0,0:0:0:0:
36,192,103306,1,0,0:0:0:0:
402,192,103306,1,0,0:0:0:0:
475,192,103306,1,0,0:0:0:0:
329,192,103485,1,0,0:0:0:0:
109,192,103485,1,0,0:0:0:0:
256,192,103663,1,0,0:0:0:0:
182,192,103663,1,0,0:0:0:0:
36,192,103663,1,0,0:0:0:0:
475,192,103663,1,0,0:0:0:0:
329,192,103842,1,0,0:0:0:0:
109,192,103842,1,0,0:0:0:0:
256,192,104020,1,0,0:0:0:0:
182,192,104020,1,0,0:0:0:0:
36,192,104020,1,0,0:0:0:0:
402,192,104020,1,0,0:0:0:0:
329,192,104199,1,0,0:0:0:0:
109,192,104199,1,0,0:0:0:0:
475,192,104377,1,0,0:0:0:0:
182,192,104377,1,0,0:0:0:0:
36,192,104377,1,0,0:0:0:0:
402,192,104377,1,0,0:0:0:0:
329,192,104556,1,0,0:0:0:0:
402,192,104556,1,0,0:0:0:0:
182,192,104645,1,0,0:0:0:0:
109,192,104645,1,0,0:0:0:0:
329,192,104735,1,0,0:0:0:0:
402,192,104735,1,0,0:0:0:0:
182,192,104824,1,0,0:0:0:0:
109,192,104824,1,0,0:0:0:0:
475,192,104913,128,0,105270:0:0:0:0:
36,192,104913,1,0,0:0:0:0:
329,192,104913,1,0,0:0:0:0:
109,192,105092,1,0,0:0:0:0:
182,192,105092,1,0,0:0:0:0:
402,192,105092,1,0,0:0:0:0:
36,192,105270,128,0,105627:0:0:0:0:
109,192,105270,1,0,0:0:0:0:
256,192,105270,1,0,0:0:0:0:
329,192,105270,1,0,0:0:0:0:
402,192,105449,1,0,0:0:0:0:
475,192,105449,1,0,0:0:0:0:
182,192,105449,1,0,0:0:0:0:
475,192,105627,1,0,0:0:0:0:
109,192,105627,1,0,0:0:0:0:
256,192,105627,1,0,0:0:0:0:
329,192,105806,1,0,0:0:0:0:
182,192,105806,1,0,0:0:0:0:
402,192,105895,1,0,0:0:0:0:
109,192,105895,1,0,0:0:0:0:
475,192,105985,1,0,0:0:0:0:
36,192,105985,1,0,0:0:0:0:
109,192,106074,1,0,0:0:0:0:
402,192,106074,1,0,0:0:0:0:
182,192,106163,1,0,0:0:0:0:
329,192,106163,1,0,0:0:0:0:
256,192,106252,1,0,0:0:0:0:
329,192,106342,5,0,0:0:0:0:
475,192,106342,128,0,106520:0:0:0:0:
109,192,106342,1,0,0:0:0:0:
402,192,106520,128,0,106699:0:0:0:0:
182,192,106520,1,0,0:0:0:0:
475,192,106699,1,0,0:0:0:0:
329,192,106699,128,0,106877:0:0:0:0:
36,192,106699,1,0,0:0:0:0:
109,192,106699,1,0,0:0:0:0:
36,192,106877,1,0,0:0:0:0:
256,192,106877,128,0,107056:0:0:0:0:
109,192,107056,1,0,0:0:0:0:
329,192,107056,128,0,107235:0:0:0:0:
182,192,107056,1,0,0:0:0:0:
256,192,107235,1,0,0:0:0:0:
402,192,107235,128,0,107592:0:0:0:0:
109,192,107413,1,0,0:0:0:0:
36,192,107413,1,0,0:0:0:0:
329,192,107413,1,0,0:0:0:0:
475,192,107592,128,0,107949:0:0:0:0:
182,192,107592,1,0,0:0:0:0:
256,192,107770,1,0,0:0:0:0:
329,192,107770,1,0,0:0:0:0:
402,192,107949,128,0,108127:0:0:0:0:
182,192,107949,1,0,0:0:0:0:
36,192,108127,1,0,0:0:0:0:
475,192,108127,1,0,0:0:0:0:
109,192,108127,1,0,0:0:0:0:
329,192,108127,128,0,108217:0:0:0:0:
256,192,108306,1,0,0:0:0:0:
329,192,108306,128,0,108395:0:0:0:0:
109,192,108485,1,0,0:0:0:0:
402,192,108485,1,0,0:0:0:0:
182,192,108485,128,0,108574:0:0:0:0:
182,192,108663,128,0,108752:0:0:0:0:
329,192,108663,1,0,0:0:0:0:
475,192,108842,1,0,0:0:0:0:
256,192,108842,128,0,109199:0:0:0:0:
109,192,108842,1,0,0:0:0:0:
36,192,108842,1,0,0:0:0:0:
402,192,109199,1,0,0:0:0:0:
329,192,109199,128,0,109377:0:0:0:0:
36,192,109199,1,0,0:0:0:0:
109,192,109377,1,0,0:0:0:0:
182,192,109377,128,0,109556:0:0:0:0:
475,192,109556,1,0,0:0:0:0:
256,192,109556,1,0,0:0:0:0:
402,192,109556,1,0,0:0:0:0:
36,192,109556,128,0,109735:0:0:0:0:
109,192,109735,128,0,109913:0:0:0:0:
182,192,109735,1,0,0:0:0:0:
256,192,109913,1,0,0:0:0:0:
36,192,109913,1,0,0:0:0:0:
329,192,109913,128,0,110092:0:0:0:0:
182,192,110092,1,0,0:0:0:0:
402,192,110092,128,0,110449:0:0:0:0:
329,192,110270,1,0,0:0:0:0:
256,192,110270,1,0,0:0:0:0:
109,192,110270,1,0,0:0:0:0:
36,192,110449,1,0,0:0:0:0:
475,192,110449,128,0,110806:0:0:0:0:
329,192,110627,1,0,0:0:0:0:
182,192,110627,1,0,0:0:0:0:
109,192,110806,1,0,0:0:0:0:
402,192,110806,128,0,110985:0:0:0:0:
36,192,110985,1,0,0:0:0:0:
182,192,110985,1,0,0:0:0:0:
256,192,110985,1,0,0:0:0:0:
329,192,110985,128,0,111074:0:0:0:0:
329,192,111163,128,0,111252:0:0:0:0:
402,192,111163,1,0,0:0:0:0:
182,192,111342,128,0,111431:0:0:0:0:
475,192,111342,1,0,0:0:0:0:
109,192,111342,1,0,0:0:0:0:
182,192,111520,128,0,111610:0:0:0:0:
402,192,111520,1,0,0:0:0:0:
329,192,111699,1,0,0:0:0:0:
36,192,111699,128,0,112056:0:0:0:0:
109,192,111699,1,0,0:0:0:0:
256,192,111699,1,0,0:0:0:0:
475,192,112056,128,0,112235:0:0:0:0:
182,192,112056,1,0,0:0:0:0:
329,192,112056,1,0,0:0:0:0:
402,192,112235,128,0,112413:0:0:0:0:
36,192,112235,1,0,0:0:0:0:
329,192,112413,128,0,112592:0:0:0:0:
475,192,112413,1,0,0:0:0:0:
109,192,112413,1,0,0:0:0:0:
182,192,112413,1,0,0:0:0:0:
36,192,112592,1,0,0:0:0:0:
256,192,112592,128,0,112770:0:0:0:0:
182,192,112770,1,0,0:0:0:0:
329,192,112770,128,0,112949:0:0:0:0:
475,192,112770,1,0,0:0:0:0:
109,192,112949,1,0,0:0:0:0:
402,192,112949,128,0,113306:0:0:0:0:
36,192,113127,1,0,0:0:0:0:
329,192,113127,1,0,0:0:0:0:
182,192,113127,1,0,0:0:0:0:
256,192,113306,1,0,0:0:0:0:
475,192,113306,128,0,113663:0:0:0:0:
109,192,113485,1,0,0:0:0:0:
329,192,113485,1,0,0:0:0:0:
402,192,113663,128,0,113842:0:0:0:0:
182,192,113663,1,0,0:0:0:0:
36,192,113842,1,0,0:0:0:0:
329,192,113842,128,0,113931:0:0:0:0:
256,192,113842,1,0,0:0:0:0:
475,192,113842,1,0,0:0:0:0:
329,192,114020,128,0,114110:0:0:0:0:
109,192,114020,1,0,0:0:0:0:
182,192,114199,128,0,114288:0:0:0:0:
402,192,114199,1,0,0:0:0:0:
256,192,114199,1,0,0:0:0:0:
329,192,114377,1,0,0:0:0:0:
182,192,114377,128,0,114467:0:0:0:0:
402,192,114556,1,0,0:0:0:0:
36,192,114556,128,0,114913:0:0:0:0:
109,192,114556,1,0,0:0:0:0:
475,192,114556,1,0,0:0:0:0:
256,192,114735,1,0,0:0:0:0:
475,192,114913,1,0,0:0:0:0:
329,192,114913,1,0,0:0:0:0:
109,192,114913,128,0,115002:0:0:0:0:
182,192,115092,128,0,115181:0:0:0:0:
402,192,115092,1,0,0:0:0:0:
36,192,115270,1,0,0:0:0:0:
182,192,115270,128,0,115360:0:0:0:0:
329,192,115270,1,0,0:0:0:0:
475,192,115270,1,0,0:0:0:0:
182,192,115449,128,0,115538:0:0:0:0:
402,192,115449,1,0,0:0:0:0:
109,192,115627,1,0,0:0:0:0:
329,192,115627,1,0,0:0:0:0:
36,192,115627,128,0,115717:0:0:0:0:
182,192,115806,1,0,0:0:0:0:
256,192,115806,128,0,115895:0:0:0:0:
475,192,115985,1,0,0:0:0:0:
329,192,115985,1,0,0:0:0:0:
256,192,115985,128,0,116074:0:0:0:0:
109,192,115985,1,0,0:0:0:0:
402,192,116163,1,0,0:0:0:0:
256,192,116163,128,0,116252:0:0:0:0:
109,192,116342,1,0,0:0:0:0:
36,192,116342,128,0,116431:0:0:0:0:
329,192,116342,1,0,0:0:0:0:
256,192,116431,1,0,0:0:0:0:
475,192,116520,128,0,116610:0:0:0:0:
182,192,116520,1,0,0:0:0:0:
402,192,116699,1,0,0:0:0:0:
36,192,116699,1,0,0:0:0:0:
329,192,116699,128,0,116788:0:0:0:0:
109,192,116699,1,0,0:0:0:0:
182,192,116877,1,0,0:0:0:0:
36,192,116877,128,0,116967:0:0:0:0:
256,192,117056,128,0,117145:0:0:0:0:
475,192,117056,1,0,0:0:0:0:
402,192,117235,128,0,117324:0:0:0:0:
182,192,117235,1,0,0:0:0:0:
36,192,117235,1,0,0:0:0:0:
402,192,117413,128,0,117502:0:0:0:0:
109,192,117413,1,0,0:0:0:0:
402,192,117592,128,0,117681:0:0:0:0:
36,192,117592,1,0,0:0:0:0:
256,192,117681,1,0,0:0:0:0:
109,192,117770,128,0,117949:0:0:0:0:
402,192,117949,1,0,0:0:0:0:
109,192,118127,128,0,118306:0:0:0:0:
402,192,118306,1,0,0:0:0:0:
109,192,118485,128,0,118663:0:0:0:0:
402,192,118663,1,0,0:0:0:0:
109,192,118842,128,0,119020:0:0:0:0:
402,192,119020,1,0,0:0:0:0:
329,192,119199,128,0,119377:0:0:0:0:
182,192,119377,1,0,0:0:0:0:
329,192,119556,128,0,119735:0:0:0:0:
182,192,119735,1,0,0:0:0:0:
329,192,119913,128,0,120092:0:0:0:0:
182,192,120092,1,0,0:0:0:0:
329,192,120270,128,0,120449:0:0:0:0:
182,192,120449,1,0,0:0:0:0:
36,192,120627,128,0,120806:0:0:0:0:
475,192,120806,1,0,0:0:0:0:
36,192,120985,128,0,121163:0:0:0:0:
475,192,121163,1,0,0:0:0:0:
36,192,121342,128,0,121520:0:0:0:0:
475,192,121520,1,0,0:0:0:0:
36,192,121699,128,0,121877:0:0:0:0:
475,192,121877,1,0,0:0:0:0:
402,192,122056,128,0,122235:0:0:0:0:
109,192,122235,1,0,0:0:0:0:
402,192,122413,128,0,122592:0:0:0:0:
109,192,122592,1,0,0:0:0:0:
36,192,122770,1,0,0:0:0:0:
109,192,122770,1,0,0:0:0:0:
475,192,122770,1,0,0:0:0:0:
402,192,122770,1,0,0:0:0:0:
402,192,122949,1,0,0:0:0:0:
256,192,122949,1,0,0:0:0:0:
329,192,123127,1,0,0:0:0:0:
182,192,123127,1,0,0:0:0:0:
256,192,123306,1,0,0:0:0:0:
109,192,123306,1,0,0:0:0:0:
475,192,123485,1,0,0:0:0:0:
329,192,123485,1,0,0:0:0:0:
182,192,123485,1,0,0:0:0:0:
36,192,123485,1,0,0:0:0:0:
256,192,123663,1,0,0:0:0:0:
402,192,123663,1,0,0:0:0:0:
329,192,123842,1,0,0:0:0:0:
182,192,123842,1,0,0:0:0:0:
109,192,123842,1,0,0:0:0:0:
475,192,123842,1,0,0:0:0:0:
256,192,124020,1,0,0:0:0:0:
402,192,124020,1,0,0:0:0:0:
329,192,124199,1,0,0:0:0:0:
182,192,124199,1,0,0:0:0:0:
109,192,124377,1,0,0:0:0:0:
256,192,124377,1,0,0:0:0:0:
182,192,124556,1,0,0:0:0:0:
329,192,124556,1,0,0:0:0:0:
402,192,124556,1,0,0:0:0:0:
36,192,124556,1,0,0:0:0:0:
475,192,124735,1,0,0:0:0:0:
256,192,124735,1,0,0:0:0:0:
329,192,124913,1,0,0:0:0:0:
109,192,124913,1,0,0:0:0:0:
36,192,125092,1,0,0:0:0:0:
256,192,125092,1,0,0:0:0:0:
182,192,125270,1,0,0:0:0:0:
109,192,125270,1,0,0:0:0:0:
402,192,125270,1,0,0:0:0:0:
475,192,125270,1,0,0:0:0:0:
256,192,125449,1,0,0:0:0:0:
36,192,125449,1,0,0:0:0:0:
109,192,125627,1,0,0:0:0:0:
329,192,125627,1,0,0:0:0:0:
182,192,125806,1,0,0:0:0:0:
402,192,125806,1,0,0:0:0:0:
329,192,125985,1,0,0:0:0:0:
109,192,125985,1,0,0:0:0:0:
36,192,125985,1,0,0:0:0:0:
475,192,125985,1,0,0:0:0:0:
402,192,126163,1,0,0:0:0:0:
182,192,126163,1,0,0:0:0:0:
329,192,126342,1,0,0:0:0:0:
109,192,126342,1,0,0:0:0:0:
256,192,126520,1,0,0:0:0:0:
36,192,126520,1,0,0:0:0:0:
109,192,126699,1,0,0:0:0:0:
329,192,126699,1,0,0:0:0:0:
475,192,126699,1,0,0:0:0:0:
182,192,126699,1,0,0:0:0:0:
36,192,126877,1,0,0:0:0:0:
256,192,126877,1,0,0:0:0:0:
109,192,127056,1,0,0:0:0:0:
329,192,127056,1,0,0:0:0:0:
182,192,127235,1,0,0:0:0:0:
402,192,127235,1,0,0:0:0:0:
329,192,127413,1,0,0:0:0:0:
256,192,127413,1,0,0:0:0:0:
109,192,127413,1,0,0:0:0:0:
36,192,127413,1,0,0:0:0:0:
402,192,127592,1,0,0:0:0:0:
182,192,127592,1,0,0:0:0:0:
329,192,127770,1,0,0:0:0:0:
109,192,127770,1,0,0:0:0:0:
256,192,127949,1,0,0:0:0:0:
36,192,127949,1,0,0:0:0:0:
109,192,128127,1,0,0:0:0:0:
182,192,128127,1,0,0:0:0:0:
329,192,128127,1,0,0:0:0:0:
475,192,128127,1,0,0:0:0:0:
36,192,128306,1,0,0:0:0:0:
402,192,128306,1,0,0:0:0:0:
109,192,128485,1,0,0:0:0:0:
329,192,128485,1,0,0:0:0:0:
182,192,128663,1,0,0:0:0:0:
402,192,128663,1,0,0:0:0:0:
109,192,128842,1,0,0:0:0:0:
36,192,128842,1,0,0:0:0:0:
475,192,128842,1,0,0:0:0:0:
329,192,128842,1,0,0:0:0:0:
109,192,129020,1,0,0:0:0:0:
182,192,129020,1,0,0:0:0:0:
329,192,129110,1,0,0:0:0:0:
402,192,129110,1,0,0:0:0:0:
475,192,129199,128,0,129377:0:0:0:0:
182,192,129199,1,0,0:0:0:0:
109,192,129199,1,0,0:0:0:0:
329,192,129377,128,0,129556:0:0:0:0:
182,192,129377,1,0,0:0:0:0:
475,192,129556,128,0,129735:0:0:0:0:
256,192,129556,1,0,0:0:0:0:
36,192,129556,1,0,0:0:0:0:
109,192,129556,1,0,0:0:0:0:
329,192,129735,128,0,129913:0:0:0:0:
182,192,129735,1,0,0:0:0:0:
475,192,129913,128,0,130092:0:0:0:0:
256,192,129913,1,0,0:0:0:0:
109,192,129913,1,0,0:0:0:0:
329,192,130092,128,0,130270:0:0:0:0:
182,192,130092,1,0,0:0:0:0:
36,192,130092,1,0,0:0:0:0:
475,192,130270,128,0,130449:0:0:0:0:
256,192,130270,1,0,0:0:0:0:
109,192,130270,1,0,0:0:0:0:
402,192,130270,1,0,0:0:0:0:
329,192,130449,128,0,130627:0:0:0:0:
182,192,130449,1,0,0:0:0:0:
475,192,130627,128,0,130806:0:0:0:0:
109,192,130627,1,0,0:0:0:0:
36,192,130627,1,0,0:0:0:0:
402,192,130806,128,0,130985:0:0:0:0:
256,192,130806,1,0,0:0:0:0:
182,192,130806,1,0,0:0:0:0:
475,192,130985,128,0,131163:0:0:0:0:
329,192,130985,1,0,0:0:0:0:
109,192,130985,1,0,0:0:0:0:
36,192,130985,1,0,0:0:0:0:
329,192,131163,128,0,131342:0:0:0:0:
182,192,131163,1,0,0:0:0:0:
475,192,131342,128,0,131520:0:0:0:0:
109,192,131342,1,0,0:0:0:0:
256,192,131342,1,0,0:0:0:0:
329,192,131520,128,0,131699:0:0:0:0:
182,192,131520,1,0,0:0:0:0:
36,192,131520,1,0,0:0:0:0:
475,192,131699,128,0,131877:0:0:0:0:
256,192,131699,1,0,0:0:0:0:
109,192,131699,1,0,0:0:0:0:
402,192,131699,1,0,0:0:0:0:
329,192,131877,128,0,132056:0:0:0:0:
182,192,131877,1,0,0:0:0:0:
36,192,132056,128,0,132235:0:0:0:0:
475,192,132056,1,0,0:0:0:0:
256,192,132056,1,0,0:0:0:0:
182,192,132235,128,0,132413:0:0:0:0:
402,192,132235,1,0,0:0:0:0:
109,192,132235,1,0,0:0:0:0:
36,192,132413,128,0,132592:0:0:0:0:
256,192,132413,1,0,0:0:0:0:
475,192,132413,1,0,0:0:0:0:
329,192,132413,1,0,0:0:0:0:
182,192,132592,128,0,132770:0:0:0:0:
402,192,132592,1,0,0:0:0:0:
36,192,132770,128,0,132949:0:0:0:0:
329,192,132770,1,0,0:0:0:0:
475,192,132770,1,0,0:0:0:0:
182,192,132949,128,0,133127:0:0:0:0:
109,192,132949,1,0,0:0:0:0:
402,192,132949,1,0,0:0:0:0:
36,192,133127,128,0,133306:0:0:0:0:
475,192,133127,1,0,0:0:0:0:
256,192,133127,1,0,0:0:0:0:
329,192,133127,1,0,0:0:0:0:
182,192,133306,128,0,133485:0:0:0:0:
109,192,133306,1,0,0:0:0:0:
36,192,133485,128,0,133663:0:0:0:0:
475,192,133485,1,0,0:0:0:0:
329,192,133485,1,0,0:0:0:0:
109,192,133663,128,0,133842:0:0:0:0:
256,192,133663,1,0,0:0:0:0:
182,192,133842,128,0,134020:0:0:0:0:
329,192,133842,1,0,0:0:0:0:
475,192,133842,1,0,0:0:0:0:
402,192,133842,1,0,0:0:0:0:
36,192,134020,128,0,134199:0:0:0:0:
256,192,134020,1,0,0:0:0:0:
182,192,134199,128,0,134377:0:0:0:0:
329,192,134199,1,0,0:0:0:0:
402,192,134199,1,0,0:0:0:0:
475,192,134377,1,0,0:0:0:0:
256,192,134377,1,0,0:0:0:0:
36,192,134377,128,0,134556:0:0:0:0:
182,192,134556,128,0,134735:0:0:0:0:
402,192,134556,1,0,0:0:0:0:
109,192,134556,1,0,0:0:0:0:
329,192,134556,1,0,0:0:0:0:
402,192,134735,1,0,0:0:0:0:
475,192,134735,1,0,0:0:0:0:
109,192,134824,1,0,0:0:0:0:
36,192,134824,1,0,0:0:0:0:
475,192,134913,128,0,137770:0:0:0:0:
402,192,134913,1,0,0:0:0:0:
36,192,134913,128,0,137770:0:0:0:0:
182,192,135092,1,0,0:0:0:0:
329,192,135092,1,0,0:0:0:0:
256,192,135270,1,0,0:0:0:0:
109,192,135270,1,0,0:0:0:0:
402,192,135270,1,0,0:0:0:0:
329,192,135449,1,0,0:0:0:0:
182,192,135627,1,0,0:0:0:0:
109,192,135627,1,0,0:0:0:0:
256,192,135806,1,0,0:0:0:0:
329,192,135985,1,0,0:0:0:0:
402,192,135985,1,0,0:0:0:0:
182,192,135985,1,0,0:0:0:0:
256,192,136163,1,0,0:0:0:0:
109,192,136342,1,0,0:0:0:0:
182,192,136342,1,0,0:0:0:0:
329,192,136520,1,0,0:0:0:0:
256,192,136699,1,0,0:0:0:0:
182,192,136699,1,0,0:0:0:0:
402,192,136699,1,0,0:0:0:0:
109,192,136877,1,0,0:0:0:0:
329,192,136997,1,0,0:0:0:0:
109,192,137056,1,0,0:0:0:0:
182,192,137056,1,0,0:0:0:0:
402,192,137145,1,0,0:0:0:0:
256,192,137235,1,0,0:0:0:0:
182,192,137235,1,0,0:0:0:0:
109,192,137413,1,0,0:0:0:0:
329,192,137413,1,0,0:0:0:0:
402,192,137413,1,0,0:0:0:0:
256,192,137592,1,0,0:0:0:0:
182,192,137770,128,0,139199:0:0:0:0:
329,192,137770,128,0,139199:0:0:0:0:
109,192,137949,1,0,0:0:0:0:
256,192,138127,1,0,0:0:0:0:
402,192,138127,1,0,0:0:0:0:
475,192,138127,1,0,0:0:0:0:
109,192,138306,1,0,0:0:0:0:
402,192,138485,1,0,0:0:0:0:
475,192,138485,1,0,0:0:0:0:
109,192,138574,1,0,0:0:0:0:
36,192,138574,1,0,0:0:0:0:
475,192,138842,128,0,139110:0:0:0:0:
36,192,138842,128,0,139110:0:0:0:0:
256,192,138842,1,0,0:0:0:0:
402,192,138842,1,0,0:0:0:0:
402,192,139199,1,0,0:0:0:0:
475,192,139199,1,0,0:0:0:0:
36,192,139288,1,0,0:0:0:0:
109,192,139288,1,0,0:0:0:0:
402,192,139377,1,0,0:0:0:0:
475,192,139377,1,0,0:0:0:0:
109,192,139467,1,0,0:0:0:0:
36,192,139467,1,0,0:0:0:0:
329,192,139556,1,0,0:0:0:0:
402,192,139556,1,0,0:0:0:0:
182,192,139645,1,0,0:0:0:0:
109,192,139645,1,0,0:0:0:0:
329,192,139735,1,0,0:0:0:0:
402,192,139735,1,0,0:0:0:0:
182,192,139824,1,0,0:0:0:0:
109,192,139824,1,0,0:0:0:0:
329,192,139913,1,0,0:0:0:0:
475,192,139913,1,0,0:0:0:0:
182,192,139913,1,0,0:0:0:0:
36,192,139913,1,0,0:0:0:0:
329,192,140092,1,0,0:0:0:0:
475,192,140092,1,0,0:0:0:0:
182,192,140092,1,0,0:0:0:0:
36,192,140092,1,0,0:0:0:0:
109,192,140627,1,0,0:0:0:0:
182,192,140627,1,0,0:0:0:0:
256,192,140627,1,0,0:0:0:0:
329,192,140627,1,0,0:0:0:0:
475,192,140627,1,0,0:0:0:0:
402,192,140627,1,0,0:0:0:0:
329,192,140806,1,0,0:0:0:0:
402,192,140806,1,0,0:0:0:0:
182,192,140895,1,0,0:0:0:0:
109,192,140895,1,0,0:0:0:0:
329,192,140985,1,0,0:0:0:0:
402,192,140985,1,0,0:0:0:0:
402,192,141252,1,0,0:0:0:0:
475,192,141252,1,0,0:0:0:0:
182,192,141342,1,0,0:0:0:0:
109,192,141342,1,0,0:0:0:0:
329,192,141431,1,0,0:0:0:0:
402,192,141431,1,0,0:0:0:0:
109,192,141520,1,0,0:0:0:0:
36,192,141520,1,0,0:0:0:0:
329,192,141699,1,0,0:0:0:0:
475,192,141699,1,0,0:0:0:0:
182,192,141788,1,0,0:0:0:0:
36,192,141788,1,0,0:0:0:0:
329,192,141877,1,0,0:0:0:0:
475,192,141877,1,0,0:0:0:0:
182,192,141967,1,0,0:0:0:0:
36,192,141967,1,0,0:0:0:0:
256,192,142056,1,0,0:0:0:0:
109,192,142056,1,0,0:0:0:0:
402,192,142056,1,0,0:0:0:0:
402,192,142235,1,0,0:0:0:0:
475,192,142235,1,0,0:0:0:0:
182,192,142324,1,0,0:0:0:0:
109,192,142324,1,0,0:0:0:0:
402,192,142413,1,0,0:0:0:0:
475,192,142413,1,0,0:0:0:0:
36,192,142681,1,0,0:0:0:0:
109,192,142681,1,0,0:0:0:0:
329,192,142770,1,0,0:0:0:0:
402,192,142770,1,0,0:0:0:0:
109,192,142860,1,0,0:0:0:0:
182,192,142860,1,0,0:0:0:0:
402,192,142949,1,0,0:0:0:0:
475,192,142949,1,0,0:0:0:0:
182,192,143127,1,0,0:0:0:0:
36,192,143127,1,0,0:0:0:0:
329,192,143217,1,0,0:0:0:0:
475,192,143217,1,0,0:0:0:0:
182,192,143306,1,0,0:0:0:0:
36,192,143306,1,0,0:0:0:0:
329,192,143395,1,0,0:0:0:0:
475,192,143395,1,0,0:0:0:0:
402,192,143485,1,0,0:0:0:0:
256,192,143485,1,0,0:0:0:0:
109,192,143485,1,0,0:0:0:0:
36,192,143485,1,0,0:0:0:0:
182,192,143485,1,0,0:0:0:0:
329,192,143485,1,0,0:0:0:0:
402,192,143663,1,0,0:0:0:0:
475,192,143663,1,0,0:0:0:0:
36,192,143752,1,0,0:0:0:0:
109,192,143752,1,0,0:0:0:0:
402,192,143842,1,0,0:0:0:0:
475,192,143842,1,0,0:0:0:0:
329,192,144110,1,0,0:0:0:0:
402,192,144110,1,0,0:0:0:0:
109,192,144199,1,0,0:0:0:0:
36,192,144199,1,0,0:0:0:0:
475,192,144288,1,0,0:0:0:0:
402,192,144288,1,0,0:0:0:0:
182,192,144377,1,0,0:0:0:0:
109,192,144377,1,0,0:0:0:0:
329,192,144556,1,0,0:0:0:0:
402,192,144556,1,0,0:0:0:0:
109,192,144645,1,0,0:0:0:0:
36,192,144645,1,0,0:0:0:0:
329,192,144735,1,0,0:0:0:0:
402,192,144735,1,0,0:0:0:0:
109,192,144824,1,0,0:0:0:0:
36,192,144824,1,0,0:0:0:0:
256,192,144913,1,0,0:0:0:0:
475,192,144913,1,0,0:0:0:0:
36,192,144913,1,0,0:0:0:0:
109,192,145092,1,0,0:0:0:0:
182,192,145092,1,0,0:0:0:0:
329,192,145181,1,0,0:0:0:0:
402,192,145181,1,0,0:0:0:0:
36,192,145270,1,0,0:0:0:0:
109,192,145270,1,0,0:0:0:0:
402,192,145538,1,0,0:0:0:0:
475,192,145538,1,0,0:0:0:0:
182,192,145627,1,0,0:0:0:0:
109,192,145627,1,0,0:0:0:0:
402,192,145717,1,0,0:0:0:0:
475,192,145717,1,0,0:0:0:0:
109,192,145806,1,0,0:0:0:0:
182,192,145806,1,0,0:0:0:0:
256,192,145985,1,0,0:0:0:0:
475,192,145985,1,0,0:0:0:0:
36,192,145985,1,0,0:0:0:0:
329,192,146074,1,0,0:0:0:0:
402,192,146074,1,0,0:0:0:0:
182,192,146163,1,0,0:0:0:0:
109,192,146163,1,0,0:0:0:0:
329,192,146252,1,0,0:0:0:0:
402,192,146252,1,0,0:0:0:0:
256,192,146342,1,0,0:0:0:0:
36,192,146342,1,0,0:0:0:0:
475,192,146342,1,0,0:0:0:0:
182,192,146520,1,0,0:0:0:0:
109,192,146520,1,0,0:0:0:0:
329,192,146610,1,0,0:0:0:0:
402,192,146610,1,0,0:0:0:0:
109,192,146699,1,0,0:0:0:0:
36,192,146699,1,0,0:0:0:0:
329,192,146967,1,0,0:0:0:0:
475,192,146967,1,0,0:0:0:0:
182,192,147056,1,0,0:0:0:0:
36,192,147056,1,0,0:0:0:0:
329,192,147145,1,0,0:0:0:0:
475,192,147145,1,0,0:0:0:0:
182,192,147235,1,0,0:0:0:0:
36,192,147235,1,0,0:0:0:0:
402,192,147413,1,0,0:0:0:0:
329,192,147413,1,0,0:0:0:0:
182,192,147502,1,0,0:0:0:0:
109,192,147502,1,0,0:0:0:0:
329,192,147592,1,0,0:0:0:0:
402,192,147592,1,0,0:0:0:0:
182,192,147681,1,0,0:0:0:0:
109,192,147681,1,0,0:0:0:0:
256,192,147770,1,0,0:0:0:0:
402,192,147770,1,0,0:0:0:0:
475,192,147770,1,0,0:0:0:0:
36,192,147770,1,0,0:0:0:0:
109,192,147770,1,0,0:0:0:0:
475,192,147949,1,0,0:0:0:0:
329,192,147949,1,0,0:0:0:0:
182,192,148038,1,0,0:0:0:0:
36,192,148038,1,0,0:0:0:0:
329,192,148127,1,0,0:0:0:0:
475,192,148127,1,0,0:0:0:0:
256,192,148306,1,0,0:0:0:0:
109,192,148395,1,0,0:0:0:0:
36,192,148395,1,0,0:0:0:0:
329,192,148485,1,0,0:0:0:0:
402,192,148485,1,0,0:0:0:0:
109,192,148574,1,0,0:0:0:0:
36,192,148574,1,0,0:0:0:0:
329,192,148663,1,0,0:0:0:0:
402,192,148663,1,0,0:0:0:0:
36,192,148842,1,0,0:0:0:0:
475,192,148842,1,0,0:0:0:0:
256,192,148842,1,0,0:0:0:0:
329,192,149020,1,0,0:0:0:0:
402,192,149020,1,0,0:0:0:0:
109,192,149110,1,0,0:0:0:0:
182,192,149110,1,0,0:0:0:0:
329,192,149199,1,0,0:0:0:0:
402,192,149199,1,0,0:0:0:0:
182,192,149377,1,0,0:0:0:0:
36,192,149377,1,0,0:0:0:0:
329,192,149467,1,0,0:0:0:0:
475,192,149467,1,0,0:0:0:0:
182,192,149556,1,0,0:0:0:0:
36,192,149556,1,0,0:0:0:0:
256,192,149735,1,0,0:0:0:0:
402,192,149824,1,0,0:0:0:0:
475,192,149824,1,0,0:0:0:0:
109,192,149913,1,0,0:0:0:0:
36,192,149913,1,0,0:0:0:0:
402,192,150002,1,0,0:0:0:0:
475,192,150002,1,0,0:0:0:0:
109,192,150092,1,0,0:0:0:0:
36,192,150092,1,0,0:0:0:0:
329,192,150270,1,0,0:0:0:0:
402,192,150270,1,0,0:0:0:0:
182,192,150360,1,0,0:0:0:0:
109,192,150360,1,0,0:0:0:0:
329,192,150449,1,0,0:0:0:0:
402,192,150449,1,0,0:0:0:0:
182,192,150538,1,0,0:0:0:0:
109,192,150538,1,0,0:0:0:0:
475,192,150627,128,0,150806:0:0:0:0:
36,192,150627,1,0,0:0:0:0:
109,192,150717,1,0,0:0:0:0:
402,192,150806,128,0,150985:0:0:0:0:
182,192,150806,1,0,0:0:0:0:
109,192,150895,1,0,0:0:0:0:
329,192,150985,128,0,151163:0:0:0:0:
36,192,150985,1,0,0:0:0:0:
109,192,151074,1,0,0:0:0:0:
256,192,151163,128,0,151342:0:0:0:0:
182,192,151163,1,0,0:0:0:0:
36,192,151342,128,0,151520:0:0:0:0:
475,192,151342,1,0,0:0:0:0:
402,192,151431,1,0,0:0:0:0:
109,192,151520,128,0,151699:0:0:0:0:
329,192,151520,1,0,0:0:0:0:
256,192,151610,1,0,0:0:0:0:
182,192,151699,128,0,151877:0:0:0:0:
329,192,151699,1,0,0:0:0:0:
402,192,151788,1,0,0:0:0:0:
256,192,151877,128,0,152056:0:0:0:0:
475,192,151877,1,0,0:0:0:0:
402,192,151967,1,0,0:0:0:0:
329,192,152056,1,0,0:0:0:0:
36,192,152056,128,0,153485:0:0:0:0:
109,192,152056,1,0,0:0:0:0:
402,192,152235,1,0,0:0:0:0:
475,192,152235,1,0,0:0:0:0:
256,192,152235,1,0,0:0:0:0:
182,192,152413,1,0,0:0:0:0:
402,192,152592,1,0,0:0:0:0:
329,192,152592,1,0,0:0:0:0:
109,192,152592,1,0,0:0:0:0:
475,192,152770,1,0,0:0:0:0:
256,192,152949,1,0,0:0:0:0:
182,192,152949,1,0,0:0:0:0:
402,192,152949,1,0,0:0:0:0:
109,192,153127,1,0,0:0:0:0:
329,192,153306,1,0,0:0:0:0:
402,192,153306,1,0,0:0:0:0:
182,192,153306,1,0,0:0:0:0:
475,192,153485,128,0,154913:0:0:0:0:
256,192,153485,1,0,0:0:0:0:
109,192,153485,1,0,0:0:0:0:
182,192,153663,1,0,0:0:0:0:
36,192,153663,1,0,0:0:0:0:
402,192,153663,1,0,0:0:0:0:
256,192,153842,1,0,0:0:0:0:
109,192,154020,1,0,0:0:0:0:
182,192,154020,1,0,0:0:0:0:
329,192,154020,1,0,0:0:0:0:
36,192,154199,1,0,0:0:0:0:
109,192,154377,1,0,0:0:0:0:
256,192,154377,1,0,0:0:0:0:
402,192,154377,1,0,0:0:0:0:
329,192,154556,1,0,0:0:0:0:
109,192,154735,1,0,0:0:0:0:
36,192,154735,1,0,0:0:0:0:
256,192,154735,1,0,0:0:0:0:
182,192,154913,128,0,156342:0:0:0:0:
402,192,154913,1,0,0:0:0:0:
109,192,155092,1,0,0:0:0:0:
36,192,155092,1,0,0:0:0:0:
329,192,155092,1,0,0:0:0:0:
256,192,155270,1,0,0:0:0:0:
109,192,155449,1,0,0:0:0:0:
36,192,155449,1,0,0:0:0:0:
402,192,155449,1,0,0:0:0:0:
475,192,155627,1,0,0:0:0:0:
402,192,155806,1,0,0:0:0:0:
329,192,155806,1,0,0:0:0:0:
109,192,155806,1,0,0:0:0:0:
256,192,155985,1,0,0:0:0:0:
109,192,156163,1,0,0:0:0:0:
36,192,156163,1,0,0:0:0:0:
475,192,156163,1,0,0:0:0:0:
329,192,156342,1,0,0:0:0:0:
402,192,156520,1,0,0:0:0:0:
475,192,156520,1,0,0:0:0:0:
109,192,156520,1,0,0:0:0:0:
256,192,156699,1,0,0:0:0:0:
329,192,156877,1,0,0:0:0:0:
182,192,156877,1,0,0:0:0:0:
402,192,156877,1,0,0:0:0:0:
36,192,157056,1,0,0:0:0:0:
109,192,157235,1,0,0:0:0:0:
475,192,157235,1,0,0:0:0:0:
256,192,157235,1,0,0:0:0:0:
182,192,157413,1,0,0:0:0:0:
329,192,157592,1,0,0:0:0:0:
402,192,157592,1,0,0:0:0:0:
182,192,157681,1,0,0:0:0:0:
109,192,157681,1,0,0:0:0:0:
475,192,157770,128,0,159199:0:0:0:0:
256,192,157770,1,0,0:0:0:0:
402,192,157949,1,0,0:0:0:0:
109,192,157949,1,0,0:0:0:0:
36,192,157949,1,0,0:0:0:0:
256,192,158127,1,0,0:0:0:0:
402,192,158306,1,0,0:0:0:0:
36,192,158306,1,0,0:0:0:0:
109,192,158306,1,0,0:0:0:0:
329,192,158485,1,0,0:0:0:0:
402,192,158663,1,0,0:0:0:0:
182,192,158663,1,0,0:0:0:0:
109,192,158663,1,0,0:0:0:0:
329,192,158842,1,0,0:0:0:0:
402,192,159020,1,0,0:0:0:0:
182,192,159020,1,0,0:0:0:0:
109,192,159020,1,0,0:0:0:0:
36,192,159199,128,0,160627:0:0:0:0:
256,192,159199,1,0,0:0:0:0:
329,192,159377,1,0,0:0:0:0:
402,192,159377,1,0,0:0:0:0:
109,192,159377,1,0,0:0:0:0:
256,192,159556,1,0,0:0:0:0:
329,192,159735,1,0,0:0:0:0:
402,192,159735,1,0,0:0:0:0:
109,192,159735,1,0,0:0:0:0:
182,192,159913,1,0,0:0:0:0:
402,192,160092,1,0,0:0:0:0:
475,192,160092,1,0,0:0:0:0:
256,192,160092,1,0,0:0:0:0:
182,192,160270,1,0,0:0:0:0:
256,192,160449,1,0,0:0:0:0:
402,192,160449,1,0,0:0:0:0:
475,192,160449,1,0,0:0:0:0:
329,192,160627,128,0,162056:0:0:0:0:
182,192,160627,1,0,0:0:0:0:
402,192,160806,1,0,0:0:0:0:
36,192,160806,1,0,0:0:0:0:
109,192,160806,1,0,0:0:0:0:
182,192,160985,1,0,0:0:0:0:
402,192,161163,1,0,0:0:0:0:
109,192,161163,1,0,0:0:0:0:
36,192,161163,1,0,0:0:0:0:
256,192,161342,1,0,0:0:0:0:
109,192,161520,1,0,0:0:0:0:
182,192,161520,1,0,0:0:0:0:
402,192,161520,1,0,0:0:0:0:
256,192,161699,1,0,0:0:0:0:
36,192,161788,1,0,0:0:0:0:
109,192,161877,1,0,0:0:0:0:
182,192,161967,1,0,0:0:0:0:
256,192,162056,1,0,0:0:0:0:
402,192,162056,1,0,0:0:0:0:
109,192,162056,1,0,0:0:0:0:
402,192,162235,1,0,0:0:0:0:
256,192,162235,1,0,0:0:0:0:
109,192,162235,1,0,0:0:0:0:
329,192,162413,1,0,0:0:0:0:
475,192,162413,1,0,0:0:0:0:
182,192,162413,1,0,0:0:0:0:
36,192,162413,1,0,0:0:0:0:
36,192,162592,1,0,0:0:0:0:
182,192,162592,1,0,0:0:0:0:
329,192,162592,1,0,0:0:0:0:
475,192,162592,1,0,0:0:0:0:
256,192,162770,1,0,0:0:0:0:
402,192,162770,1,0,0:0:0:0:
109,192,162770,1,0,0:0:0:0:
329,192,162949,1,0,0:0:0:0:
402,192,162949,1,0,0:0:0:0:
36,192,163038,1,0,0:0:0:0:
109,192,163038,1,0,0:0:0:0:
329,192,163127,1,0,0:0:0:0:
402,192,163127,1,0,0:0:0:0:
182,192,163217,1,0,0:0:0:0:
109,192,163217,1,0,0:0:0:0:
402,192,163306,1,0,0:0:0:0:
475,192,163306,1,0,0:0:0:0:
36,192,163485,1,0,0:0:0:0:
109,192,163842,1,0,0:0:0:0:
182,192,164199,1,0,0:0:0:0:
256,192,164556,1,0,0:0:0:0:
475,192,164913,1,0,0:0:0:0:
402,192,165270,1,0,0:0:0:0:
329,192,165627,1,0,0:0:0:0:
256,192,165985,1,0,0:0:0:0:
329,192,168127,1,0,0:0:0:0:
475,192,168127,128,0,168485:0:0:0:0:
36,192,168127,1,0,0:0:0:0:
402,192,168306,1,0,0:0:0:0:
182,192,168306,1,0,0:0:0:0:
109,192,168306,1,0,0:0:0:0:
329,192,168485,1,0,0:0:0:0:
256,192,168485,1,0,0:0:0:0:
109,192,168485,1,0,0:0:0:0:
36,192,168485,128,0,168842:0:0:0:0:
182,192,168663,1,0,0:0:0:0:
475,192,168663,1,0,0:0:0:0:
402,192,168663,1,0,0:0:0:0:
475,192,168842,1,0,0:0:0:0:
256,192,168842,1,0,0:0:0:0:
109,192,168842,1,0,0:0:0:0:
182,192,169020,1,0,0:0:0:0:
329,192,169020,1,0,0:0:0:0:
109,192,169110,1,0,0:0:0:0:
402,192,169110,1,0,0:0:0:0:
36,192,169199,1,0,0:0:0:0:
475,192,169199,1,0,0:0:0:0:
402,192,169288,1,0,0:0:0:0:
109,192,169288,1,0,0:0:0:0:
182,192,169377,1,0,0:0:0:0:
329,192,169377,1,0,0:0:0:0:
256,192,169467,1,0,0:0:0:0:
329,192,169556,5,0,0:0:0:0:
475,192,169556,128,0,169735:0:0:0:0:
109,192,169556,1,0,0:0:0:0:
182,192,169735,1,0,0:0:0:0:
402,192,169735,128,0,169913:0:0:0:0:
109,192,169913,1,0,0:0:0:0:
475,192,169913,1,0,0:0:0:0:
36,192,169913,1,0,0:0:0:0:
329,192,169913,128,0,170092:0:0:0:0:
36,192,170092,1,0,0:0:0:0:
256,192,170092,128,0,170270:0:0:0:0:
109,192,170270,1,0,0:0:0:0:
182,192,170270,1,0,0:0:0:0:
329,192,170270,128,0,170449:0:0:0:0:
256,192,170449,1,0,0:0:0:0:
402,192,170449,128,0,170806:0:0:0:0:
329,192,170627,1,0,0:0:0:0:
36,192,170627,1,0,0:0:0:0:
109,192,170627,1,0,0:0:0:0:
182,192,170806,1,0,0:0:0:0:
475,192,170806,128,0,171163:0:0:0:0:
256,192,170985,1,0,0:0:0:0:
329,192,170985,1,0,0:0:0:0:
402,192,171163,128,0,171342:0:0:0:0:
182,192,171163,1,0,0:0:0:0:
475,192,171342,1,0,0:0:0:0:
36,192,171342,1,0,0:0:0:0:
329,192,171342,128,0,171431:0:0:0:0:
109,192,171342,1,0,0:0:0:0:
329,192,171520,128,0,171610:0:0:0:0:
256,192,171520,1,0,0:0:0:0:
402,192,171699,1,0,0:0:0:0:
109,192,171699,1,0,0:0:0:0:
182,192,171699,128,0,171788:0:0:0:0:
329,192,171877,1,0,0:0:0:0:
182,192,171877,128,0,171967:0:0:0:0:
36,192,172056,1,0,0:0:0:0:
256,192,172056,128,0,172413:0:0:0:0:
475,192,172056,1,0,0:0:0:0:
109,192,172056,1,0,0:0:0:0:
36,192,172413,1,0,0:0:0:0:
402,192,172413,1,0,0:0:0:0:
329,192,172413,128,0,172592:0:0:0:0:
182,192,172592,128,0,172770:0:0:0:0:
109,192,172592,1,0,0:0:0:0:
475,192,172770,1,0,0:0:0:0:
36,192,172770,128,0,172949:0:0:0:0:
256,192,172770,1,0,0:0:0:0:
402,192,172770,1,0,0:0:0:0:
182,192,172949,1,0,0:0:0:0:
109,192,172949,128,0,173127:0:0:0:0:
256,192,173127,1,0,0:0:0:0:
36,192,173127,1,0,0:0:0:0:
329,192,173127,128,0,173306:0:0:0:0:
182,192,173306,1,0,0:0:0:0:
402,192,173306,128,0,173663:0:0:0:0:
329,192,173485,1,0,0:0:0:0:
256,192,173485,1,0,0:0:0:0:
109,192,173485,1,0,0:0:0:0:
36,192,173663,1,0,0:0:0:0:
475,192,173663,128,0,174020:0:0:0:0:
329,192,173842,1,0,0:0:0:0:
182,192,173842,1,0,0:0:0:0:
402,192,174020,128,0,174199:0:0:0:0:
109,192,174020,1,0,0:0:0:0:
329,192,174199,128,0,174288:0:0:0:0:
182,192,174199,1,0,0:0:0:0:
36,192,174199,1,0,0:0:0:0:
256,192,174199,1,0,0:0:0:0:
402,192,174377,1,0,0:0:0:0:
329,192,174377,128,0,174467:0:0:0:0:
109,192,174556,1,0,0:0:0:0:
182,192,174556,128,0,174645:0:0:0:0:
475,192,174556,1,0,0:0:0:0:
402,192,174735,1,0,0:0:0:0:
182,192,174735,128,0,174824:0:0:0:0:
256,192,174913,1,0,0:0:0:0:
329,192,174913,1,0,0:0:0:0:
109,192,174913,1,0,0:0:0:0:
36,192,174913,128,0,175270:0:0:0:0:
475,192,175270,128,0,175449:0:0:0:0:
182,192,175270,1,0,0:0:0:0:
329,192,175270,1,0,0:0:0:0:
402,192,175449,128,0,175627:0:0:0:0:
36,192,175449,1,0,0:0:0:0:
329,192,175627,128,0,175806:0:0:0:0:
475,192,175627,1,0,0:0:0:0:
109,192,175627,1,0,0:0:0:0:
182,192,175627,1,0,0:0:0:0:
36,192,175806,1,0,0:0:0:0:
256,192,175806,128,0,175985:0:0:0:0:
182,192,175985,1,0,0:0:0:0:
329,192,175985,128,0,176163:0:0:0:0:
475,192,175985,1,0,0:0:0:0:
109,192,176163,1,0,0:0:0:0:
402,192,176163,128,0,176520:0:0:0:0:
36,192,176342,1,0,0:0:0:0:
329,192,176342,1,0,0:0:0:0:
182,192,176342,1,0,0:0:0:0:
256,192,176520,1,0,0:0:0:0:
475,192,176520,128,0,176877:0:0:0:0:
109,192,176699,1,0,0:0:0:0:
329,192,176699,1,0,0:0:0:0:
402,192,176877,128,0,177056:0:0:0:0:
182,192,176877,1,0,0:0:0:0:
329,192,177056,128,0,177145:0:0:0:0:
256,192,177056,1,0,0:0:0:0:
36,192,177056,1,0,0:0:0:0:
475,192,177056,1,0,0:0:0:0:
109,192,177235,1,0,0:0:0:0:
329,192,177235,128,0,177324:0:0:0:0:
402,192,177413,1,0,0:0:0:0:
256,192,177413,1,0,0:0:0:0:
182,192,177413,128,0,177502:0:0:0:0:
329,192,177592,1,0,0:0:0:0:
182,192,177592,128,0,177681:0:0:0:0:
109,192,177770,1,0,0:0:0:0:
475,192,177770,1,0,0:0:0:0:
402,192,177770,1,0,0:0:0:0:
36,192,177770,128,0,178127:0:0:0:0:
256,192,177949,1,0,0:0:0:0:
109,192,178127,128,0,178217:0:0:0:0:
329,192,178127,1,0,0:0:0:0:
475,192,178127,1,0,0:0:0:0:
402,192,178306,1,0,0:0:0:0:
182,192,178306,128,0,178395:0:0:0:0:
329,192,178485,1,0,0:0:0:0:
475,192,178485,1,0,0:0:0:0:
36,192,178485,1,0,0:0:0:0:
182,192,178485,128,0,178574:0:0:0:0:
402,192,178663,1,0,0:0:0:0:
182,192,178663,128,0,178752:0:0:0:0:
36,192,178842,128,0,178931:0:0:0:0:
329,192,178842,1,0,0:0:0:0:
109,192,178842,1,0,0:0:0:0:
256,192,179020,128,0,179110:0:0:0:0:
182,192,179020,1,0,0:0:0:0:
256,192,179199,128,0,179288:0:0:0:0:
109,192,179199,1,0,0:0:0:0:
475,192,179199,1,0,0:0:0:0:
329,192,179199,1,0,0:0:0:0:
256,192,179377,128,0,179467:0:0:0:0:
402,192,179377,1,0,0:0:0:0:
329,192,179556,1,0,0:0:0:0:
36,192,179556,128,0,179735:0:0:0:0:
109,192,179556,1,0,0:0:0:0:
182,192,179735,1,0,0:0:0:0:
475,192,179735,128,0,179913:0:0:0:0:
402,192,179913,1,0,0:0:0:0:
109,192,179913,1,0,0:0:0:0:
329,192,179913,128,0,180092:0:0:0:0:
36,192,179913,1,0,0:0:0:0:
182,192,180092,1,0,0:0:0:0:
475,192,180092,128,0,180627:0:0:0:0:
256,192,180181,1,0,0:0:0:0:
402,192,180270,1,0,0:0:0:0:
109,192,180270,1,0,0:0:0:0:
182,192,180360,1,0,0:0:0:0:
329,192,180449,1,0,0:0:0:0:
402,192,180538,1,0,0:0:0:0:
36,192,180627,1,0,0:0:0:0:
182,192,180627,1,0,0:0:0:0:
329,192,180627,1,0,0:0:0:0:
109,192,180717,1,0,0:0:0:0:
256,192,180717,1,0,0:0:0:0:
182,192,180806,1,0,0:0:0:0:
402,192,180806,1,0,0:0:0:0:
109,192,180895,1,0,0:0:0:0:
329,192,180895,1,0,0:0:0:0:
36,192,180985,1,0,0:0:0:0:
256,192,180985,1,0,0:0:0:0:
475,192,180985,128,0,181163:0:0:0:0:
182,192,181163,1,0,0:0:0:0:
402,192,181163,128,0,181342:0:0:0:0:
36,192,181342,1,0,0:0:0:0:
109,192,181342,1,0,0:0:0:0:
329,192,181342,128,0,181520:0:0:0:0:
475,192,181342,1,0,0:0:0:0:
182,192,181520,1,0,0:0:0:0:
256,192,181520,128,0,181699:0:0:0:0:
475,192,181699,1,0,0:0:0:0:
109,192,181699,1,0,0:0:0:0:
329,192,181699,128,0,181877:0:0:0:0:
36,192,181877,1,0,0:0:0:0:
402,192,181877,128,0,182235:0:0:0:0:
329,192,182056,1,0,0:0:0:0:
109,192,182056,1,0,0:0:0:0:
182,192,182056,1,0,0:0:0:0:
256,192,182235,1,0,0:0:0:0:
475,192,182235,128,0,182592:0:0:0:0:
329,192,182413,1,0,0:0:0:0:
36,192,182413,1,0,0:0:0:0:
182,192,182592,1,0,0:0:0:0:
402,192,182592,128,0,182770:0:0:0:0:
109,192,182770,1,0,0:0:0:0:
36,192,182770,1,0,0:0:0:0:
329,192,182770,128,0,182860:0:0:0:0:
256,192,182770,1,0,0:0:0:0:
402,192,182949,1,0,0:0:0:0:
329,192,182949,128,0,183038:0:0:0:0:
182,192,183127,128,0,183217:0:0:0:0:
36,192,183127,1,0,0:0:0:0:
256,192,183127,1,0,0:0:0:0:
182,192,183306,128,0,183395:0:0:0:0:
329,192,183306,1,0,0:0:0:0:
36,192,183485,1,0,0:0:0:0:
402,192,183485,1,0,0:0:0:0:
256,192,183485,128,0,183842:0:0:0:0:
109,192,183485,1,0,0:0:0:0:
182,192,183663,1,0,0:0:0:0:
109,192,183842,1,0,0:0:0:0:
475,192,183842,1,0,0:0:0:0:
329,192,183842,128,0,184020:0:0:0:0:
182,192,184020,1,0,0:0:0:0:
36,192,184020,128,0,184199:0:0:0:0:
402,192,184199,1,0,0:0:0:0:
475,192,184199,1,0,0:0:0:0:
109,192,184199,128,0,184377:0:0:0:0:
256,192,184199,1,0,0:0:0:0:
36,192,184377,1,0,0:0:0:0:
182,192,184377,128,0,184556:0:0:0:0:
475,192,184556,1,0,0:0:0:0:
256,192,184556,1,0,0:0:0:0:
329,192,184556,128,0,184735:0:0:0:0:
109,192,184735,1,0,0:0:0:0:
402,192,184735,128,0,185092:0:0:0:0:
329,192,184913,1,0,0:0:0:0:
36,192,184913,1,0,0:0:0:0:
182,192,184913,1,0,0:0:0:0:
256,192,185092,1,0,0:0:0:0:
475,192,185092,128,0,185449:0:0:0:0:
329,192,185270,1,0,0:0:0:0:
182,192,185270,1,0,0:0:0:0:
109,192,185449,1,0,0:0:0:0:
402,192,185449,128,0,185627:0:0:0:0:
475,192,185627,1,0,0:0:0:0:
36,192,185627,1,0,0:0:0:0:
329,192,185627,128,0,185717:0:0:0:0:
182,192,185627,1,0,0:0:0:0:
256,192,185806,1,0,0:0:0:0:
329,192,185806,128,0,185895:0:0:0:0:
402,192,185985,1,0,0:0:0:0:
109,192,185985,1,0,0:0:0:0:
182,192,185985,128,0,186074:0:0:0:0:
329,192,186163,1,0,0:0:0:0:
182,192,186163,128,0,186252:0:0:0:0:
36,192,186342,1,0,0:0:0:0:
475,192,186342,1,0,0:0:0:0:
402,192,186342,128,0,186699:0:0:0:0:
109,192,186342,1,0,0:0:0:0:
256,192,186520,1,0,0:0:0:0:
329,192,186699,1,0,0:0:0:0:
182,192,186699,1,0,0:0:0:0:
36,192,186699,128,0,186877:0:0:0:0:
109,192,186877,128,0,187056:0:0:0:0:
475,192,186877,1,0,0:0:0:0:
402,192,187056,1,0,0:0:0:0:
36,192,187056,1,0,0:0:0:0:
182,192,187056,128,0,187235:0:0:0:0:
256,192,187056,1,0,0:0:0:0:
475,192,187235,1,0,0:0:0:0:
329,192,187235,128,0,187413:0:0:0:0:
109,192,187413,1,0,0:0:0:0:
36,192,187413,1,0,0:0:0:0:
402,192,187413,128,0,187592:0:0:0:0:
475,192,187592,128,0,187949:0:0:0:0:
182,192,187592,1,0,0:0:0:0:
329,192,187770,1,0,0:0:0:0:
109,192,187770,1,0,0:0:0:0:
36,192,187770,1,0,0:0:0:0:
256,192,187949,1,0,0:0:0:0:
402,192,187949,128,0,188306:0:0:0:0:
475,192,188127,1,0,0:0:0:0:
109,192,188127,1,0,0:0:0:0:
329,192,188306,128,0,188485:0:0:0:0:
256,192,188306,1,0,0:0:0:0:
475,192,188485,1,0,0:0:0:0:
109,192,188485,1,0,0:0:0:0:
402,192,188485,1,0,0:0:0:0:
182,192,188485,128,0,188574:0:0:0:0:
256,192,188663,1,0,0:0:0:0:
182,192,188663,128,0,188752:0:0:0:0:
402,192,188842,1,0,0:0:0:0:
36,192,188842,128,0,188931:0:0:0:0:
329,192,188842,1,0,0:0:0:0:
256,192,189020,1,0,0:0:0:0:
36,192,189020,128,0,189110:0:0:0:0:
109,192,189199,128,0,189556:0:0:0:0:
475,192,189199,1,0,0:0:0:0:
182,192,189199,1,0,0:0:0:0:
329,192,189199,1,0,0:0:0:0:
402,192,189377,1,0,0:0:0:0:
36,192,189556,1,0,0:0:0:0:
329,192,189556,1,0,0:0:0:0:
475,192,189556,128,0,189645:0:0:0:0:
402,192,189735,128,0,189824:0:0:0:0:
182,192,189735,1,0,0:0:0:0:
36,192,189913,1,0,0:0:0:0:
109,192,189913,1,0,0:0:0:0:
402,192,189913,128,0,190002:0:0:0:0:
256,192,189913,1,0,0:0:0:0:
182,192,190092,1,0,0:0:0:0:
402,192,190092,128,0,190181:0:0:0:0:
256,192,190270,1,0,0:0:0:0:
109,192,190270,1,0,0:0:0:0:
329,192,190270,128,0,190360:0:0:0:0:
402,192,190449,1,0,0:0:0:0:
182,192,190449,128,0,190538:0:0:0:0:
475,192,190627,1,0,0:0:0:0:
182,192,190627,128,0,190717:0:0:0:0:
109,192,190627,1,0,0:0:0:0:
182,192,190806,128,0,190895:0:0:0:0:
329,192,190806,1,0,0:0:0:0:
402,192,190985,1,0,0:0:0:0:
475,192,190985,1,0,0:0:0:0:
256,192,190985,128,0,191074:0:0:0:0:
36,192,190985,1,0,0:0:0:0:
329,192,191163,1,0,0:0:0:0:
109,192,191163,128,0,191252:0:0:0:0:
182,192,191342,1,0,0:0:0:0:
109,192,191342,128,0,191431:0:0:0:0:
402,192,191342,1,0,0:0:0:0:
256,192,191520,1,0,0:0:0:0:
109,192,191520,128,0,191610:0:0:0:0:
402,192,191699,1,0,0:0:0:0:
475,192,191699,1,0,0:0:0:0:
182,192,191699,1,0,0:0:0:0:
36,192,191699,128,0,191788:0:0:0:0:
109,192,191788,1,0,0:0:0:0:
182,192,191877,1,0,0:0:0:0:
329,192,191877,128,0,191967:0:0:0:0:
256,192,191967,1,0,0:0:0:0:
182,192,192056,1,0,0:0:0:0:
329,192,192056,128,0,192145:0:0:0:0:
109,192,192145,1,0,0:0:0:0:
36,192,192235,1,0,0:0:0:0:
329,192,192235,128,0,192324:0:0:0:0:
109,192,192324,1,0,0:0:0:0:
475,192,192413,128,0,192770:0:0:0:0:
256,192,192413,128,0,192770:0:0:0:0:
36,192,192413,128,0,192770:0:0:0:0:
329,192,192592,1,0,0:0:0:0:
402,192,192592,1,0,0:0:0:0:
109,192,192681,1,0,0:0:0:0:
182,192,192681,1,0,0:0:0:0:
329,192,192770,1,0,0:0:0:0:
402,192,192770,1,0,0:0:0:0:
475,192,192949,128,0,193306:0:0:0:0:
36,192,192949,128,0,193306:0:0:0:0:
256,192,192949,128,0,193306:0:0:0:0:
329,192,193127,1,0,0:0:0:0:
402,192,193127,1,0,0:0:0:0:
182,192,193217,1,0,0:0:0:0:
109,192,193217,1,0,0:0:0:0:
329,192,193306,1,0,0:0:0:0:
402,192,193306,1,0,0:0:0:0:
256,192,193485,1,0,0:0:0:0:
475,192,193485,1,0,0:0:0:0:
402,192,193485,1,0,0:0:0:0:
36,192,193485,1,0,0:0:0:0:
109,192,193485,1,0,0:0:0:0:
475,192,193663,1,0,0:0:0:0:
256,192,193663,1,0,0:0:0:0:
36,192,193663,1,0,0:0:0:0:
109,192,193663,1,0,0:0:0:0:
402,192,193663,1,0,0:0:0:0:
256,192,193842,128,0,194199:0:0:0:0:
475,192,193842,128,0,194199:0:0:0:0:
36,192,193842,128,0,194199:0:0:0:0:
402,192,194020,1,0,0:0:0:0:
329,192,194020,1,0,0:0:0:0:
182,192,194110,1,0,0:0:0:0:
109,192,194110,1,0,0:0:0:0:
402,192,194199,1,0,0:0:0:0:
329,192,194199,1,0,0:0:0:0:
475,192,194377,128,0,194735:0:0:0:0:
256,192,194377,128,0,194735:0:0:0:0:
36,192,194377,128,0,194735:0:0:0:0:
402,192,194556,1,0,0:0:0:0:
329,192,194556,1,0,0:0:0:0:
182,192,194645,1,0,0:0:0:0:
109,192,194645,1,0,0:0:0:0:
329,192,194735,1,0,0:0:0:0:
402,192,194735,1,0,0:0:0:0:
256,192,194913,1,0,0:0:0:0:
475,192,194913,1,0,0:0:0:0:
402,192,194913,1,0,0:0:0:0:
109,192,194913,1,0,0:0:0:0:
36,192,194913,1,0,0:0:0:0:
256,192,195092,1,0,0:0:0:0:
109,192,195092,1,0,0:0:0:0:
402,192,195092,1,0,0:0:0:0:
36,192,195092,1,0,0:0:0:0:
475,192,195092,1,0,0:0:0:0:
475,192,195270,128,0,203485:0:0:0:0:
36,192,195270,128,0,203485:0:0:0:0:
