osu file format v12

[General]
AudioFilename: Susumu Hirasawa - WIRESELF (Kangenshugi Version).mp3
AudioLeadIn: 0
PreviewTime: 100743
Countdown: 1
SampleSet: Normal
StackLeniency: 0.7
Mode: 0
LetterboxInBreaks: 1

[Editor]
DistanceSpacing: 0.7
BeatDivisor: 12
GridSize: 16

[Metadata]
Title:WIRESELF (Kangenshugi Version)
TitleUnicode:WIRESELF (Kangenshugi Version)
Artist:Susumu Hirasawa
ArtistUnicode:Susumu Hirasawa
Creator:jesse1412
Version:Insane
Source:
Tags:
BeatmapID:185088
BeatmapSetID:62347

[Difficulty]
HPDrainRate:7
CircleSize:5
OverallDifficulty:8
ApproachRate:8
SliderMultiplier:3
SliderTickRate:2

[Events]
//Background and Video events
0,0,"nolight_on_the_wire-1440x900.jpg",0,0
//Break Periods
//Storyboard Layer 0 (Background)
//Storyboard Layer 1 (Fail)
//Storyboard Layer 2 (Pass)
//Storyboard Layer 3 (Foreground)
//Storyboard Sound Samples
//Background Colour Transformations
3,100,0,0,0

[TimingPoints]
26051,444.444444444444,4,1,0,20,1,0
27384,-100,4,1,0,35,0,0
46939,-100,4,1,0,45,0,0
48717,-100,4,1,0,45,0,0
49162,-100,4,1,0,45,0,0
49162,-100,4,1,0,35,0,0
54050,-100,4,1,0,45,0,0
55828,-100,4,1,0,25,0,0
59384,-100,4,1,0,35,0,0
62939,-100,4,1,0,25,0,0
66495,-100,4,1,0,35,0,0
68273,-100,4,1,0,28,0,0
71606,-100,4,1,0,5,0,0
71828,-100,4,1,0,35,0,0
77162,-100,4,1,0,45,0,0
78939,-100,4,1,0,45,0,0
79384,-100,4,1,0,35,0,0
84273,-100,4,1,0,45,0,0
86050,-100,4,1,0,25,0,0
89384,-100,4,1,0,35,0,0
93162,-100,4,1,0,25,0,0
96495,-100,4,1,0,35,0,0
98495,-100,4,1,0,28,0,0
100273,-200,4,1,0,35,0,0
102050,-66.6666666666667,4,1,0,43,0,1
123384,-133.333333333333,4,1,0,28,0,0
128717,-100,4,1,0,45,0,0
130495,-133.333333333333,4,1,0,28,0,0
135828,-100,4,1,0,45,0,0
137606,-100,4,1,0,35,0,0
139162,-100,4,1,0,35,0,0
139828,-100,4,1,0,35,0,0
153606,-100,4,1,0,35,0,0
158939,-100,4,1,0,45,0,0
160717,-100,4,1,0,35,0,0
166050,-200,4,1,0,45,0,0
167828,-100,4,1,0,25,0,0
171384,-100,4,1,0,35,0,0
174939,-100,4,1,0,25,0,0
178495,-100,4,1,0,35,0,0
180273,-100,4,1,0,28,0,0
183828,-66.6666666666667,4,1,0,35,0,1
198050,-100,4,1,0,35,0,1
212273,-100,4,1,0,5,0,0
217606,-100,4,1,0,28,0,0

[Colours]
Combo1 : 255,128,128
Combo2 : 0,128,192
Combo3 : 168,0,84
Combo4 : 201,139,10

[HitObjects]
256,192,26050,12,0,27162,0:0:0:0:
128,192,27384,5,8,0:0:0:0:
368,224,27606,2,0,B|384:176|384:176|384:128|320:112,1,150
368,160,28050,2,0,B|384:208|384:208|384:256|320:272,1,150,0|8,0:0|0:0,0:0:0:0:
128,192,28495,1,0,0:0:0:0:
432,192,28717,1,4,0:0:0:0:
256,144,29162,6,0,B|256:128|256:128|240:112|240:112|272:112|272:112|256:80|256:80|256:32,1,150,8|0,0:0|0:0,0:0:0:0:
128,112,29606,2,0,B|160:64|160:64|224:96|224:144,1,150,0|0,0:0|0:0,0:0:0:0:
384,112,30050,2,0,B|352:64|352:64|288:96|288:144,1,150,8|0,0:0|0:0,0:0:0:0:
256,272,30495,1,4,0:0:0:0:
256,64,30717,1,0,0:0:0:0:
352,288,30939,6,0,B|320:208|320:208|288:192|256:208,1,150,8|0,0:0|0:0,0:0:0:0:
160,288,31384,2,0,B|192:208|192:208|224:192|256:208,1,150
256,32,31828,1,8,0:0:0:0:
256,352,32273,1,4,0:0:0:0:
160,64,32717,5,8,0:0:0:0:
352,64,32939,1,0,0:0:0:0:
160,160,33162,2,0,B|160:256|176:304|176:304|192:304,1,150
352,160,33606,2,0,B|352:256|336:304|336:304|320:304,1,150,8|0,0:0|0:0,0:0:0:0:
160,192,34050,1,4,0:0:0:0:
352,192,34273,1,0,0:0:0:0:
160,336,34495,6,0,B|0:336,1,150,8|0,0:0|0:0,0:0:0:0:
352,336,34939,2,0,B|512:336,1,150
208,176,35384,2,0,B|304:304,1,150,8|0,0:0|0:0,0:0:0:0:
304,176,35828,2,0,B|208:304,1,150,4|0,0:0|0:0,0:0:0:0:
256,48,36273,5,8,0:0:0:0:
256,192,36495,1,0,0:0:0:0:
256,352,36717,1,0,0:0:0:0:
256,192,36939,1,0,0:0:0:0:
256,48,37162,2,0,B|256:352,1,300,8|4,0:0|0:0,0:0:0:0:
96,192,38050,5,8,0:0:0:0:
416,192,38273,1,0,0:0:0:0:
144,144,38495,1,0,0:0:0:0:
368,144,38717,1,0,0:0:0:0:
48,144,38939,1,8,0:0:0:0:
256,192,39162,1,0,0:0:0:0:
464,144,39384,1,4,0:0:0:0:
256,336,39828,5,8,0:0:0:0:
144,192,40050,2,0,B|144:128|144:128|192:128|208:64,1,150,0|0,0:0|0:0,0:0:0:0:
368,192,40495,2,0,B|368:256|368:256|320:256|304:320,1,150,0|8,0:0|0:0,0:0:0:0:
80,96,40939,1,0,0:0:0:0:
256,208,41162,1,4,0:0:0:0:
432,96,41384,1,0,0:0:0:0:
256,32,41606,6,0,B|128:48|128:144|128:144|64:176|64:192|64:192|64:224,1,300,2|0,0:0|0:0,0:0:0:0:
208,128,42273,1,0,0:0:0:0:
304,128,42495,1,8,0:0:0:0:
256,128,42939,5,4,0:0:0:0:
256,32,43162,1,0,0:0:0:0:
192,80,43384,1,2,0:0:0:0:
256,128,43606,1,0,0:0:0:0:
320,80,43828,1,0,0:0:0:0:
192,144,44050,2,0,B|128:208|128:208|128:272,1,150,0|8,0:0|0:0,0:0:0:0:
320,144,44495,2,0,B|384:208|384:208|384:272,1,150,0|4,0:0|0:0,0:0:0:0:
240,192,44939,6,2,B|176:256|176:256|176:320,1,150,0|2,0:0|0:0,0:0:0:0:
272,192,45384,2,0,B|336:256|336:256|336:320,1,150,0|0,0:0|0:0,0:0:0:0:
224,240,45828,2,0,B|288:304|288:304|288:368,1,150,0|8,0:0|0:0,0:0:0:0:
288,240,46273,2,0,B|224:304|224:304|224:368,1,150,0|4,0:0|0:0,0:0:0:0:
256,144,46717,1,0,0:0:0:0:
128,96,46939,6,0,B|80:144|80:176|128:224,1,150,4|0,0:0|0:0,0:0:0:0:
256,64,47384,1,0,0:0:0:0:
256,304,47606,1,0,0:0:0:0:
128,288,47828,6,0,B|80:240|80:208|128:160,1,150,4|0,0:0|0:0,0:0:0:0:
256,304,48273,1,0,0:0:0:0:
256,64,48495,1,0,0:0:0:0:
320,320,48717,6,0,B|288:372|288:372|240:340|240:292|256:244|256:244|240:196|208:180|208:180|208:208,1,300,2|0,0:0|0:0,0:0:0:0:
160,80,49384,2,0,B|320:80,1,150,0|8,0:0|0:0,0:0:0:0:
192,192,49828,1,0,0:0:0:0:
320,192,50050,2,0,B|320:256|320:256|272:304|240:272,1,150,4|4,0:0|0:0,0:0:0:0:
144,144,50495,5,2,0:0:0:0:
368,144,50717,1,0,0:0:0:0:
112,272,50939,1,0,0:0:0:0:
400,272,51162,1,0,0:0:0:0:
256,64,51384,1,8,0:0:0:0:
336,128,51606,1,0,0:0:0:0:
176,128,51828,1,4,0:0:0:0:
256,192,52050,6,0,B|256:144|208:144|208:144|176:160|160:208,1,150,0|2,0:0|0:0,0:0:0:0:
256,192,52495,2,0,B|256:240|304:240|304:240|336:224|352:176,1,150,0|0,0:0|0:0,0:0:0:0:
256,192,52939,2,0,B|304:192|304:144|304:144|288:112|240:96,1,150,0|8,0:0|0:0,0:0:0:0:
256,192,53384,2,0,B|208:192|208:240|208:240|224:272|272:288,1,150,0|4,0:0|0:0,0:0:0:0:
256,96,53828,1,0,0:0:0:0:
256,352,54050,2,0,P|192:320|224:256,1,150,4|0,0:0|0:0,0:0:0:0:
256,32,54495,2,0,P|320:64|288:128,1,150,4|0,0:0|0:0,0:0:0:0:
96,192,54939,2,0,P|128:128|192:160,1,150,4|0,0:0|0:0,0:0:0:0:
416,192,55384,2,0,P|384:256|320:224,1,150,4|0,0:0|0:0,0:0:0:0:
256,256,55828,6,0,B|256:352|224:368|224:368|192:352,1,150,4|0,0:0|0:0,0:0:0:0:
256,256,56273,2,0,B|256:352|288:368|288:368|320:352,1,150,0|0,0:0|0:0,0:0:0:0:
192,240,56717,2,0,B|160:320|112:320|112:320|96:288,1,150,4|0,0:0|0:0,0:0:0:0:
320,240,57162,2,0,B|352:320|400:320|400:320|416:288,1,150,0|0,0:0|0:0,0:0:0:0:
144,192,57606,6,0,B|49:208|29:179|29:179|38:145,1,150,4|0,0:0|0:0,0:0:0:0:
368,192,58050,2,0,B|463:208|484:179|484:179|474:145,1,150
192,144,58495,2,0,B|128:96|128:48|128:48|160:32,1,150,4|0,0:0|0:0,0:0:0:0:
320,144,58939,2,0,B|384:96|384:48|384:48|352:32,1,150,0|0,0:0|0:0,0:0:0:0:
256,64,59384,6,0,B|160:128|160:128|224:208|192:240|192:240|240:288,1,300,0|8,0:0|0:0,0:0:0:0:
256,144,60050,1,0,0:0:0:0:
256,64,60273,2,0,B|352:128|352:128|288:208|320:240|320:240|272:288,1,300,0|8,0:0|0:0,0:0:0:0:
256,368,60939,1,0,0:0:0:0:
256,96,61162,2,0,B|256:144|224:176|224:176|256:192|288:224|288:224|256:240|224:272|224:272|256:288|256:320,1,300,0|8,0:0|0:0,0:0:0:0:
256,32,61828,1,0,0:0:0:0:
368,208,62050,1,0,0:0:0:0:
256,128,62273,1,0,0:0:0:0:
144,208,62495,1,8,0:0:0:0:
360,264,62939,6,0,B|424:312|424:360|424:360|392:376,1,150,4|0,0:0|0:0,0:0:0:0:
152,264,63384,2,0,B|88:312|88:360|88:360|120:376,1,150,0|0,0:0|0:0,0:0:0:0:
397,166,63828,2,0,B|492:150|513:179|513:179|503:213,1,150,4|0,0:0|0:0,0:0:0:0:
114,166,64273,2,0,B|19:150|-1:179|-1:179|8:213,1,150
320,144,64717,6,0,B|352:64|400:64|400:64|416:96,1,150,4|0,0:0|0:0,0:0:0:0:
192,144,65162,2,0,B|160:64|112:64|112:64|96:96,1,150,0|0,0:0|0:0,0:0:0:0:
256,128,65606,2,0,B|256:32|288:16|288:16|320:32,1,150,4|0,0:0|0:0,0:0:0:0:
256,128,66050,2,0,B|256:32|224:16|224:16|192:32,1,150,0|0,0:0|0:0,0:0:0:0:
256,192,66495,5,0,0:0:0:0:
256,304,67162,1,0,0:0:0:0:
160,192,67384,2,0,B|112:336,1,150,4|0,0:0|0:0,0:0:0:0:
352,192,67828,2,0,B|400:336,1,150,4|0,0:0|0:0,0:0:0:0:
256,16,68273,6,0,L|336:80,1,100,4|0,0:0|0:0,0:0:0:0:
400,160,68569,1,0,0:0:0:0:
304,224,68717,2,0,L|256:320,1,100,4|0,0:0|0:0,0:0:0:0:
160,288,69013,1,0,0:0:0:0:
144,176,69162,6,0,L|80:64,1,100,4|0,0:0|0:0,0:0:0:0:
192,48,69458,1,0,0:0:0:0:
288,80,69606,2,0,L|416:112,1,100,4|0,0:0|0:0,0:0:0:0:
368,208,69902,1,0,0:0:0:0:
256,208,70050,1,2,0:0:0:0:
480,352,70495,1,4,0:0:0:0:
256,192,70606,12,4,71606,0:0:0:0:
224,64,71828,6,0,B|160:96|176:160|112:176|112:176|176:160|160:96|224:112,1,300,2|0,0:0|0:0,0:0:0:0:
288,64,72495,2,0,B|352:96|336:160|400:176|400:176|368:160,1,150,0|8,0:0|0:0,0:0:0:0:
288,160,72939,2,0,B|224:192|240:256|176:272|176:272|208:256,1,150,0|4,0:0|0:0,0:0:0:0:
256,336,73384,1,0,0:0:0:0:
224,256,73606,6,0,B|176:224|176:224|160:192|176:144|176:144|192:160,1,150,2|0,0:0|0:0,0:0:0:0:
288,256,74050,2,0,B|336:224|336:224|352:192|336:144|336:144|320:160,1,150,0|0,0:0|0:0,0:0:0:0:
256,192,74495,2,0,B|288:192|288:192|256:240|256:240|224:192|224:192|256:144|256:144|256:48,1,300,8|4,0:0|0:0,0:0:0:0:
176,144,75162,5,0,0:0:0:0:
336,144,75384,1,2,0:0:0:0:
224,240,75606,2,0,B|192:288|144:304|144:304|96:288,1,150,0|0,0:0|0:0,0:0:0:0:
288,240,76050,2,0,B|320:288|368:304|368:304|416:288,1,150,0|8,0:0|0:0,0:0:0:0:
256,64,76717,5,4,0:0:0:0:
256,304,76939,1,4,0:0:0:0:
208,144,77162,2,0,B|256:96|320:96|368:128,1,150,4|0,0:0|0:0,0:0:0:0:
304,144,77606,2,0,B|256:96|192:96|144:128,1,150,4|0,0:0|0:0,0:0:0:0:
224,352,78050,2,0,B|224:272|224:272|288:224,1,150,4|0,0:0|0:0,0:0:0:0:
288,352,78495,2,0,B|288:272|288:272|224:224,1,150,4|0,0:0|0:0,0:0:0:0:
80,304,78939,6,2,B|48:352|48:352|160:352|160:352|96:288|160:240,1,300,0|0,0:0|0:0,0:0:0:0:
48,352,79606,2,0,B|16:352|16:352|80:288|16:240,1,150,0|8,0:0|0:0,0:0:0:0:
256,128,80050,1,0,0:0:0:0:
352,288,80273,1,4,0:0:0:0:
176,288,80495,1,2,0:0:0:0:
272,192,80717,1,4,0:0:0:0:
432,192,80939,1,0,0:0:0:0:
384,112,81162,2,0,B|368:64|304:96|304:96|288:64|240:64,1,150,4|0,0:0|0:0,0:0:0:0:
128,144,81606,2,0,B|144:192|208:160|208:160|224:192|256:192|288:192|304:160|304:160|368:192|384:144,1,300,8|4,0:0|0:0,0:0:0:0:
256,128,82273,5,0,0:0:0:0:
192,224,82495,2,0,B|144:272|144:272|176:304|160:336|160:336|192:368,1,150,2|0,0:0|0:0,0:0:0:0:
320,224,82939,2,0,B|368:272|368:272|336:304|352:336|352:336|320:368,1,150,0|0,0:0|0:0,0:0:0:0:
256,64,83384,2,0,B|256:368,1,300,8|4,0:0|0:0,0:0:0:0:
384,128,84050,5,0,0:0:0:0:
128,128,84273,1,4,0:0:0:0:
480,128,84495,1,0,0:0:0:0:
32,128,84717,2,0,B|16:176|16:176|16:224|80:272,1,150,4|0,0:0|0:0,0:0:0:0:
432,64,85162,1,4,0:0:0:0:
80,64,85384,1,0,0:0:0:0:
480,128,85606,2,0,B|496:176|496:176|496:224|432:272,1,150,4|0,0:0|0:0,0:0:0:0:
256,368,86050,6,0,B|256:320|288:288|336:304|336:304|336:336,1,150,4|0,0:0|0:0,0:0:0:0:
256,368,86495,2,0,B|256:320|224:288|176:304|176:304|176:336,1,150
320,240,86939,2,0,B|384:192|384:192|432:224|416:256,1,150,4|0,0:0|0:0,0:0:0:0:
192,240,87384,2,0,B|128:192|128:192|80:224|96:256,1,150
368,144,87828,6,0,B|416:96|464:96|464:96|512:128,1,150,4|0,0:0|0:0,0:0:0:0:
144,144,88273,2,0,B|96:96|48:96|48:96|0:128,1,150
256,64,88717,2,0,B|256:368,1,300,4|0,0:0|0:0,0:0:0:0:
176,240,89384,6,0,B|128:224|112:176|112:176|176:144,1,150,0|0,0:0|0:0,0:0:0:0:
336,240,89828,2,0,B|384:224|400:176|400:176|336:144,1,150
256,64,90273,1,0,0:0:0:0:
256,368,90495,2,0,B|224:320|160:304|160:304|144:336,1,150,0|0,0:0|0:0,0:0:0:0:
256,368,90939,2,0,B|288:320|352:304|352:304|368:336,1,150
256,112,91384,2,0,B|208:192|208:192|224:176|224:176|240:192|240:192|256:176|256:176|272:192|272:192|287:179|287:179|304:192|304:192|320:176|320:176|336:192|336:192|352:176|352:176|368:192,1,300
256,48,92050,1,0,0:0:0:0:
256,272,92273,2,0,B|304:192|304:192|288:208|288:208|272:192|272:192|256:208|256:208|240:192|240:192|224:205|224:205|208:192|208:192|192:208|192:208|176:192|176:192|160:208|160:208|144:192,1,300
368,240,93162,6,0,B|416:288|464:288|464:288|512:256,1,150,4|0,0:0|0:0,0:0:0:0:
144,240,93606,2,0,B|96:288|48:288|48:288|0:256,1,150,0|0,0:0|0:0,0:0:0:0:
320,144,94050,2,0,B|384:192|384:192|432:160|416:128,1,150,4|0,0:0|0:0,0:0:0:0:
192,144,94495,2,0,B|128:192|128:192|80:160|96:128,1,150,0|0,0:0|0:0,0:0:0:0:
256,16,94939,6,0,B|256:64|288:96|336:80|336:80|336:48,1,150,4|0,0:0|0:0,0:0:0:0:
256,16,95384,2,0,B|256:64|224:96|176:80|176:80|176:48,1,150
256,144,95828,2,4,B|192:192|192:192|256:272|320:192|320:192|256:192,1,300
256,304,96495,5,0,0:0:0:0:
256,80,96717,1,2,0:0:0:0:
80,112,97162,1,0,0:0:0:0:
256,80,97384,1,0,0:0:0:0:
432,112,97606,1,8,0:0:0:0:
256,384,98050,1,8,0:0:0:0:
128,80,98495,6,0,L|208:160,1,100,4|0,0:0|0:0,0:0:0:0:
128,224,98791,1,0,0:0:0:0:
224,272,98939,2,0,L|304:336,1,100,4|0,0:0|0:0,0:0:0:0:
368,240,99236,1,0,0:0:0:0:
416,144,99384,2,0,L|288:144,1,100,4|0,0:0|0:0,0:0:0:0:
224,208,99680,1,0,0:0:0:0:
112,224,99828,2,0,L|160:128,1,100,4|0,0:0|0:0,0:0:0:0:
240,64,100125,1,0,0:0:0:0:
320,128,100273,2,0,B|496:128,1,150
256,192,101162,12,4,101828,0:0:0:0:
160,144,102050,6,4,B|64:224|160:320|160:320|176:304,2,225.000008583069
192,224,102717,1,8,0:0:0:0:
352,144,102939,2,4,B|448:224|352:320|352:320|336:304,2,225.000008583069
320,224,103606,1,8,0:0:0:0:
256,112,103828,2,4,B|208:64|160:64|160:64|112:128|144:176,1,225.000008583069
256,112,104273,2,4,B|304:64|352:64|352:64|400:128|368:176,1,225.000008583069,4|8,0:0|0:0,0:0:0:0:
256,352,104717,2,4,B|176:256|176:256|336:256|336:256|256:176|256:176|256:112,1,450.000017166138,4|4,0:0|0:0,0:0:0:0:
256,32,105384,5,8,0:0:0:0:
176,256,105606,2,4,B|64:288|64:288|48:112|192:80|192:80|256:128,1,450.000017166138
256,256,106273,1,8,0:0:0:0:
336,256,106495,2,4,B|448:288|448:288|464:112|320:80|320:80|256:128,1,450.000017166138
256,48,107162,1,8,0:0:0:0:
256,336,107384,2,4,B|144:368|144:368|80:304|96:224|96:224|208:240|240:144,1,450.000017166138
256,240,108050,1,8,0:0:0:0:
256,336,108273,2,4,B|368:368|368:368|432:304|416:224|416:224|304:240|272:144,1,450.000017166138
256,64,108939,5,8,0:0:0:0:
80,192,109162,2,4,B|96:160|128:160|144:192|144:192|176:144|224:144|256:192|256:192|304:128|368:128|416:192|416:224|384:240,1,450.000017166138
256,112,109828,1,8,0:0:0:0:
80,192,110050,2,4,B|96:160|128:160|144:192|144:192|176:144|224:144|256:192|256:192|304:128|368:128|416:192|416:224|384:240,1,450.000017166138
256,256,110717,1,8,0:0:0:0:
304,16,110939,2,4,B|336:32|336:64|304:80|304:80|352:112|352:160|304:192|304:192|368:240|368:304|304:352|272:352|256:320,1,450.000017166138
256,144,111606,1,8,0:0:0:0:
208,16,111828,2,4,B|176:32|176:64|208:80|208:80|160:112|160:160|208:192|208:192|144:240|144:304|208:352|240:352|256:320,1,450.000017166138
256,144,112495,1,8,0:0:0:0:
336,320,112717,6,4,B|400:256|400:256|352:192|448:144|448:144|416:64|464:16|464:16|432:-16|384:16|416:48,1,450.000017166138,4|4,0:0|0:0,0:0:0:0:
288,288,113384,2,0,B|336:240|336:240|320:176|368:128|368:128|336:112,1,225.000008583069,8|4,0:0|0:0,0:0:0:0:
256,224,113828,1,0,0:0:0:0:
224,288,114050,2,4,B|176:240|176:240|192:176|144:128|144:128|176:112,1,225.000008583069,4|8,0:0|0:0,0:0:0:0:
176,320,114495,2,4,B|112:256|112:256|160:192|64:144|64:144|96:64|48:16|48:16|80:-16|128:16|96:48,1,450.000017166138
144,144,115162,2,4,B|384:144,1,225.000008583069,8|4,0:0|0:0,0:0:0:0:
368,80,115606,2,4,B|128:80,1,225.000008583069
144,144,116050,1,8,0:0:0:0:
368,80,116273,6,4,B|400:192|400:192|352:256|368:320|368:320|304:352|240:352|240:352|224:320|256:288,1,450.000017166138
256,192,116939,1,8,0:0:0:0:
144,80,117162,2,4,B|112:192|112:192|160:256|144:320|144:320|208:352|272:352|272:352|288:320|256:288,1,450.000017166138
208,80,117828,2,4,B|208:240|256:272|208:304,1,225.000008583069,8|4,0:0|0:0,0:0:0:0:
128,80,118273,2,4,B|128:240|80:272|128:304,1,225.000008583069
304,80,118717,2,4,B|304:240|256:272|304:304,1,225.000008583069,8|4,0:0|0:0,0:0:0:0:
368,80,119162,2,4,B|368:240|416:272|368:304,1,225.000008583069
256,192,119606,1,0,0:0:0:0:
176,64,119828,6,0,B|128:144|128:144|288:352|288:352|384:352,1,450.000017166138,4|8,0:0|0:0,0:0:0:0:
256,192,120495,1,0,0:0:0:0:
336,64,120717,2,0,B|384:144|384:144|224:352|224:352|128:352,1,450.000017166138,4|8,0:0|0:0,0:0:0:0:
400,208,121384,1,4,0:0:0:0:
240,336,121606,6,0,B|192:256|192:256|352:48|352:48|448:48,1,450.000017166138,4|8,0:0|0:0,0:0:0:0:
256,80,122273,1,0,0:0:0:0:
272,336,122495,2,0,B|320:256|320:256|160:48|160:48|64:48,1,450.000017166138,4|8,0:0|0:0,0:0:0:0:
256,80,123162,1,4,0:0:0:0:
96,208,123384,5,4,0:0:0:0:
96,144,123532,1,0,0:0:0:0:
160,144,123680,1,0,0:0:0:0:
160,80,123828,1,4,0:0:0:0:
224,64,123976,1,0,0:0:0:0:
272,96,124125,1,0,0:0:0:0:
336,112,124273,1,4,0:0:0:0:
400,112,124421,1,0,0:0:0:0:
416,176,124569,5,0,0:0:0:0:
368,224,124717,1,4,0:0:0:0:
304,208,124865,1,0,0:0:0:0:
288,272,125013,1,0,0:0:0:0:
272,336,125162,1,4,0:0:0:0:
208,336,125310,1,0,0:0:0:0:
144,320,125458,1,0,0:0:0:0:
192,272,125606,1,4,0:0:0:0:
160,208,125754,5,0,0:0:0:0:
224,192,125902,1,0,0:0:0:0:
208,128,126050,1,4,0:0:0:0:
256,80,126199,1,0,0:0:0:0:
208,32,126347,1,0,0:0:0:0:
144,48,126495,1,4,0:0:0:0:
128,112,126643,1,0,0:0:0:0:
176,160,126791,1,0,0:0:0:0:
240,144,126939,5,4,0:0:0:0:
288,192,127088,1,0,0:0:0:0:
336,144,127236,1,0,0:0:0:0:
400,144,127384,1,4,0:0:0:0:
416,208,127532,1,0,0:0:0:0:
400,272,127680,1,0,0:0:0:0:
336,288,127828,1,4,0:0:0:0:
288,240,127976,1,0,0:0:0:0:
224,224,128125,5,0,0:0:0:0:
240,160,128273,1,4,0:0:0:0:
224,96,128421,1,0,0:0:0:0:
160,96,128569,1,0,0:0:0:0:
112,144,128717,6,0,B|112:240|112:240|160:272,1,150,4|0,0:0|0:0,0:0:0:0:
400,144,129162,2,0,B|400:240|400:240|352:272,1,150,0|0,0:0|0:0,0:0:0:0:
160,144,129606,2,0,B|160:240|160:240|112:272,1,150,4|0,0:0|0:0,0:0:0:0:
352,144,130050,2,0,B|352:240|352:240|400:272,1,150,0|0,0:0|0:0,0:0:0:0:
160,272,130495,6,0,B|208:336,1,75.000002861023,4|0,0:0|0:0,0:0:0:0:
336,240,130791,2,0,B|288:304,1,75.000002861023,0|4,0:0|0:0,0:0:0:0:
176,144,131088,2,0,B|208:240,1,75.000002861023
400,144,131384,2,0,B|304:192,1,75.000002861023,4|0,0:0|0:0,0:0:0:0:
224,32,131680,2,0,B|272:96,1,75.000002861023,0|4,0:0|0:0,0:0:0:0:
448,208,131976,2,0,B|352:240,1,75.000002861023,0|4,0:0|0:0,0:0:0:0:
176,240,132273,2,0,B|240:176,1,75.000002861023,0|0,0:0|0:0,0:0:0:0:
336,304,132569,2,0,B|304:224,1,75.000002861023,4|0,0:0|0:0,0:0:0:0:
336,32,132865,6,0,B|288:112,1,75.000002861023,0|4,0:0|0:0,0:0:0:0:
96,112,133162,2,0,B|176:144,1,75.000002861023,0|0,0:0|0:0,0:0:0:0:
240,304,133458,2,0,B|240:224,1,75.000002861023,4|0,0:0|0:0,0:0:0:0:
384,272,133754,2,0,B|336:192,1,75.000002861023,0|4,0:0|0:0,0:0:0:0:
224,48,134050,2,0,B|256:128,1,75.000002861023
96,192,134347,2,0,B|192:192,1,75.000002861023,4|0,0:0|0:0,0:0:0:0:
416,128,134643,2,0,B|336:176,1,75.000002861023,0|4,0:0|0:0,0:0:0:0:
224,224,134939,5,0,0:0:0:0:
288,224,135088,1,0,0:0:0:0:
288,160,135236,1,4,0:0:0:0:
224,160,135384,1,0,0:0:0:0:
224,224,135532,1,0,0:0:0:0:
288,224,135680,1,0,0:0:0:0:
256,112,135828,5,4,0:0:0:0:
256,352,136050,1,0,0:0:0:0:
160,240,136273,2,0,B|128:256|128:256|160:368,1,150
256,128,136717,1,0,0:0:0:0:
256,352,136939,1,0,0:0:0:0:
352,144,137162,2,0,B|384:128|384:128|352:16,1,150
320,144,137606,6,0,B|304:80|304:208|288:144|288:144|272:80|272:208|256:144|256:144|240:80|240:208|224:144|224:144|208:80|208:208|192:144|192:144|176:80|16:128|96:288|176:272,1,600
32,224,138717,1,0,0:0:0:0:
160,208,138939,1,0,0:0:0:0:
112,64,139162,2,0,B|160:112|160:112|208:96|240:112|240:112,1,150
208,176,139606,2,0,B|172:178|138:216|138:216,1,75
128,240,139828,2,0,B|112:320|208:352|208:352|272:272|256:208,1,300
144,80,140495,2,4,B|112:144|112:144|144:192|112:240,1,150
368,304,140939,6,4,B|400:240|400:240|368:192|400:144,1,150
256,304,141384,1,0,0:0:0:0:
256,80,141606,1,0,0:0:0:0:
368,304,141828,6,4,B|400:240|400:240|368:192|400:144,1,150
256,304,142273,1,0,0:0:0:0:
256,80,142495,1,0,0:0:0:0:
32,144,142717,5,4,0:0:0:0:
144,320,142939,6,0,P|112:208|160:112,1,225.000008583069
160,144,143384,2,0,P|272:192|368:112,1,225.000008583069
368,128,143828,2,4,B|304:112|240:144|272:224|272:224|224:288|176:336|64:368|0:272,1,450.000017166138,0|4,0:0|0:0,0:0:0:0:
112,256,144717,6,0,B|160:256|192:192|192:192|192:112|240:48|352:32|416:80|416:80|448:128,1,450
320,160,145606,1,0,0:0:0:0:
128,304,145828,1,0,0:0:0:0:
320,320,146051,1,0,0:0:0:0:
448,256,146273,2,4,B|496:192|448:96|448:96,1,150
368,256,146717,2,4,B|368:208|336:176,1,75
320,176,146939,2,0,B|352:240|272:336|160:368|32:320|64:240|64:240|128:256,1,450,0|4,0:0|0:0,0:0:0:0:
144,176,147828,5,0,0:0:0:0:
448,176,148051,1,0,0:0:0:0:
304,48,148273,1,4,0:0:0:0:
272,80,148384,1,0,0:0:0:0:
240,112,148495,1,0,0:0:0:0:
208,144,148606,1,0,0:0:0:0:
176,176,148717,5,0,0:0:0:0:
144,208,148828,1,0,0:0:0:0:
112,240,148939,1,0,0:0:0:0:
80,272,149051,1,0,0:0:0:0:
48,304,149162,1,4,0:0:0:0:
96,304,149273,1,0,0:0:0:0:
144,304,149384,5,0,0:0:0:0:
192,304,149495,1,0,0:0:0:0:
240,304,149606,1,0,0:0:0:0:
288,304,149717,1,0,0:0:0:0:
336,304,149828,1,4,0:0:0:0:
384,304,149939,1,4,0:0:0:0:
432,304,150050,6,0,B|496:304|496:304|496:208|400:208|400:208|400:160|352:128,1,300,4|4,0:0|0:0,0:0:0:0:
256,272,150717,1,0,0:0:0:0:
80,304,150939,2,0,B|16:304|16:304|16:208|112:208|112:208|112:160|160:128,1,300,4|4,0:0|0:0,0:0:0:0:
256,128,151606,1,0,0:0:0:0:
64,96,151828,2,4,B|64:272|64:272|64:336|128:336|128:336|128:304,1,300
256,352,152495,1,0,0:0:0:0:
448,96,152717,2,4,B|448:272|448:272|448:336|384:336|384:336|384:304,1,300
256,192,153384,1,0,0:0:0:0:
144,48,153606,6,0,B|64:64|64:64|80:144|96:176|160:176|160:176|192:192|192:240,1,300,0|8,0:0|0:0,0:0:0:0:
256,112,154273,1,0,0:0:0:0:
368,48,154495,2,0,B|448:64|448:64|432:144|416:176|352:176|352:176|320:192|320:240,1,300,0|8,0:0|0:0,0:0:0:0:
256,320,155162,1,0,0:0:0:0:
160,368,155384,2,0,B|152:320|120:304|80:304|80:304|16:288|16:232|64:200|64:200|88:184|128:184,1,300,0|8,0:0|0:0,0:0:0:0:
256,240,156051,1,0,0:0:0:0:
352,368,156273,2,0,B|360:320|392:304|432:304|432:304|496:288|496:232|448:200|448:200|424:184|384:184,1,300,0|8,0:0|0:0,0:0:0:0:
256,112,156939,5,0,0:0:0:0:
112,256,157162,2,0,B|32:192|32:192|32:112|64:64|64:64|48:128|64:144,1,300,0|8,0:0|0:0,0:0:0:0:
256,352,157828,1,0,0:0:0:0:
400,256,158051,2,0,B|480:192|480:192|480:112|448:64|448:64|464:128|448:144,1,300,0|8,0:0|0:0,0:0:0:0:
256,192,158717,1,0,0:0:0:0:
112,32,158939,5,4,0:0:0:0:
384,32,159162,1,0,0:0:0:0:
176,192,159384,2,0,B|144:128|144:96|144:96|176:48,1,150
64,320,159828,1,4,0:0:0:0:
448,320,160050,1,0,0:0:0:0:
336,192,160273,2,0,B|368:128|368:96|368:96|336:48,1,150
64,272,160717,6,0,B|32:352|32:352|64:368|112:368|112:368|144:336|128:304|128:272|176:256,1,300,4|8,0:0|0:0,0:0:0:0:
208,320,161384,1,0,0:0:0:0:
352,272,161606,2,0,B|384:352|384:352|352:368|304:368|304:368|272:336|288:304|288:272|240:256,1,300,4|8,0:0|0:0,0:0:0:0:
256,192,162273,1,0,0:0:0:0:
48,48,162495,1,4,0:0:0:0:
464,48,162717,1,4,0:0:0:0:
48,336,162939,1,8,0:0:0:0:
464,336,163162,2,0,B|464:176,1,150
48,48,163606,2,0,B|48:208,1,150,0|8,0:0|0:0,0:0:0:0:
112,336,164051,6,0,B|272:336,1,150,0|0,0:0|0:0,0:0:0:0:
400,48,164495,2,0,B|240:48,1,150,0|8,0:0|0:0,0:0:0:0:
144,192,164939,1,0,0:0:0:0:
352,192,165162,2,0,B|352:144|352:144|272:144|256:96|256:96|240:144|144:144|144:144|144:192,1,300,0|8,0:0|0:0,0:0:0:0:
352,336,165828,1,0,0:0:0:0:
352,48,166051,5,4,0:0:0:0:
160,336,166273,1,4,0:0:0:0:
352,192,166495,1,0,0:0:0:0:
160,192,166717,1,0,0:0:0:0:
352,336,166939,1,4,0:0:0:0:
160,48,167161,1,4,0:0:0:0:
352,48,167384,1,0,0:0:0:0:
160,192,167606,1,0,0:0:0:0:
256,32,167828,6,0,B|208:64|208:64|240:112|192:144,1,150,4|0,0:0|0:0,0:0:0:0:
256,32,168273,2,0,B|304:64|304:64|272:112|320:144,1,150
128,128,168717,2,0,B|112:176|112:176|64:160|16:192,1,150,4|0,0:0|0:0,0:0:0:0:
384,128,169162,2,0,B|400:176|400:176|448:160|496:192,1,150
160,272,169606,6,0,B|176:304|176:304|112:304|80:368,1,150,4|0,0:0|0:0,0:0:0:0:
352,272,170051,2,0,B|336:304|336:304|400:304|432:368,1,150
224,240,170495,2,0,B|272:272|272:272|240:320|288:352,1,150,4|0,0:0|0:0,0:0:0:0:
288,240,170939,2,0,B|240:271|240:271|272:319|224:350,1,150
272,32,171384,6,0,B|256:64|256:64|288:96|288:96|192:128|336:144|288:176|288:176|256:160|208:144|176:208,1,300
256,304,172051,1,0,0:0:0:0:
80,192,172273,2,0,B|107:208|107:208|-3:272|176:376|160:240|160:240|208:240,1,300
256,128,172939,1,0,0:0:0:0:
432,192,173162,2,0,B|404:208|404:208|515:272|335:376|352:240|352:240|304:240,1,300
256,48,173828,1,0,0:0:0:0:
144,272,174051,2,0,B|144:192|144:192|144:144|192:144|192:144|192:192|192:272|256:272,1,300
336,192,174717,1,0,0:0:0:0:
480,192,174939,6,0,B|448:144|448:144|400:176|368:128,1,150,4|0,0:0|0:0,0:0:0:0:
480,192,175384,2,0,B|448:240|448:240|400:208|368:256,1,150
304,112,175828,2,0,B|256:96|256:96|272:48|240:0,1,150,4|0,0:0|0:0,0:0:0:0:
304,272,176273,2,0,B|256:288|256:288|272:336|239:384,1,150
176,128,176717,6,0,B|144:144|144:144|144:80|80:48,1,150,4|0,0:0|0:0,0:0:0:0:
176,256,177162,2,0,B|144:240|144:240|144:304|80:336,1,150
128,176,177606,2,0,B|95:224|95:224|47:192|15:240,1,150,4|0,0:0|0:0,0:0:0:0:
128,176,178051,2,0,B|97:128|97:128|49:160|17:112,1,150
208,192,178495,6,0,B|272:192|272:192|320:160|320:96|320:96|336:80|384:64|416:16,1,300,0|0,0:0|0:0,0:0:0:0:
416,192,179162,1,8,0:0:0:0:
208,192,179384,2,0,B|272:192|272:192|320:224|320:288|320:288|336:304|384:320|416:368,1,300
112,144,180273,6,0,B|144:112|144:112|192:96|208:128,1,100,4|0,0:0|0:0,0:0:0:0:
208,176,180569,1,0,0:0:0:0:
144,208,180717,2,0,B|176:240|176:240|224:256|240:224,1,100,4|0,0:0|0:0,0:0:0:0:
240,176,181013,1,0,0:0:0:0:
176,144,181162,2,0,B|208:112|208:112|256:96|272:128,1,100,4|0,0:0|0:0,0:0:0:0:
272,176,181458,1,0,0:0:0:0:
208,208,181606,2,0,B|240:240|240:240|288:256|304:224,1,100,4|0,0:0|0:0,0:0:0:0:
304,176,181902,1,0,0:0:0:0:
416,176,182050,1,0,0:0:0:0:
256,192,182273,12,4,183606,0:0:0:0:
320,192,183828,6,4,B|368:160|368:160|304:112|336:48|336:48|288:16|204:26|204:26|128:64|160:128,1,450.000017166138
256,192,184495,1,8,0:0:0:0:
192,192,184717,2,4,B|144:224|144:224|208:272|176:336|176:336|224:368|308:358|308:358|384:320|352:256,1,450.000017166138
256,64,185384,1,8,0:0:0:0:
96,304,185606,1,4,0:0:0:0:
256,64,185828,1,0,0:0:0:0:
416,304,186051,1,0,0:0:0:0:
80,64,186273,2,0,B|80:128|80:128|112:144|176:192|96:272,1,225.000008583069,8|0,0:0|0:0,0:0:0:0:
432,64,186717,2,0,B|432:128|432:128|400:144|336:192|416:272,1,225.000008583069,8|0,0:0|0:0,0:0:0:0:
96,256,187162,1,8,0:0:0:0:
416,256,187384,6,4,B|464:320|464:320|384:352|320:352|320:352|288:288|320:256|320:256|368:208|352:128,1,450.000017166138
256,48,188051,1,8,0:0:0:0:
96,256,188273,2,4,B|48:320|48:320|128:352|192:352|192:352|224:288|192:256|192:256|144:208|160:128,1,450.000017166138
256,192,188939,1,8,0:0:0:0:
32,32,189162,5,4,0:0:0:0:
256,192,189384,1,0,0:0:0:0:
480,32,189606,1,4,0:0:0:0:
32,192,189828,1,8,0:0:0:0:
480,192,190051,1,4,0:0:0:0:
32,32,190273,1,0,0:0:0:0:
480,32,190495,1,4,0:0:0:0:
256,288,190717,1,8,0:0:0:0:
256,16,190939,6,4,B|112:80|112:192|112:192|112:288|112:288|192:256|192:192,1,450.000017166138
256,336,191606,1,8,0:0:0:0:
256,16,191828,2,4,B|400:80|400:192|400:192|400:288|400:288|320:256|320:192,1,450.000017166138
96,192,192495,1,8,0:0:0:0:
256,336,192717,5,4,0:0:0:0:
400,192,192939,1,0,0:0:0:0:
256,48,193162,1,4,0:0:0:0:
96,192,193384,1,8,0:0:0:0:
256,336,193606,1,4,0:0:0:0:
400,192,193828,1,0,0:0:0:0:
256,48,194051,1,0,0:0:0:0:
96,192,194273,1,8,0:0:0:0:
256,336,194495,6,4,B|336:336|336:336|400:304|384:224|384:224|432:80|304:32,1,450.000017166138
256,224,195162,1,8,0:0:0:0:
256,336,195384,2,4,B|176:336|176:336|112:304|128:224|128:224|80:80|208:32,1,450.000017166138
256,160,196051,1,8,0:0:0:0:
448,192,196273,2,0,B|512:96|512:96|432:32|336:80|336:80|304:144|367:175|367:175|368:224,1,450.000017166138
256,192,196939,1,8,0:0:0:0:
64,192,197162,2,0,B|0:96|0:96|80:32|176:80|176:80|208:144|144:175|144:175|144:224,1,450.000017166138
256,192,197828,1,0,0:0:0:0:
384,176,198051,6,4,B|384:304|384:304|384:352|336:352|336:352|176:352|176:352|128:352|128:304|128:304|128:144,1,600
128,112,199050,1,8,0:0:0:0:
160,112,199162,1,8,0:0:0:0:
192,112,199273,1,0,0:0:0:0:
192,144,199384,1,0,0:0:0:0:
192,176,199495,1,0,0:0:0:0:
192,208,199606,1,0,0:0:0:0:
160,208,199717,1,0,0:0:0:0:
128,208,199828,6,4,B|128:80|128:80|128:32|176:32|176:32|336:32|336:32|384:32|384:80|384:80|384:240,1,600
336,240,200828,1,8,0:0:0:0:
296,256,200939,1,8,0:0:0:0:
256,240,201050,1,0,0:0:0:0:
216,256,201162,1,0,0:0:0:0:
176,240,201273,1,0,0:0:0:0:
136,256,201384,1,0,0:0:0:0:
96,240,201495,1,0,0:0:0:0:
96,192,201606,6,4,B|160:160|160:160|128:128|144:64|224:16|224:16|256:80|288:16|288:16|368:64|384:128|352:160|352:160|432:192,1,600
368,192,202606,1,8,0:0:0:0:
336,160,202717,1,8,0:0:0:0:
304,128,202828,1,0,0:0:0:0:
256,112,202939,1,0,0:0:0:0:
208,112,203050,1,0,0:0:0:0:
160,128,203162,1,0,0:0:0:0:
128,160,203273,1,0,0:0:0:0:
96,192,203384,6,4,B|160:224|160:224|128:256|144:320|224:368|224:368|256:304|288:368|288:368|368:320|384:256|352:224|352:224|432:192,1,600
368,192,204384,1,8,0:0:0:0:
320,192,204495,1,8,0:0:0:0:
272,192,204606,1,0,0:0:0:0:
224,192,204717,1,0,0:0:0:0:
176,192,204828,1,0,0:0:0:0:
128,192,204939,1,0,0:0:0:0:
80,192,205050,1,0,0:0:0:0:
32,192,205162,6,4,B|96:96|96:96|48:192|64:224|64:224|80:272|80:272|80:192|96:160|112:144|112:144|160:96|272:112,1,600
304,160,206162,1,8,0:0:0:0:
272,208,206273,1,8,0:0:0:0:
288,272,206384,1,0,0:0:0:0:
336,320,206495,1,0,0:0:0:0:
400,320,206606,1,0,0:0:0:0:
448,288,206717,1,0,0:0:0:0:
480,240,206828,1,0,0:0:0:0:
448,192,206939,6,4,B|384:96|384:96|432:192|416:224|416:224|400:272|400:272|400:192|384:160|368:144|368:144|320:96|208:112,1,600
196,132,207939,1,8,0:0:0:0:
147,143,208050,1,8,0:0:0:0:
99,132,208162,1,0,0:0:0:0:
87,180,208273,1,0,0:0:0:0:
99,228,208384,1,0,0:0:0:0:
147,216,208495,1,0,0:0:0:0:
196,228,208606,1,0,0:0:0:0:
244,216,208717,5,4,0:0:0:0:
292,228,208828,1,8,0:0:0:0:
339,216,208939,1,8,0:0:0:0:
388,228,209051,1,0,0:0:0:0:
400,180,209162,1,0,0:0:0:0:
388,132,209273,1,0,0:0:0:0:
339,143,209384,1,0,0:0:0:0:
292,132,209495,1,0,0:0:0:0:
244,143,209606,5,4,0:0:0:0:
196,132,209717,1,8,0:0:0:0:
147,143,209828,1,8,0:0:0:0:
99,132,209939,1,0,0:0:0:0:
87,180,210051,1,0,0:0:0:0:
99,228,210162,1,0,0:0:0:0:
87,275,210273,1,0,0:0:0:0:
99,324,210384,1,0,0:0:0:0:
147,312,210495,5,4,0:0:0:0:
196,324,210606,1,8,0:0:0:0:
244,312,210717,1,8,0:0:0:0:
292,324,210828,1,0,0:0:0:0:
339,312,210939,1,0,0:0:0:0:
388,324,211051,1,0,0:0:0:0:
400,275,211162,1,0,0:0:0:0:
388,228,211273,1,0,0:0:0:0:
400,180,211384,5,4,0:0:0:0:
388,132,211495,1,8,0:0:0:0:
339,143,211606,1,8,0:0:0:0:
292,132,211717,1,0,0:0:0:0:
244,143,211828,1,0,0:0:0:0:
196,132,211939,1,0,0:0:0:0:
147,143,212050,1,0,0:0:0:0:
99,132,212162,1,0,0:0:0:0:
256,192,212273,12,0,214050,0:0:0:0:
256,192,214162,12,4,217606,0:0:0:0:
