osu file format v6

[General]
AudioFilename: 02 SWITCHED ON LOTUS.mp3
AudioLeadIn: 0
PreviewTime: 100290
Countdown: 0
SampleSet: Normal
StackLeniency: 0.7
Mode: 0
LetterboxInBreaks: 1

[Editor]
DistanceSpacing: 1
BeatDivisor: 4
GridSize: 8

[Metadata]
Title:Switched-On Lotus
Artist:Susumu Hirasawa
Creator:Real1
Version:Easy
Source:
Tags:starrodkirby86 p-model

[Difficulty]
HPDrainRate:2
CircleSize:3
OverallDifficulty:3
SliderMultiplier:1.2
SliderTickRate:1

[Events]
//Background and Video events
0,0,"hirasawa.png"
//Break Periods
2,58776,65484
2,100516,103049
//Storyboard Layer 0 (Background)
//Storyboard Layer 1 (Fail)
//Storyboard Layer 2 (Pass)
//Storyboard Layer 3 (Foreground)
//Storyboard Sound Samples
//Background Colour Transformations
3,100,163,162,255

[TimingPoints]
8490,521.739130434783,4,1,0,40,1,0
104464,-100,4,1,0,50,0,1

[Colours]
Combo1 : 57,95,108
Combo2 : 159,255,255
Combo3 : 0,0,128

[HitObjects]
80,192,8490,5,2
200,192,9011,1,0
320,192,9533,1,0
440,192,10055,1,8
440,312,10576,5,2
320,312,11098,1,0
200,312,11620,1,0
80,312,12142,1,8
80,192,12663,5,2
80,72,13185,1,0
184,128,13707,1,0
304,128,14229,1,8
408,64,14750,6,0,B|408:208,1,120,2|0
288,184,15794,1,0
168,184,16316,1,8
168,304,16837,6,0,B|304:304,3,120,2|0|0|8
408,304,18924,6,0,B|408:168,3,120,2|0|0|8
344,80,21011,6,0,B|480:80,3,120,2|0|0|8
472,200,23098,5,2
472,320,23620,1,0
368,256,24142,1,0
248,256,24663,1,8
152,184,25185,6,0,B|232:88|368:80,1,240,8|2
440,304,27272,6,0,B|328:336|176:304,1,240,8|2
112,232,28837,1,2
224,192,29359,5,8
344,192,29881,1,0
464,192,30403,1,2
408,296,30924,1,2
288,296,31446,6,0,B|152:288|128:136,1,240,8|0
240,192,33011,1,2
128,144,33533,6,0,B|288:-8|448:144,1,360,8|4
448,264,35620,6,0,B|288:416|128:264,1,360,8|4
152,144,37707,5,8
256,88,38229,1,0
360,144,38750,1,2
360,264,39272,1,2
240,264,39794,5,8
120,264,40316,2,2,B|24:136|176:48,1,240
208,184,41881,6,0,B|264:208|352:184,3,120,8|0|2|2
320,312,43968,5,8
200,312,44490,1,0
80,312,45011,1,2
80,192,45533,1,2
176,112,46055,6,0,B|304:320|456:96,1,360,8|0
464,224,48142,6,0,B|464:352,3,120,8|2|2|2
256,208,50229,12,4,53881
64,192,54403,5,8
184,192,54924,1,0
304,192,55446,1,2
424,192,55968,1,2
368,304,56490,6,0,B|256:344|112:304,1,240,8|0
256,104,58576,5,4
448,192,66924,6,0,B|328:152|184:192,1,240,8|4
48,40,69011,6,0,B|152:128,3,120,8|0|2|2
256,192,71098,5,8
256,312,71620,1,0
360,256,72142,1,2
440,168,72663,1,2
440,48,73185,6,0,B|320:80|176:48,1,240,8|0
80,56,74750,1,4
48,168,75272,6,8,B|152:432|448:264,2,480
160,120,79968,5,2
280,120,80489,1,2
224,224,81011,1,2
336,192,81533,6,0,B|472:192,3,120,8|0|0|4
432,312,83620,6,0,B|376:336|288:312,1,120,8|2
256,216,84663,2,0,B|192:200|112:216,1,120,2|2
88,104,85707,5,8
192,40,86229,1,2
288,112,86750,1,2
384,40,87272,1,2
448,144,87794,6,0,B|448:280,2,120,8|2|0
336,192,89359,1,2
216,192,89881,6,0,B|152:192,6,60,8|0|0|0|2|2|2
384,48,91968,6,8,B|400:344|80:352,2,480
256,80,96663,5,2
256,200,97185,1,2
152,136,97707,1,2
48,192,98229,6,0,B|128:288|280:320,1,240,8|4
256,192,99794,1,8
256,72,100316,1,4
448,192,104489,5,4
352,120,105011,1,2
232,112,105533,1,2
112,112,106055,1,2
168,216,106576,5,4
288,216,107098,2,2,B|432:216,1,120
288,128,108142,5,8
168,128,108663,2,0,B|147:189|168:272,2,120,2|2|2
48,120,110229,1,8
56,240,110750,6,0,B|79:297|56:384,3,120,0|0|2|4
168,304,112837,5,4
288,304,113359,1,4
408,304,113881,1,4
408,184,114403,6,2,B|296:136|160:184,1,240
96,88,115968,1,4
216,88,116489,5,8
328,48,117011,1,8
328,168,117533,1,8
256,256,118055,6,2,B|128:256,2,120
96,80,120142,1,4
256,264,121185,5,0
256,144,121707,1,8
376,144,122229,1,0
376,264,122750,1,8
256,264,123272,2,0,B|176:376|48:264,1,240,0|4
64,144,124837,6,2,B|125:120|208:144,1,120
304,144,125881,2,0,B|324:199|304:288,2,120,0|2|2
416,192,127446,6,0,B|440:336|256:352,1,240
160,352,129011,1,2
80,264,129533,5,4
80,144,130055,1,4
152,48,130576,1,4
256,112,131098,6,2,B|256:248,1,120
368,192,132142,1,4
368,192,132663,1,4
248,192,133185,6,2,B|104:192,1,120
88,80,134229,1,0
200,128,134750,1,2
312,80,135272,1,2
256,208,135794,12,4,137881
