osu file format v6

[General]
AudioFilename: susumu_hirasawa-01-sobu_naru_kaze-haWks.mp3
AudioLeadIn: 0
PreviewTime: 56263
Countdown: 1
SampleSet: Normal
StackLeniency: 0.7
Mode: 0
LetterboxInBreaks: 1

[Editor]
DistanceSpacing: 1
BeatDivisor: 2
GridSize: 16

[Metadata]
Title:Sobu Naru Kaze
Artist:Susumu Hirasawa
Creator:Real1
Version:KIRBY Mix
Source:
Tags:

[Difficulty]
HPDrainRate:7
CircleSize:5
OverallDifficulty:8
SliderMultiplier:1.8
SliderTickRate:2

[Events]
//Background and Video events
0,0,"zmnm1197893995.jpg"
//Break Periods
2,47027,55219
2,104163,112355
2,131589,139780
//Storyboard Layer 0 (Background)
//Storyboard Layer 1 (Fail)
//Storyboard Layer 2 (Pass)
//Storyboard Layer 3 (Foreground)
//Storyboard Sound Samples
//Background Colour Transformations
3,100,163,162,255

[TimingPoints]
10260.1428548396,285.681636384413,4,1,0,60,1,0
55677,-100,4,2,0,67,0,0
58263,-100,4,1,0,60,0,1
75977,-100,4,1,0,60,0,0
103691,-100,4,2,0,71,0,0
113120,-100,4,1,0,62,0,1
120834,-100,4,1,0,62,0,0
140391,-100,4,2,0,62,0,0
149534,-100,4,1,0,62,0,0
167820,-100,4,2,0,62,0,0
169963,-100,4,1,0,60,0,0

[HitObjects]
224,160,10260,6,0,B|224:32|80:32,1,180,4|0
160,160,10688,1,0
224,224,10831,6,8,B|224:352|352:352,1,180
288,160,11402,6,0,B|288:32|160:32,1,180,2|2
288,224,11974,6,0,B|288:352|432:352,1,180,2|2
288,160,12545,6,0,B|288:32|432:32,1,180,4|0
352,160,12974,1,0
288,224,13116,6,8,B|288:352|160:352,1,180
224,160,13688,6,0,B|224:32|352:32,1,180,2|2
224,224,14259,6,0,B|224:352|80:352,1,180,2|2
112,192,14831,5,4
176,144,14973,1,0
256,128,15116,1,8
336,144,15259,1,0
400,192,15402,1,8
176,240,15688,5,0
256,304,15830,1,0
336,240,15973,1,8
176,144,16259,5,8
256,80,16402,1,0
336,144,16545,1,8
256,208,16687,1,0
256,208,16830,1,12
96,48,17116,6,2,B|32:48|32:160|128:160,1,180
112,96,17545,1,8
112,96,17687,2,0,B|192:160|208:48|288:112,1,180,2|6
416,48,18259,6,2,B|480:48|480:160|384:160,1,180
400,96,18687,1,8
400,96,18830,2,0,B|320:160|304:48|224:112,1,180,2|6
80,112,19401,6,0,B|80:304,1,180,4|0
144,144,19830,1,0
144,80,19973,6,8,B|336:80,1,180
256,192,20544,6,0,B|256:256|320:256,1,90,2|0
256,192,20830,2,0,B|256:128|320:128,1,90,0|2
320,192,21116,2,2,B|368:336|432:192,1,180
432,112,21687,6,0,B|432:304,1,180,4|0
368,144,22115,1,0
368,80,22258,6,8,B|176:80,1,180
256,192,22830,6,0,B|256:256|192:256,1,90,2|0
256,192,23115,2,0,B|256:128|192:128,1,90,0|2
192,192,23401,2,2,B|144:336|80:192,1,180
112,64,23972,5,4
256,64,24258,1,8
400,64,24544,1,8
336,192,24829,5,2
256,224,24972,1,0
176,192,25115,1,10
112,288,25401,5,2
192,288,25544,1,0
256,336,25686,1,10
320,288,25829,1,0
400,288,25972,1,10
256,192,26258,12,4,27401
256,192,27972,5,4
64,64,28543,5,2
64,64,28829,1,0
64,64,28972,1,0
64,64,29115,2,0,B|64:176|176:176,1,180,2|2
144,96,29543,1,0
144,96,29686,6,0,B|256:96|256:208,1,180,2|8
176,240,30115,1,0
256,288,30257,1,12
256,112,30543,1,2
448,64,30829,5,2
448,64,31114,1,0
448,64,31257,1,0
448,64,31400,2,0,B|448:176|336:176,1,180,2|2
368,96,31829,1,0
368,96,31971,6,0,B|256:96|256:208,1,180,2|8
336,240,32400,1,0
256,288,32543,1,12
128,80,32828,6,2,C|160:112|176:64|192:112|224:80,1,180,2|10
384,80,33400,6,2,C|352:112|336:64|320:112|288:80,1,180,2|10
320,192,33971,5,0
256,240,34114,1,0
192,192,34257,1,4
256,336,34543,5,0
48,336,34828,5,2
256,192,35400,1,6
464,336,35971,1,2
256,272,36400,5,0
320,272,36542,5,2
368,224,36685,1,0
304,208,36828,1,2
256,160,36971,1,0
208,208,37114,1,2
144,224,37257,1,0
192,272,37399,1,6
64,320,37685,6,0,C|64:128,1,180,4|0
144,112,38114,1,0
64,48,38256,6,0,C|256:48,1,180,4|0
256,288,38828,6,8,C|256:96,1,180
64,320,39399,1,2
448,320,39685,5,2
448,320,39828,1,0
448,320,39971,2,0,C|448:128,1,180,4|0
368,112,40399,1,0
448,48,40542,6,0,C|256:48,1,180,4|0
256,288,41113,6,8,C|256:96,1,180
448,320,41685,1,2
128,304,41970,5,0
176,240,42113,1,0
112,192,42256,1,4
112,80,42542,5,0
192,64,42685,1,0
208,144,42827,1,8
304,144,43113,5,0
320,64,43256,1,0
400,80,43399,1,0
400,192,43684,5,0
336,240,43827,1,0
384,304,43970,1,8
256,336,44256,5,0
208,64,44541,6,0,B|144:112|272:144|208:240,1,180,4|0
256,272,44970,1,0
296,227,45113,6,8,B|240:144|368:112|304:64,2,180
384,336,45970,5,2
128,336,46256,1,2
128,192,46541,5,2
384,192,46827,1,4
256,64,55969,6,0,B|256:160,1,90,4|0
192,192,56254,1,0
192,272,56397,1,0
256,320,56540,1,0
320,272,56683,1,0
320,192,56826,1,0
256,144,56969,1,0
256,232,57111,6,0,B|152:232,1,90
256,232,57397,2,0,B|360:232,1,90
256,232,57683,1,6
208,48,58254,6,0,B|96:48|96:160,1,180,4|0
176,128,58683,1,0
176,128,58826,2,8,B|176:320,1,180
128,192,59397,5,2
192,192,59540,1,0
256,192,59683,1,0
320,192,59825,1,0
384,192,59968,1,2
256,256,60254,5,0
304,48,60540,6,0,B|416:48|416:160,1,180,4|0
336,128,60968,1,0
336,128,61111,2,8,B|336:320,1,180
384,192,61682,5,2
320,192,61825,1,0
256,192,61968,1,0
192,192,62111,1,0
128,192,62254,1,2
256,256,62539,5,0
192,48,62825,6,0,B|96:48|96:144|208:144,1,180,4|0
256,96,63254,1,0
326,142,63396,2,8,B|416:144|416:48|320:48,1,180
256,96,63825,1,0
192,144,63968,6,2,B|192:240|256:240|256:240|208:304,1,180
320,144,64539,6,2,B|320:240|256:240|256:240|304:304,1,180
256,32,65111,5,4
192,48,65253,1,0
128,32,65396,1,0
64,48,65539,1,0
112,96,65682,2,8,B|112:192|224:192|224:272,1,180
256,32,66253,5,4
320,48,66396,1,0
384,32,66539,1,0
448,48,66682,1,0
400,96,66825,2,2,B|400:192|288:192|288:272,1,180
256,112,67396,5,4
128,112,67682,2,8,B|64:112|80:176,1,90,8|8
192,288,68110,2,8,B|128:288|144:224,1,90
208,224,68396,1,0
256,176,68539,1,0
304,224,68682,1,0
320,288,68824,2,0,B|384:288|368:224,1,90,8|0
384,112,69253,2,0,B|448:112|432:176,1,90,0|8
256,272,69681,5,4
384,272,69967,2,8,B|448:272|432:208,1,90,8|8
320,96,70396,2,8,B|384:96|368:160,1,90
304,160,70681,1,0
256,208,70824,1,0
208,160,70967,1,0
192,96,71110,2,0,B|128:96|144:160,1,90,8|0
128,272,71538,2,0,B|64:272|80:208,1,90,0|8
112,160,71824,1,0
160,208,71967,5,4
208,256,72110,1,0
256,304,72253,2,0,B|256:208,1,90,4|0
304,256,72538,1,0
352,208,72681,1,0
400,160,72824,1,4
256,48,73110,5,2
160,112,73395,1,2
256,192,73681,1,2
352,112,73967,1,2
144,192,74252,6,0,B|144:304|256:304,1,180,4|0
256,192,74681,1,0
368,192,74824,2,8,B|368:80|256:80,1,180
256,192,75395,12,4,76252
256,64,76538,5,4
192,80,76681,1,0
128,96,76823,2,8,B|128:192|208:192|208:192|208:144,1,180
128,96,77395,5,2
112,160,77538,1,0
160,208,77681,2,0,B|272:208,1,90,2|0
304,208,77966,2,0,B|304:304|176:304,1,180,4|8
208,176,78538,5,0
256,64,78823,5,4
320,80,78966,1,0
384,96,79109,2,8,B|384:192|304:192|304:192|304:144,1,180
384,96,79680,5,2
400,160,79823,1,0
352,208,79966,2,0,B|240:208,1,90,2|0
208,208,80252,2,0,B|208:304|336:304,1,180,4|8
304,176,80823,5,0
256,48,81109,5,8
192,64,81252,1,0
128,96,81394,1,2
96,160,81537,1,0
96,224,81680,1,2
256,336,81966,5,8
320,320,82109,1,0
384,288,82251,1,2
416,224,82394,1,0
416,160,82537,1,2
256,64,82823,6,0,B|256:256|96:256,1,270,4|0
112,192,83394,2,0,B|400:192,1,270
256,320,83966,6,0,B|256:128|416:128,1,270,4|0
400,192,84537,2,0,B|112:192,1,270
160,128,85108,5,0
256,128,85251,1,0
352,128,85394,1,4
416,256,85680,5,2
416,256,85965,1,8
416,256,86108,1,0
416,256,86251,2,0,B|416:336|272:336,1,180,2|0
304,272,86679,1,0
304,272,86822,2,8,B|96:272,1,180
256,192,87394,1,2
96,256,87679,1,2
96,256,87965,5,2
96,256,88251,1,8
96,256,88394,1,0
96,256,88536,2,0,B|96:336|240:336,1,180,2|0
208,272,88965,1,0
208,272,89108,2,8,B|416:272,1,180
256,192,89679,1,2
416,256,89965,1,2
256,192,90251,5,0
256,336,90536,5,8
192,320,90679,1,0
128,288,90822,1,2
96,224,90965,1,0
96,160,91108,1,2
256,48,91393,5,8
320,64,91536,1,0
384,96,91679,1,2
416,160,91822,1,0
416,224,91965,1,2
256,320,92536,6,0,B|256:128|96:128,1,270,4|0
112,192,93107,2,0,B|400:192,1,270
256,64,93679,6,0,B|256:256|416:256,1,270,4|0
400,192,94250,2,0,B|112:192,1,270
96,128,94821,5,4
128,128,94964,1,0
160,128,95107,1,0
192,128,95250,1,0
224,128,95393,1,0
256,128,95536,1,0
288,128,95678,1,0
320,128,95821,1,0
416,192,95964,5,4
384,192,96107,1,0
352,192,96250,1,0
320,192,96393,1,0
288,192,96535,1,0
256,192,96678,1,0
224,192,96821,1,0
192,192,96964,1,0
96,256,97107,5,4
128,256,97250,1,0
160,256,97393,1,0
192,256,97535,1,0
224,256,97678,1,0
256,256,97821,1,0
288,256,97964,1,0
320,256,98107,1,0
352,256,98250,5,8
384,256,98392,1,0
320,224,98535,5,0
352,224,98678,1,8
288,192,98821,5,8
320,192,98964,1,0
272,160,99107,5,8
304,160,99249,1,0
160,128,99392,5,4
128,128,99535,1,0
192,160,99678,5,0
160,160,99821,1,0
224,192,99964,5,0
192,192,100107,1,0
240,224,100249,5,0
208,224,100392,1,0
352,128,100535,5,0
384,128,100678,1,4
320,160,100821,5,0
352,160,100964,1,0
288,192,101106,5,0
320,192,101249,1,0
272,224,101392,5,0
304,224,101535,1,0
96,192,101678,5,2
384,256,101963,1,2
384,128,102249,1,2
176,112,102535,6,8,B|176:304,1,180
336,272,103106,6,8,B|336:80,1,180
256,192,103678,1,0
256,192,103963,1,4
288,80,113105,5,4
368,128,113248,1,0
416,208,113391,1,2
320,208,113534,2,8,L|320:256,2,45
416,208,113819,5,2
352,304,113962,1,2
256,224,114105,1,0
256,304,114248,5,0
160,304,114391,1,0
96,208,114533,1,2
192,208,114676,2,8,L|192:256,2,45
224,80,114962,5,2
144,128,115105,1,2
96,208,115248,1,0
96,304,115390,6,0,L|304:304,1,180,4|0
192,240,115819,1,0
96,240,115962,6,8,L|288:240,1,180
416,80,116533,6,0,L|208:80,1,180,4|0
320,144,116962,1,0
416,144,117105,6,8,L|224:144,1,180
416,320,117676,6,0,B|416:224|288:224,1,180,4|0
96,64,118247,6,0,B|96:160|224:160,1,180,2|2
96,320,118819,6,0,B|96:224|224:224,1,180,4|0
416,64,119390,6,0,B|416:160|288:160,1,180,2|2
296,320,119961,5,12
216,320,120104,1,0
152,256,120247,1,0
216,192,120390,1,8
296,192,120533,1,8
360,128,120676,1,0
296,64,120818,1,8
216,320,121104,5,12
296,320,121247,1,0
360,256,121390,1,0
296,192,121533,1,8
216,192,121675,1,8
152,128,121818,1,0
216,64,121961,1,8
256,328,122247,5,6
192,280,122390,1,0
128,232,122533,1,0
192,184,122675,2,8,B|256:184,2,45
128,152,122961,1,0
192,104,123104,1,8
256,56,123247,1,0
256,136,123390,5,6
320,104,123532,1,0
384,152,123675,1,0
320,200,123818,2,8,B|256:200,2,45
384,232,124104,1,0
320,280,124247,1,8
256,328,124389,1,0
256,256,124532,6,0,B|64:256,1,180,4|0
160,192,124961,5,0
160,272,125104,2,2,B|160:80,1,180
256,256,125675,6,0,B|448:256,1,180,4|0
352,192,126104,5,0
352,272,126246,2,2,B|352:80,1,180
256,96,126818,5,4
192,144,126961,1,0
192,224,127103,1,0
256,272,127246,1,0
320,224,127389,1,8
320,144,127532,1,0
256,184,127675,1,10
256,184,127960,1,2
256,184,128246,1,2
256,184,128532,1,2
256,336,128818,5,4
256,192,129103,12,4,131389
256,48,140530,6,0,B|160:48,1,90,4|0
256,112,140816,2,0,B|160:112,1,90
64,80,141102,1,2
64,192,141388,2,0,B|64:288,2,90
256,192,141959,2,2,B|144:192|144:320,2,180
256,48,142816,6,0,B|352:48,1,90,4|0
256,112,143102,2,0,B|352:112,1,90
448,80,143387,1,2
448,192,143673,2,0,B|448:288,2,90
256,192,144244,2,2,B|368:192|368:320,2,180
256,304,145101,6,0,B|176:256,1,90,4|0
256,304,145387,2,0,B|336:256,1,90
256,192,145673,1,2
256,48,145958,2,0,B|256:144,2,90
80,192,146530,2,2,B|80:80|192:80,2,180
256,304,147387,6,0,B|336:256,1,90,4|0
256,304,147673,2,0,B|176:256,1,90
256,192,147958,1,2
256,48,148244,2,0,B|256:144,2,90
432,192,148815,2,6,B|432:80|320:80,2,180
328,288,149672,5,0
184,288,149958,1,8
256,224,150101,1,8
328,288,150244,1,2
328,96,150529,1,8
256,160,150672,1,8
184,96,150815,1,2
256,288,151101,6,4,B|256:104,1,180
160,120,151958,5,0
160,264,152243,1,8
224,192,152386,1,8
160,120,152529,1,2
352,120,152815,1,8
288,192,152958,1,8
352,264,153100,1,2
160,192,153386,6,4,B|344:192,1,180
184,288,154243,5,0
328,288,154529,1,8
256,224,154672,1,8
184,288,154815,1,2
184,96,155100,1,8
256,160,155243,1,8
328,96,155386,1,2
256,288,155672,6,4,B|256:104,1,180
352,120,156529,5,0
352,264,156814,1,8
288,192,156957,1,8
352,120,157100,1,2
160,120,157386,1,8
224,192,157529,1,8
160,264,157671,1,2
352,192,157957,6,4,B|168:192,2,180
256,272,158814,5,2
192,320,158957,1,0
128,272,159100,1,2
64,224,159243,1,0
128,176,159385,1,6
256,96,159671,5,8
320,144,159814,1,8
384,192,159957,1,8
304,224,160100,1,0
240,176,160243,1,2
192,304,160528,1,6
256,272,161100,5,2
320,320,161242,1,0
384,272,161385,1,2
448,224,161528,1,0
384,176,161671,1,6
256,96,161957,5,8
192,144,162099,1,8
128,192,162242,1,8
208,224,162385,1,0
272,176,162528,1,2
320,304,162814,1,6
256,192,163242,12,0,164242
256,192,164385,12,4,165385
24,160,165670,6,0,B|24:32|488:32|488:176,1,540,4|0
487,217,166813,6,0,B|488:352|24:352|24:224,1,540,4|0
128,192,167956,5,4
192,112,168099,1,0
320,112,168242,1,0
256,192,168384,1,4
384,192,168527,1,0
256,192,168670,1,0
352,288,168813,6,0,B|288:208,1,90,4|0
160,288,169099,2,0,B|224:208,1,90
256,128,169384,6,8,B|256:32,2,90
96,352,170241,6,0,B|32:352|32:288,1,90,4|0
32,224,170527,2,0,B|32:128,1,90
32,48,170813,2,8,B|128:48|128:176,1,180
96,272,171384,6,2,B|192:272|192:128,1,180
320,144,171955,6,2,B|320:272|416:272,1,180
416,352,172527,6,0,B|480:352|480:288,1,90
480,224,172812,2,0,B|480:128,1,90
480,48,173098,2,8,B|384:48|384:176,1,180
416,272,173670,6,2,B|320:272|320:128,1,180
191,144,174241,6,2,B|192:272|96:272,1,180
160,336,174812,6,0,B|256:336,1,90,4|0
256,192,175098,2,0,B|256:288,1,90
176,240,175384,2,8,B|80:240|80:112,1,180
352,48,175955,6,0,B|256:48,1,90,4|0
256,192,176241,2,0,B|256:96,1,90
336,144,176526,2,8,B|432:144|432:272,1,180
256,192,177098,12,4,179383
