osu file format v6

[General]
AudioFilename: susumu_hirasawa-01-sobu_naru_kaze-haWks.mp3
AudioLeadIn: 0
PreviewTime: 56263
Countdown: 1
SampleSet: Normal
StackLeniency: 0.7
Mode: 0
LetterboxInBreaks: 1

[Editor]
DistanceSpacing: 1
BeatDivisor: 4
GridSize: 8

[Metadata]
Title:Sobu Naru Kaze
Artist:Susumu Hirasawa
Creator:Real1
Version:Easy
Source:
Tags:

[Difficulty]
HPDrainRate:1
CircleSize:3
OverallDifficulty:2
SliderMultiplier:1.2
SliderTickRate:1

[Events]
//Background and Video events
0,0,"zmnm1197893995.jpg"
//Break Periods
2,45888,56700
//Storyboard Layer 0 (Background)
//Storyboard Layer 1 (Fail)
//Storyboard Layer 2 (Pass)
//Storyboard Layer 3 (Foreground)
//Storyboard Sound Samples
//Background Colour Transformations
3,100,163,162,255

[TimingPoints]
10260.1428548396,571.363272768826,4,1,0,60,1,0
55677,-100,4,2,0,67,0,0
58263,-100,4,1,0,60,0,1
75977,-100,4,1,0,60,0,0

[Colours]
Combo1 : 128,0,64
Combo2 : 0,64,128
Combo3 : 255,128,64

[HitObjects]
72,192,10260,6,0,B|80:288|256:352|432:304|456:168,1,480,4|6
251,191,13402,2,0,B|51:191,1,180,2|2
96,48,14831,5,4
272,48,15688,2,0,B|472:48,1,180,2|2
424,168,17116,6,0,B|336:288,2,120,2|2|2
304,192,18830,1,4
248,296,19401,5,4
248,112,20259,2,0,B|48:112,1,180,2|2
120,208,21687,5,4
256,328,22544,2,0,B|456:328,1,180,2|2
320,192,23972,5,4
144,192,24829,1,2
240,48,25686,1,2
336,136,26258,6,0,B|440:232,2,120,2|2|2
232,192,27972,5,0
112,192,28543,1,0
112,72,29115,1,0
232,72,29686,2,2,B|320:72,1,60
424,192,30829,5,0
328,264,31400,1,0
232,192,31971,1,2
168,192,32257,1,2
64,136,32828,6,0,B|111:95|152:32|240:32|336:56,1,300,0|2
400,152,34828,1,4
408,272,35400,6,0,B|336:328|240:288|288:352|264:-8|160:368|32:272,1,420
40,216,37685,5,2
40,96,38256,1,2
160,96,38828,2,8,B|224:96,1,60
368,192,39971,5,2
432,88,40542,1,2
312,88,41113,2,8,B|232:88,1,60
72,56,42256,5,0
72,176,42827,1,8
72,296,43399,1,0
176,240,43970,1,8
296,240,44541,1,0
416,240,45113,2,4,B|416:104,1,120
88,192,58254,5,4
264,192,59111,2,0,B|319:216|368:174|448:192,1,180,2|2
416,72,60540,5,4
248,72,61397,2,0,B|192:51|122:95|56:72,1,180,2|2
72,192,62825,5,4
200,312,63682,2,0,B|392:312,1,180,2|2
368,192,65111,6,0,B|315:174|290:215|232:192,2,120,2|2|2
464,120,66825,1,4
352,80,67396,5,4
208,192,68253,1,2
320,336,69110,1,2
320,216,69681,5,4
160,136,70538,2,0,B|72:136,1,60,2|0
96,200,71110,2,0,B|184:200,1,60,0|2
272,192,71967,5,4
424,88,72824,2,0,B|349:76|294:115|224:88,1,180,2|2
128,88,74252,6,0,B|128:232,2,120,2|2|2
256,192,75966,6,2,B|368:280,2,120
136,192,77681,2,8,B|136:280,1,60
256,192,78538,6,2,B|448:192,1,180
432,312,79966,2,8,B|368:312,1,60
120,192,81109,5,8
192,96,81680,1,0
312,96,82251,1,8
384,192,82823,1,0
384,312,83394,2,4,B|120:312,1,240
120,192,85108,2,2,B|192:192,1,60
240,192,85680,6,0,B|384:192,2,120,2|8|2
56,192,87965,6,0,B|83:246|38:257|56:320,2,120,2|8|2
256,192,89965,12,4,94250
