osu file format v9

[General]
AudioFilename: Susumu Hirasawa Compilation.mp3
AudioLeadIn: 3000
PreviewTime: 585539
Countdown: 0
SampleSet: Normal
StackLeniency: 0.7
Mode: 0
LetterboxInBreaks: 0

[Editor]
Bookmarks: 579,66979,144579,222179,277379,359379,446579,524979,585379
DistanceSpacing: 0.1
BeatDivisor: 4
GridSize: 4

[Metadata]
Title:KIRBY Mix Compilation
Artist:Susumu Hirasawa
Creator:Gcode
Version:KIRBY Mix
Source:
Tags:Starrodkirby86 Beuchi-chan Gens Real1 Nachopiggy Card N'Force Remix Shiroi Oka Maromi no Theme Yume no Shima Shinen kouen Parade Sobu Naru Kaze Forces Amor Buffer Aurora 2 Big Brother Switched On Lotus

[Difficulty]
HPDrainRate:5
CircleSize:5
OverallDifficulty:8
ApproachRate:8
SliderMultiplier:1.8
SliderTickRate:1

[Events]
//Background and Video events
0,0,"kcompilation.jpg"
//Break Periods
2,63206,68827
2,85777,93327
2,141777,147736
2,179686,186986
2,219686,225948
2,274893,280820
2,305766,312815
2,353758,359641
2,368031,369241
2,383390,384601
2,414111,415321
2,445071,450527
2,480620,486527
2,504620,513956
2,521763,528836
2,549680,556626
2,582839,588608
//Storyboard Layer 0 (Background)
Sprite,Background,Centre,"kcompilation.jpg",320,240 F,0,-7000,,1 F,0,-5000,0,1,0 F,0,666565,,1 F,0,670739,,1
Sprite,Background,Centre,"BG (2).jpg",320,240 F,0,0,5421,0,1 F,0,69582,,1
Sprite,Background,Centre,"paranoia-agent.jpg",320,240 F,0,67021,69582,0,1 F,0,148481,,0
Sprite,Background,Centre,"l8ljn9.jpg",320,240 F,0,144582,148481,0,1 F,0,226688,,0
Sprite,Background,Centre,"zmnm1197893995.jpg",320,240 F,0,222231,226688,0,1 F,0,281571,,0
Sprite,Background,Centre,"BG.jpg",320,240 F,0,277397,281571,0,1 F,0,360382,,0
Sprite,Background,Centre,"Cover.jpg",320,240 F,0,359370,360382,0,1 F,0,451282,,0
Sprite,Background,Centre,"Aurora-Borealis.png",320,240 F,0,446602,451282,0,1 F,0,529566,,0
Sprite,Background,Centre,"BigBrotherBG.png",320,240 F,0,524996,,0 F,0,524996,529566,0,1 F,0,589329,,0
Sprite,Background,Centre,"bg.png",320,240 F,0,585618,589348,0,1 F,0,666565,667608,1,0
//Storyboard Layer 1 (Fail)
//Storyboard Layer 2 (Pass)
//Storyboard Layer 3 (Foreground)
Sprite,Foreground,Centre,"shiroi oka.png",320,240 M,1,5421,5821,-163,401,188,401 F,0,63021,67021,1,0
Sprite,Foreground,Centre,"Yume no Shima.png",320,240 M,1,69582,69832,-133,403,177,403 F,0,141582,144582,1,0
Sprite,Foreground,TopLeft,"byakkoya.png",320,240 M,1,148481,148731,-380,381,16,381 F,0,220481,222481,1,0
Sprite,Foreground,Centre,"sobu noru kaze.png",320,240 M,1,226688,226973,-141,424,181,424 F,0,274683,277540,1,0
Sprite,Foreground,Centre,"forces.png",320,240 M,1,281571,281820,-70,406,137,406 F,0,353559,359308,1,0
Sprite,Foreground,Centre,"amor buffer.png",320,240 M,1,360382,360862,-123,419,186,419 F,0,444982,446902,1,0
Sprite,Foreground,Centre,"aurora 2.png",320,240 M,1,451282,451496,-94,413,143,413 F,0,521567,524996,1,0
Sprite,Foreground,Centre,"big brother.png",320,240 M,1,529566,529881,-121,412,148,412 F,0,582618,585460,1,0
Sprite,Foreground,Centre,"switched on lotus.png",320,240 M,1,589348,589608,-181,418,206,418 F,0,656130,664478,1,0
Sprite,Foreground,Centre,"warningv2.png",320,240 F,0,414262,414382,0,1 F,0,414382,414502,1,0.4 F,0,414502,414622,0.4,1 F,0,414622,414742,1,0.4 F,0,414742,414862,0.4,1 F,0,414862,414982,1,0.4 F,0,414982,415102,0.4,1 F,0,415102,415222,1,0.4 F,0,415222,415342,0.4,1 F,0,415342,415462,1,0.4 F,0,415462,415582,0.4,1 F,0,415582,415702,1,0
Sprite,Foreground,Centre,"Thanks.png",320,240 F,0,668140,668401,0,1 S,0,668140,670488,1,1.05 F,0,670227,670488,1,0
//Storyboard Sound Samples
//Background Colour Transformations
3,100,163,162,255

[TimingPoints]
5406,800,3,2,2,40,1,0
7806,-200,3,2,2,40,0,0
24606,-50,3,2,2,40,0,0
66577,250,4,1,0,60,1,0
70014,-111.111111111111,4,1,0,60,0,0
144486,250,4,1,0,60,1,0
175987,-100,4,1,0,60,0,1
179737,-100,4,1,0,60,0,0
187487,-100,4,1,0,30,0,0
188487,-100,4,1,0,60,0,1
188612,-100,4,1,0,61,0,1
219486,-100,4,1,0,61,0,0
222128,285.681636384413,4,2,0,60,1,0
226698,-100,4,2,0,67,0,0
228983,-100,4,1,0,60,0,1
246696,-100,4,1,0,60,0,0
274479,-100,4,2,0,70,0,0
277571,249.958340276621,4,1,0,59,1,0
281518,-100,4,1,0,70,0,0
321564,-100,4,1,0,59,0,1
353559,-100,4,2,0,59,0,0
358471,480,4,1,0,30,1,0
360989,-163.934426229508,4,1,0,31,0,0
369149,-90.0900900900901,4,1,0,51,0,1
371549,-90.0900900900901,4,1,0,51,0,0
384391,240,4,1,0,51,1,0
384509,-90.0900900900901,4,1,0,61,0,1
386905,-90.0900900900901,4,1,0,61,0,0
415111,120,4,1,0,71,1,0
415231,-100,4,1,0,71,0,1
417629,-90.0900900900901,4,1,0,71,0,0
437191,480,4,1,0,71,1,0
437309,-163.934426229508,4,1,0,71,0,0
446992,214.285714285714,4,2,1,70,1,0
452991,-111.111111111111,4,2,1,71,0,1
480419,-111.111111111111,4,2,1,71,0,0
487223,-200,4,2,1,71,0,0
490651,-111.111111111111,4,2,1,71,0,0
524534,315.789473684211,4,1,0,71,1,0
529586,-71.9424460431655,4,1,0,71,0,0
572533,-71.9424460431655,4,1,0,71,0,1
582638,-71.9424460431655,4,1,0,0,0,0
585185,260.869565217391,4,1,0,40,1,0
589358,-90.0900900900901,4,1,0,40,0,0
622749,-90.0900900900901,4,1,0,40,0,1
638401,-90.0900900900901,4,1,0,40,0,0
639444,-90.0900900900901,4,1,0,40,0,1
656140,-90.0900900900901,4,1,0,40,0,0

[Colours]
Combo1 : 255,128,0
Combo2 : 0,128,0
Combo3 : 0,0,255
Combo4 : 255,0,0

[HitObjects]
32,352,5406,1,0
256,32,6206,1,2
480,352,7006,1,0
112,192,7806,5,0
400,192,8206,1,0
112,192,8606,6,0,B|64:192|64:144|96:112,1,90,0|2
400,304,9806,5,0
112,304,10206,1,2
256,64,10606,1,0
400,192,11006,6,0,B|448:192|448:144|416:112,1,90,0|2
176,64,12206,5,0
64,192,12606,1,0
176,320,13006,1,0
224,160,13406,6,0,B|224:80,1,67.5
288,224,14206,6,0,B|288:304,1,67.5
32,48,15006,5,4
336,64,15806,5,2
448,192,16206,1,0
336,320,16606,1,0
176,64,17006,5,2
64,192,17406,1,0
176,320,17806,1,0
480,48,18206,5,4
32,48,19006,5,2
304,112,19806,6,0,B|332:84,1,22.5
304,192,20206,2,0,B|336:192,1,22.5
208,192,20606,6,0,B|164:224|164:224|132:224,1,67.5
96,176,21406,2,0,B|140:144|140:144|172:144,1,67.5
208,112,22206,6,0,B|180:84,1,22.5,2|0
208,192,22606,2,0,B|176:192,1,22.5,2|0
304,192,23006,6,0,B|348:224|348:224|380:224,1,67.5,2|0
416,176,23806,2,0,B|372:144|372:144|340:144,1,67.5,4|0
160,48,24606,6,0,B|80:48|80:48|48:80|48:144,1,180,2|8
160,336,25406,2,0,B|80:336|80:336|48:304|48:240,1,180,2|8
176,192,26206,5,2
256,112,26406,1,0
336,192,26606,1,10
416,112,26806,1,0
463,243,27006,6,0,B|464:304|432:336|432:336|352:336,1,180,2|8
352,48,27806,2,0,B|432:48|432:48|464:80|464:144,1,180,2|8
336,192,28606,5,2
256,272,28806,1,0
176,192,29006,1,10
96,272,29206,1,0
64,112,29406,6,0,B|112:160|176:48|240:112,1,180,0|8
448,112,30206,2,0,B|400:160|336:48|272:112,1,180,0|8
192,208,31006,5,2
320,320,31206,1,0
320,208,31406,5,2
192,320,31606,1,0
80,272,31806,6,0,B|80:144|144:96,1,180,4|0
192,48,32406,1,0
256,96,32606,2,0,B|256:192,2,90,4|0|4
320,48,33206,1,0
378,105,33406,2,0,B|432:144|432:272,1,180,2|4
368,304,34006,1,2
368,224,34206,6,0,B|320:112|320:112|288:176,1,180,4|0
256,96,34806,1,0
220,164,35006,2,0,B|194:111|194:111|146:223,1,180,6|4
144,304,35606,1,2
208,256,35806,6,0,B|128:192,1,90,8|8
304,256,36206,2,0,B|384:192,1,90,8|8
448,192,36606,6,0,B|448:128|448:128|368:128|368:48,2,180,2|2|2
256,96,37806,1,0
392,304,38206,5,8
304,304,38406,1,0
208,304,38606,1,8
120,304,38806,1,0
64,192,39006,6,0,B|64:128|64:128|144:128|144:48,2,180,2|2|2
256,96,40206,1,0
120,304,40606,5,8
208,304,40806,1,0
304,304,41006,1,8
392,304,41206,1,0
448,240,41406,6,0,B|384:176|464:128|384:80,1,180,0|2
64,240,42206,6,0,B|128:176|48:128|128:80,1,180,0|2
368,256,43006,6,0,B|336:208|352:160,1,90,2|2
144,256,43406,6,0,B|176:208|160:160,1,90,2|2
256,128,43806,6,0,L|256:32,1,90
192,96,44206,5,2
320,112,44406,1,0
192,160,44606,1,0
320,176,44806,1,0
192,224,45006,1,2
320,240,45206,1,0
192,288,45406,1,0
48,192,45806,1,4
256,256,46206,6,0,L|256:352,1,90
320,288,46606,5,2
192,272,46806,1,0
320,224,47006,1,0
192,208,47206,1,0
320,160,47406,1,2
192,144,47606,1,0
320,96,47806,1,0
464,192,48206,1,4
320,320,48606,6,0,B|320:336|288:352|288:256,1,90,2|0
352,256,49006,2,0,B|384:224|384:160,1,90,2|0
288,224,49406,2,0,B|320:192|320:128,1,90
224,192,49806,2,0,B|256:160|256:96,1,90,2|0
160,160,50206,2,0,B|192:128|192:64,2,90,2|0|4
192,320,51006,6,0,B|192:336|224:352|224:256,1,90,2|0
160,256,51406,2,0,B|128:224|128:160,1,90,2|0
224,224,51806,2,0,B|192:192|192:128,1,90
288,192,52206,2,0,B|256:160|256:96,1,90,2|0
352,160,52606,2,0,B|320:128|320:64,2,90,2|0|4
464,256,53406,6,0,B|448:336|448:336|336:352|336:304,1,180,2|0
256,256,54006,1,0
161,330,54206,6,0,B|176:352|64:336|64:336|48:256,2,180,2|0|0
256,256,55206,1,0
256,256,55406,1,2
64,96,55806,5,2
128,64,56006,1,0
192,96,56206,1,2
256,64,56406,1,2
320,96,56606,1,2
384,64,56806,1,0
448,96,57006,5,2
384,128,57206,1,2
320,160,57406,1,2
256,128,57606,1,0
192,160,57806,1,2
128,128,58006,1,0
64,96,58206,6,0,B|64:192|64:192|112:288,1,180,2|0
256,240,58806,1,0
410,267,59006,2,0,B|448:192|448:192|448:96,1,180,2|0
256,240,59606,1,0
112,144,59806,5,8
400,144,60206,1,8
256,192,60606,12,4,63006
256,96,69577,5,8
416,128,69827,5,0
416,128,69952,1,0
416,128,70077,2,0,B|416:224|276:224,1,161.999992275238,8|0
96,128,70577,2,0,B|96:224|236:224,1,161.999992275238,8|0
320,256,71077,5,8
192,256,71327,1,0
256,128,71577,2,2,B|320:128|320:64|192:64|192:128,2,161.999992275238,10|2|10
256,256,72327,2,2,B|192:256|192:320|320:320|320:256,1,161.999992275238,2|10
96,128,73077,5,8
192,192,73327,1,0
256,64,73577,1,4
320,192,73827,1,0
416,128,74077,1,8
416,320,74327,6,2,B|416:224|288:224,1,161.999992275238,2|10
96,320,74827,2,2,B|96:224|224:224,1,161.999992275238,2|10
320,192,75327,5,0
256,96,75577,1,4
192,192,75827,1,0
256,288,76077,1,4
256,96,76327,5,0
416,192,76577,6,2,B|256:288|80:176,1,323.999984550477,2|6
256,288,77577,5,8
96,256,77827,5,0
96,256,77952,1,0
96,256,78077,2,0,B|96:160|236:160,1,161.999992275238,8|0
416,256,78577,2,0,B|416:160|276:160,1,161.999992275238,8|0
192,128,79077,5,8
320,128,79327,1,0
256,256,79577,2,2,B|192:256|192:320|320:320|320:256,2,161.999992275238,10|2|10
256,128,80327,2,2,B|320:128|320:64|192:64|192:128,1,161.999992275238,2|10
416,256,81077,5,8
320,192,81327,1,0
256,320,81577,1,4
192,192,81827,1,0
96,256,82077,1,8
96,64,82327,6,2,B|96:160|224:160,1,161.999992275238,2|10
416,64,82827,2,2,B|416:160|288:160,1,161.999992275238,2|10
192,192,83327,5,0
256,288,83577,1,4
320,192,83827,1,0
256,96,84077,1,4
256,288,84327,5,0
96,192,84577,6,2,B|256:96|432:208,1,323.999984550477,2|6
256,288,85577,1,4
448,96,94077,6,0,B|448:192|320:192,1,161.999992275238,8|0
343,192,94577,2,0,B|343:288|215:288,1,161.999992275238,8|0
64,96,95077,6,0,B|64:192|192:192,1,161.999992275238,8|0
169,192,95577,2,0,B|169:288|297:288,1,161.999992275238,8|0
384,192,96077,5,0
256,192,96327,1,0
128,192,96577,1,4
224,288,96827,5,8
288,288,96952,1,0
256,224,97077,1,8
256,96,97327,1,0
256,224,97577,1,4
416,96,98077,6,0,B|416:192|288:192,1,161.999992275238,8|0
96,96,98577,2,0,B|96:192|224:192,1,161.999992275238,8|0
320,256,99077,1,8
192,256,99327,1,8
256,192,99577,12,4,101077
416,96,101577,6,0,B|416:192|288:192,1,161.999992275238,8|0
310,191,101952,1,2
311,192,102077,2,0,B|311:288|439:288,2,161.999992275238,8|8|0
256,64,102827,5,8
256,128,102952,1,8
256,192,103077,1,2
192,288,103327,1,0
96,288,103577,6,0,B|96:192|224:192,1,161.999992275238,8|0
202,193,103952,1,2
201,192,104077,2,0,B|201:96|73:96,2,161.999992275238,8|8|0
256,320,104827,5,8
256,256,104952,1,8
256,192,105077,1,2
320,96,105327,1,8
352,224,105577,5,8
320,288,105702,1,0
256,320,105827,1,8
192,288,105952,1,0
160,224,106077,1,8
256,128,106327,6,2,B|256:224,6,80.9999961376192,2|2|2|2|2|2|6
128,192,107327,5,8
256,320,107577,1,2
384,192,107827,1,8
256,64,108077,1,2
256,192,108327,5,4
256,192,108577,1,4
320,288,108827,5,8
256,320,108952,1,0
192,288,109077,1,4
96,96,109577,6,0,B|96:192|224:192,1,161.999992275238,8|0
202,191,109952,1,2
201,192,110077,2,0,B|201:288|73:288,2,161.999992275238,8|8|0
256,64,110827,5,8
256,128,110952,1,8
256,192,111077,1,2
320,288,111327,1,0
416,288,111577,6,0,B|416:192|288:192,1,161.999992275238,8|0
310,193,111952,1,2
311,192,112077,2,0,B|311:96|439:96,2,161.999992275238,8|8|0
256,320,112827,5,8
256,256,112952,1,8
256,192,113077,1,2
192,96,113327,1,8
160,224,113577,5,8
192,288,113702,1,0
256,320,113827,1,8
320,288,113952,1,0
352,224,114077,1,8
256,128,114327,6,2,B|256:224,6,80.9999961376192,2|2|2|2|2|2|6
384,192,115327,5,8
256,320,115577,1,2
128,192,115827,1,8
256,64,116077,1,2
256,64,116327,5,2
128,192,116577,1,8
256,320,116827,1,2
384,192,117077,1,8
256,192,117327,5,4
256,320,117577,6,0,B|160:320|160:256|72:256,1,161.999992275238,8|0
176,208,117952,1,8
256,192,118077,2,0,B|352:192|352:128|440:128,1,161.999992275238,8|0
288,64,118577,5,8
256,128,118702,1,0
224,64,118827,1,8
256,192,119077,1,12
256,320,119327,6,2,B|256:224,2,80.9999961376192
128,192,119827,6,2,B|128:96,2,80.9999961376192
384,192,120327,6,6,B|384:96,2,80.9999961376192
256,192,120827,1,12
384,288,121077,6,0,B|320:224|416:160|360:104,1,161.999992275238,8|8
320,96,121452,1,8
288,160,121577,2,0,B|224:96|160:192|104:132,1,161.999992275238,8|0
128,96,121952,1,8
128,96,122077,6,0,B|192:160|96:224|156:280,1,161.999992275238,8|8
192,288,122452,1,8
224,224,122577,2,0,B|288:288|352:192|408:252,1,161.999992275238,8|2
384,96,123077,5,8
256,160,123327,1,0
128,96,123577,1,8
128,224,123827,1,0
256,288,124077,1,8
384,224,124327,1,0
256,160,124577,2,6,B|256:64,6,80.9999961376192
256,64,125577,6,0,B|352:64|352:128|440:128,1,161.999992275238,8|0
336,176,125952,1,8
256,192,126077,2,0,B|160:192|160:256|72:256,1,161.999992275238,8|0
224,320,126577,5,8
256,256,126702,1,0
288,320,126827,1,8
256,192,127077,1,12
256,64,127327,6,2,B|256:160,2,80.9999961376192
384,192,127827,6,2,B|384:288,2,80.9999961376192
128,192,128327,6,6,B|128:288,2,80.9999961376192
256,192,128827,1,12
256,192,129077,12,4,133577
448,64,134077,6,0,B|384:64|384:96|288:96,1,161.999992275238,2|0
448,128,134577,2,0,B|384:128|384:160|288:160,1,161.999992275238,2|0
448,192,135077,2,0,B|384:192|384:224|288:224,1,161.999992275238,2|0
448,256,135577,2,0,B|384:256|384:288|288:288,1,161.999992275238,2|0
192,192,136077,6,2,B|192:128|128:128|128:32,1,161.999992275238
320,192,136577,2,2,B|320:128|384:128|384:32,1,161.999992275238
384,256,137077,5,8
320,288,137202,1,0
256,320,137327,1,0
192,288,137452,1,0
128,256,137577,1,12
64,64,138077,6,0,B|128:64|128:96|224:96,1,161.999992275238,2|0
64,128,138577,2,0,B|128:128|128:160|224:160,1,161.999992275238,2|0
64,192,139077,2,0,B|128:192|128:224|224:224,1,161.999992275238,2|0
64,256,139577,2,0,B|128:256|128:288|224:288,1,161.999992275238,2|0
320,192,140077,6,2,B|320:128|384:128|384:32,1,161.999992275238
192,192,140577,2,2,B|192:128|128:128|128:32,1,161.999992275238
128,256,141077,5,8
192,288,141202,1,0
256,320,141327,1,0
320,288,141452,1,0
384,256,141577,1,12
384,64,148486,22,0,L|384:160|480:160,1,180,8|0
352,304,148986,2,0,L|352:208|256:208,1,180
392,304,149486,2,0,L|392:208|488:208,1,180,8|0
344,64,149986,2,0,L|344:160|248:160,1,180
176,64,150486,6,0,L|176:160|272:160,1,180,8|0
144,304,150986,2,0,L|144:208|48:208,1,180
184,304,151486,2,0,L|184:208|280:208,1,180,8|0
136,64,151986,2,0,L|136:160|40:160,1,180
64,304,152486,5,8
112,304,152611,1,0
144,272,152736,1,8
176,240,152861,1,0
208,208,152986,1,8
256,64,153236,1,2
448,80,153486,5,8
400,80,153611,1,0
368,112,153736,1,8
336,144,153861,1,0
304,176,153986,1,8
256,320,154236,1,2
256,192,154486,12,4,155486
64,192,155986,6,2,L|160:192|256:240,1,180,2|10
256,192,156486,12,4,157486
448,192,157986,6,2,L|352:192|256:240,1,180,2|10
256,192,158486,12,4,159486
160,112,159986,5,8
256,288,160236,1,8
352,112,160486,1,2
352,272,160736,5,0
256,96,160986,1,8
160,272,161236,1,0
256,192,161486,5,2
368,96,161736,5,0
368,288,161986,1,8
144,288,162236,1,0
144,96,162486,1,4
368,288,162986,1,4
144,96,163486,1,4
208,288,163986,5,8
320,288,164236,1,8
432,288,164486,2,4,B|432:32|432:32|496:192|496:192|368:192|368:32|256:32,1,720
304,288,165986,5,8
192,288,166236,1,8
80,288,166486,2,4,B|80:32|80:32|16:192|16:192|144:192|144:32|256:32,1,720
256,192,167986,5,8
256,192,168236,1,8
256,192,168486,2,0,B|256:112|384:272|240:304,1,180,2|0
256,192,168986,2,0,B|256:272|384:112|240:80,1,180,2|0
256,192,169486,2,0,B|256:112|128:272|272:304,1,180,2|0
256,192,169986,2,0,B|256:272|128:112|272:80,1,180,2|0
256,192,170486,12,4,171486
352,192,171986,5,8
256,96,172236,1,8
160,192,172486,2,4,B|160:304|240:304|240:304|256:192|400:192|400:192|400:304|304:304|304:304|288:352|288:352|144:352,1,720
160,192,173986,5,8
256,288,174236,1,8
352,192,174486,2,4,B|352:80|272:80|272:80|256:192|112:192|112:192|112:80|208:80|208:80|224:32|224:32|368:32,1,720
256,192,175986,5,0
80,192,176236,1,0
80,304,176486,1,8
256,304,176736,1,8
256,192,176986,5,0
432,192,177236,1,0
432,80,177486,1,8
256,80,177736,1,8
256,192,177986,12,4,179486
320,96,187736,5,8
256,64,187861,1,8
192,96,187986,1,8
192,288,188236,5,8
256,320,188361,1,8
320,288,188486,1,12
448,192,188736,5,8
400,192,188861,1,0
352,192,188986,1,8
304,192,189111,1,0
256,192,189236,1,8
208,192,189361,1,0
160,192,189486,1,8
112,192,189611,1,0
64,192,189736,1,8
64,48,189986,5,2
64,336,190236,1,2
64,192,190486,5,8
112,192,190611,1,0
160,192,190736,1,8
208,192,190861,1,0
256,192,190986,1,8
304,192,191111,1,0
352,192,191236,1,8
400,192,191361,1,0
448,192,191486,1,8
448,336,191736,5,2
448,48,191986,1,2
448,192,192236,5,2
256,192,192486,6,0,B|352:192|352:320|256:320|256:320|256:240,1,270,4|0
256,192,192986,6,0,B|160:192|160:320|256:320|256:320,2,180,0|8|8
256,192,193736,2,8,B|352:192|352:64|256:64|256:64,1,180
256,192,194486,6,0,B|160:192|160:64|256:64|256:64|256:144,1,270,4|0
256,192,194986,6,0,B|352:192|352:64|256:64|256:64,2,180,0|8|8
256,192,195736,2,8,B|160:192|160:320|256:320|256:320,1,180
256,192,196236,1,4
384,64,196486,6,0,B|384:128|304:128,1,90
331,125,196736,2,0,L|336:176|384:176,1,90
374,176,196986,2,0,C|384:224|336:256,1,90
352,246,197236,2,8,B|352:336|448:320|448:256|480:256,2,180
256,336,197986,5,6
128,64,198486,6,0,B|128:128|208:128,1,90
181,125,198736,2,0,L|176:176|128:176,1,90
138,176,198986,2,0,C|128:224|176:256,1,90
160,246,199236,2,8,B|160:336|64:320|64:256|32:256,2,180
256,336,199986,5,6
256,192,200486,12,4,203486
256,192,203986,5,4
144,64,204486,5,8
112,96,204611,1,0
80,128,204736,1,0
64,176,204861,1,0
64,224,204986,1,2
80,272,205111,1,0
112,304,205236,1,0
256,304,205486,5,8
256,64,205736,1,0
256,304,205986,1,6
368,64,206486,5,8
400,96,206611,1,0
432,128,206736,1,0
448,176,206861,1,0
448,224,206986,1,2
432,272,207111,1,0
400,304,207236,1,0
256,304,207486,5,8
256,64,207736,1,0
256,304,207986,1,6
160,192,208486,6,0,B|160:96|80:96|80:208,1,180,4|0
80,256,208861,1,0
144,256,208986,2,8,B|256:256|256:144,2,180
255,145,209736,1,0
255,145,209986,1,4
352,192,210486,6,0,B|352:96|432:96|432:208,1,180,4|0
432,256,210861,1,0
368,256,210986,2,8,B|256:256|256:144,2,180
257,145,211736,1,0
257,145,211986,1,4
352,320,212486,5,8
304,320,212611,1,0
256,320,212736,1,0
208,320,212861,1,0
160,320,212986,1,8
192,192,213236,1,0
320,192,213486,1,8
256,80,213736,1,0
256,80,213986,1,14
384,96,214486,5,8
384,144,214611,1,0
384,192,214736,1,0
384,240,214861,1,0
384,288,214986,1,8
256,256,215236,1,0
256,128,215486,1,8
144,192,215736,1,0
144,192,215986,1,14
128,96,216486,5,8
128,144,216611,1,0
128,192,216736,1,0
128,240,216861,1,0
128,288,216986,1,8
256,256,217236,1,0
256,128,217486,1,8
368,192,217736,1,0
368,192,217986,1,14
256,192,218486,12,4,219486
256,64,226698,6,0,B|256:160,1,90,4|0
192,192,226984,1,0
192,272,227127,1,0
256,320,227270,1,0
320,272,227413,1,0
320,192,227555,1,0
256,144,227698,1,0
256,232,227841,6,0,B|152:232,1,90
256,232,228127,2,0,B|360:232,1,90
256,232,228412,1,6
208,48,228984,6,0,B|96:48|96:160,1,180,4|0
176,128,229412,1,0
176,128,229555,2,8,B|176:320,1,180
128,192,230127,5,2
192,192,230269,1,0
256,192,230412,1,0
320,192,230555,1,0
384,192,230698,1,2
256,256,230984,5,0
304,48,231269,6,0,B|416:48|416:160,1,180,4|0
336,128,231698,1,0
336,128,231841,2,8,B|336:320,1,180
384,192,232412,5,2
320,192,232555,1,0
256,192,232698,1,0
192,192,232841,1,0
128,192,232983,1,2
256,256,233269,5,0
192,48,233555,6,0,B|96:48|96:144|208:144,1,180,4|0
256,96,233983,1,0
326,142,234126,2,8,B|416:144|416:48|320:48,1,180
256,96,234555,1,0
192,144,234697,6,2,B|192:240|256:240|256:240|208:304,1,180
320,144,235269,6,2,B|320:240|256:240|256:240|304:304,1,180
256,32,235840,5,4
192,48,235983,1,0
128,32,236126,1,0
64,48,236269,1,0
112,96,236412,2,8,B|112:192|224:192|224:272,1,180
256,32,236983,5,4
320,48,237126,1,0
384,32,237269,1,0
448,48,237411,1,0
400,96,237554,2,2,B|400:192|288:192|288:272,1,180
256,112,238126,5,4
128,112,238411,2,8,B|64:112|80:176,1,90,8|8
192,288,238840,2,8,B|128:288|144:224,1,90
208,224,239126,1,0
256,176,239268,1,0
304,224,239411,1,0
320,288,239554,2,0,B|384:288|368:224,1,90,8|0
384,112,239983,2,0,B|448:112|432:176,1,90,0|8
256,272,240411,5,4
384,272,240697,2,8,B|448:272|432:208,1,90,8|8
320,96,241125,2,8,B|384:96|368:160,1,90
304,160,241411,1,0
256,208,241554,1,0
208,160,241697,1,0
192,96,241840,2,0,B|128:96|144:160,1,90,8|0
128,272,242268,2,0,B|64:272|80:208,1,90,0|8
112,160,242554,1,0
160,208,242697,5,4
208,256,242839,1,0
256,304,242982,2,0,B|256:208,1,90,4|0
304,256,243268,1,0
352,208,243411,1,0
400,160,243554,1,4
256,48,243839,5,2
160,112,244125,1,2
256,192,244411,1,2
352,112,244696,1,2
144,192,244982,6,0,B|144:304|256:304,1,180,4|0
256,192,245411,1,0
368,192,245553,2,8,B|368:80|256:80,1,180
256,192,246125,12,4,246982
256,64,247267,5,4
192,80,247410,1,0
128,96,247553,2,8,B|128:192|208:192|208:192|208:144,1,180
128,96,248125,5,2
112,160,248267,1,0
160,208,248410,2,0,B|272:208,1,90,2|0
304,208,248696,2,0,B|304:304|176:304,1,180,4|8
208,176,249267,5,0
256,64,249553,5,4
320,80,249696,1,0
384,96,249839,2,8,B|384:192|304:192|304:192|304:144,1,180
384,96,250410,5,2
400,160,250553,1,0
352,208,250696,2,0,B|240:208,1,90,2|0
208,208,250981,2,0,B|208:304|336:304,1,180,4|8
304,176,251553,5,0
256,48,251838,5,8
192,64,251981,1,0
128,96,252124,1,2
96,160,252267,1,0
96,224,252410,1,2
256,336,252695,5,8
320,320,252838,1,0
384,288,252981,1,2
416,224,253124,1,0
416,160,253267,1,2
256,64,253552,6,0,B|256:256|96:256,1,270,4|0
112,192,254124,2,0,B|400:192,1,270
256,320,254695,6,0,B|256:128|416:128,1,270,4|0
400,192,255267,2,0,B|112:192,1,270
160,128,255838,5,0
256,128,255981,1,0
352,128,256124,1,4
416,256,256409,5,2
416,256,256695,1,8
416,256,256838,1,0
416,256,256981,2,0,B|416:336|272:336,1,180,2|0
304,272,257409,1,0
304,272,257552,2,8,B|96:272,1,180
256,192,258123,1,2
96,256,258409,1,2
96,256,258695,5,2
96,256,258980,1,8
96,256,259123,1,0
96,256,259266,2,0,B|96:336|240:336,1,180,2|0
208,272,259695,1,0
208,272,259837,2,8,B|416:272,1,180
256,192,260409,1,2
416,256,260695,1,2
256,192,260980,5,0
256,336,261266,5,8
192,320,261409,1,0
128,288,261552,1,2
96,224,261694,1,0
96,160,261837,1,2
256,48,262123,5,8
320,64,262266,1,0
384,96,262409,1,2
416,160,262551,1,0
416,224,262694,1,2
256,320,263266,6,0,B|256:128|96:128,1,270,4|0
112,192,263837,2,0,B|400:192,1,270
256,64,264408,6,0,B|256:256|416:256,1,270,4|0
400,192,264980,2,0,B|112:192,1,270
96,128,265551,5,4
128,128,265694,1,0
160,128,265837,1,0
192,128,265980,1,0
224,128,266122,1,0
256,128,266265,1,0
288,128,266408,1,0
320,128,266551,1,0
416,192,266694,5,4
384,192,266837,1,0
352,192,266980,1,0
320,192,267122,1,0
288,192,267265,1,0
256,192,267408,1,0
224,192,267551,1,0
192,192,267694,1,0
96,256,267837,5,4
128,256,267979,1,0
160,256,268122,1,0
192,256,268265,1,0
224,256,268408,1,0
256,256,268551,1,0
288,256,268694,1,0
320,256,268836,1,0
352,256,268979,5,8
384,256,269122,1,0
320,224,269265,5,0
352,224,269408,1,8
288,192,269551,5,8
320,192,269693,1,0
272,160,269836,5,8
304,160,269979,1,0
160,128,270122,5,4
128,128,270265,1,0
192,160,270408,5,0
160,160,270551,1,0
224,192,270693,5,0
192,192,270836,1,0
240,224,270979,5,0
208,224,271122,1,0
352,128,271265,5,0
384,128,271408,1,4
320,160,271550,5,0
352,160,271693,1,0
288,192,271836,5,0
320,192,271979,1,0
272,224,272122,5,0
304,224,272265,1,0
96,192,272407,5,2
384,256,272693,1,2
384,128,272979,1,2
176,112,273265,6,8,B|176:304,1,180
336,272,273836,6,8,B|336:80,1,180
256,192,274407,1,0
256,192,274693,1,4
224,48,281570,6,0,B|224:176|212:264,1,180,4|0
208,288,281945,1,0
144,304,282070,2,0,B|144:176|160:84,1,180,8|0
288,48,282570,6,0,B|288:176|300:264,1,180,4|0
304,288,282945,1,0
368,304,283070,2,0,B|368:176|352:88,1,180,8|0
224,48,283570,5,8
256,352,284069,1,2
288,48,284444,1,0
288,48,284569,1,8
160,192,284819,5,8
352,192,285069,1,6
256,352,285319,1,0
160,288,285569,6,0,B|64:240|80:112|80:112|144:64,1,270,4|0
160,144,286069,2,0,B|256:192|240:320|240:320|176:368,1,270,8|0
96,352,286569,2,0,B|96:256,3,90,2|0|0|0
160,240,287069,2,0,B|160:336,3,90,2|0|0|0
224,304,287569,5,8
352,224,288069,1,2
192,128,288444,1,8
192,128,288569,1,8
368,48,288819,1,2
256,336,289319,5,8
112,320,289569,2,0,B|128:256|176:224,1,90,4|0
256,160,289818,2,0,B|240:224|192:256,1,90
80,208,290068,5,0
224,320,290318,1,2
400,320,290568,6,0,B|384:256|336:224,1,90,4|0
256,160,290818,2,0,B|272:224|320:256,1,90
432,208,291068,5,0
288,320,291318,1,6
288,48,291568,5,8
256,352,292068,1,2
224,48,292443,1,0
224,48,292568,1,8
352,192,292818,5,8
160,192,293068,1,6
256,352,293318,1,0
352,288,293568,6,0,B|448:240|432:112|432:112|368:64,1,270,4|0
352,144,294068,2,0,B|256:192|272:320|272:320|336:368,1,270,8|0
416,352,294568,2,0,B|416:256,3,90,2|0|0|0
352,240,295068,2,0,B|352:336,3,90,2|0|0|0
288,304,295568,5,8
160,224,296067,1,2
320,128,296442,1,8
320,128,296567,1,8
144,48,296817,1,8
144,48,297067,1,12
32,192,297567,6,0,B|32:304|80:368,1,180,4|0
128,320,297942,1,0
128,256,298067,2,0,B|128:160|192:192|192:80,1,180
320,92,298567,6,0,B|320:192|384:160|384:256,1,180,4|0
384,320,298942,1,0
435,363,299067,2,0,B|480:304|480:192,1,180
384,80,299567,5,8
192,192,299817,1,0
320,192,300067,1,0
128,80,300317,1,0
64,192,300567,6,0,B|64:304|128:368,1,180,4|0
192,352,300942,1,0
160,288,301067,2,0,B|160:176|215:121,1,180,8|0
256,64,301442,1,0
296,121,301567,2,0,B|351:176|352:288,1,180,8|0
320,352,301941,1,0
392,358,302066,2,0,B|448:304|448:192,1,180,4|0
448,64,302566,5,4
336,128,302816,2,0,B|336:224,2,90
176,128,303316,2,0,B|176:224,2,90
64,64,303816,1,4
176,64,304066,1,0
256,128,304316,1,0
336,64,304566,1,0
448,64,304816,1,0
352,160,305066,5,0
256,304,305316,1,0
160,160,305566,1,4
64,64,313565,6,0,B|448:64,1,360,4|0
448,144,314314,1,0
320,144,314564,1,8
192,144,314814,1,0
64,144,315064,1,4
448,320,315564,6,0,B|64:320,1,360,4|0
64,240,316314,1,0
192,240,316564,1,8
320,240,316814,1,0
448,240,317064,1,4
448,64,317564,6,0,B|64:64,1,360,4|0
64,144,318314,1,0
192,144,318564,1,8
320,144,318814,1,0
448,144,319064,1,4
256,192,319314,5,0
64,320,319564,6,0,B|448:320,1,360,4|0
448,240,320313,1,0
320,240,320563,1,8
192,240,320813,1,0
64,240,321063,1,4
416,272,321563,6,0,B|496:192|416:112,1,180,4|0
384,192,321938,1,0
320,192,322063,1,8
256,272,322313,5,0
208,224,322438,1,0
224,160,322563,1,0
288,160,322688,1,0
304,224,322813,1,0
256,336,323063,5,12
256,96,323313,1,0
96,272,323563,6,0,B|16:192|96:112,1,180,4|0
128,192,323938,1,0
192,192,324063,1,8
256,272,324313,5,4
304,224,324438,1,0
288,160,324563,1,4
224,160,324688,1,0
208,224,324813,1,0
256,336,325063,5,12
256,96,325313,1,0
96,112,325563,6,0,B|16:192|96:272,1,180,4|0
128,192,325937,1,0
192,192,326062,1,8
256,112,326312,5,0
304,160,326437,1,0
288,224,326562,1,0
224,224,326687,1,0
208,160,326812,1,0
256,48,327062,5,12
256,288,327312,1,0
416,112,327562,6,0,B|496:192|416:272,1,180,4|0
384,192,327937,1,0
320,192,328062,1,8
256,112,328312,5,4
208,160,328437,1,0
224,224,328562,1,4
288,224,328687,1,0
304,160,328812,1,0
256,48,329062,5,12
256,288,329312,1,0
96,352,329562,6,0,B|48:224|64:136,1,180,8|0
64,112,329937,1,0
112,64,330062,2,0,B|192:96|144:224,1,180
144,288,330437,5,0
208,288,330562,1,8
176,224,330687,1,0
240,224,330812,1,0
208,160,330937,1,0
272,160,331062,1,0
96,160,331312,1,4
416,352,331562,6,0,B|464:224|452:148,1,180,8|0
448,112,331936,1,0
400,64,332061,2,0,B|320:96|368:224,1,180
368,288,332436,5,0
304,288,332561,1,12
336,224,332686,1,0
272,224,332811,1,0
304,160,332936,1,0
240,160,333061,1,4
416,160,333311,1,4
80,336,333561,6,0,B|80:240|160:240|160:160,1,180,8|0
96,144,333936,1,0
160,112,334061,1,4
256,48,334311,6,0,B|144:48,1,90
256,48,334561,2,0,B|368:48,1,90
256,112,334811,1,0
256,336,335061,5,4
256,272,335186,1,0
256,208,335311,1,0
432,336,335561,6,0,B|432:240|352:240|352:160,1,180,8|0
416,144,335936,1,0
352,112,336061,1,4
256,48,336311,6,0,B|368:48,1,90
256,48,336561,2,0,B|144:48,1,90
256,112,336811,1,0
256,336,337061,5,4
416,48,337561,6,0,B|464:112|448:224,1,180,4|0
384,192,337935,1,0
384,256,338060,2,8,B|304:240|208:128,1,180,4|0
336,48,338560,5,8
336,112,338685,1,0
272,112,338810,1,0
272,48,338935,1,0
336,48,339060,1,8
480,48,339310,1,0
432,160,339560,6,0,B|320:224|288:304,1,180,4|0
256,336,339935,1,0
213,280,340060,2,8,B|192:224|80:160,1,180
48,80,340560,5,6
464,80,341060,1,6
96,48,341560,6,0,B|48:112|64:224,1,180,4|0
128,192,341935,1,0
128,256,342060,2,8,B|208:240|304:128,1,180,4|0
176,48,342560,5,8
176,112,342685,1,0
240,112,342810,1,0
240,48,342935,1,0
176,48,343060,1,8
32,48,343310,1,0
80,160,343560,6,0,B|192:224|224:304,1,180,4|0
256,336,343934,1,0
299,280,344059,2,8,B|320:224|432:160,1,180
464,80,344559,5,6
48,80,345059,1,6
32,272,345559,5,4
96,288,345684,1,0
160,272,345809,1,4
208,224,345934,1,0
160,176,346059,5,4
224,160,346184,1,0
288,160,346309,1,4
352,176,346434,1,0
304,224,346559,5,4
352,272,346684,1,0
416,288,346809,1,4
480,272,346934,1,0
432,224,347059,5,4
80,224,347309,1,4
144,80,347559,5,0
368,80,347809,1,0
256,288,348059,1,4
192,208,348309,5,0
208,144,348434,1,0
256,192,348559,1,0
304,144,348684,1,0
320,208,348809,1,0
256,32,349059,1,4
256,192,349559,12,4,353558
432,64,360391,5,4
400,64,360511,1,0
368,80,360631,1,0
352,112,360751,1,0
352,144,360871,1,12
416,128,361111,6,0,B|448:128,2,27.4500007853508
416,192,361591,2,0,B|384:192,1,27.4500007853508
336,192,361831,5,8
256,192,362071,1,8
80,64,362311,5,4
112,64,362431,1,0
144,80,362551,1,0
160,112,362671,1,0
160,144,362791,1,12
96,128,363031,6,0,B|64:128,2,27.4500007853508
96,192,363511,2,0,B|128:192,1,27.4500007853508
176,192,363751,5,8
256,192,363991,1,8
320,240,364231,5,4
352,256,364351,1,0
352,224,364471,1,0
384,240,364591,1,0
384,272,364711,1,12
336,320,364951,6,0,B|288:320,1,27.4500007853508
256,320,365191,1,0
176,320,365431,6,0,B|224:320,1,27.4500007853508
256,320,365671,1,8
256,240,365911,1,8
192,240,366151,5,6
160,256,366271,1,0
160,224,366391,1,2
128,240,366511,1,0
128,272,366631,1,14
176,320,366871,6,2,B|224:320,1,27.4500007853508
256,320,367111,1,6
336,320,367351,6,2,B|288:320,1,27.4500007853508
256,320,367591,1,10
256,240,367831,1,10
256,192,369991,12,4,371431
224,80,371911,5,8
192,112,372031,1,0
160,144,372151,2,0,B|160:208|80:208,1,99.900000059545,2|2
96,320,372631,5,8
144,320,372751,1,8
192,320,372871,1,8
224,288,372991,1,0
256,256,373111,2,0,B|256:144,1,99.900000059545,2|4
96,192,373591,5,0
288,80,373831,5,8
320,112,373951,1,0
352,144,374071,2,0,B|352:208|432:208,1,99.900000059545,2|2
416,320,374551,5,8
368,320,374671,1,0
320,320,374791,1,8
288,288,374911,1,0
256,256,375031,2,0,B|256:144,1,99.900000059545,2|4
416,192,375511,5,0
400,64,375751,5,4
352,80,375871,1,0
304,64,375991,1,0
256,80,376111,1,8
208,64,376231,1,0
160,80,376351,1,0
112,64,376471,1,0
128,112,376591,5,8
176,128,376711,1,0
224,112,376831,1,0
256,144,376951,1,0
288,112,377071,1,8
336,128,377191,1,0
384,112,377311,1,0
384,112,377431,1,12
112,320,377671,5,4
160,304,377791,1,0
208,320,377911,1,0
256,304,378031,1,8
304,320,378151,1,0
352,304,378271,1,0
400,320,378391,1,0
384,272,378511,5,8
336,256,378631,1,0
288,272,378751,1,0
256,240,378871,1,0
224,272,378991,1,8
176,256,379111,1,0
128,272,379231,1,0
128,272,379351,1,12
192,160,379591,6,2,B|128:112|160:64,1,99.900000059545
358,76,380071,6,2,B|384:112|320:160,1,99.900000059545
256,64,380551,5,8
256,112,380671,1,0
256,160,380791,1,8
256,208,380911,1,0
304,272,381031,6,4,B|176:272,1,99.900000059545
320,224,381511,6,2,B|384:272|352:320,1,99.900000059545
153,307,381991,6,2,B|128:272|192:224,1,99.900000059545
256,320,382471,5,8
256,272,382591,1,0
256,224,382711,1,8
256,176,382831,1,0
208,112,382951,6,4,B|336:112,1,99.900000059545
256,192,385351,12,4,386791
400,64,387271,5,8
352,112,387391,1,0
320,176,387511,2,2,L|448:176|400:240,1,199.80000011909
352,320,387991,5,8
288,320,388111,1,0
224,320,388231,1,4
160,320,388351,1,0
160,256,388471,2,2,L|256:256|256:192|208:192,2,199.80000011909
112,64,389191,5,8
160,112,389311,1,0
192,176,389431,2,2,L|64:176|112:240,1,199.80000011909
160,320,389911,5,8
224,320,390031,1,0
288,320,390151,1,4
352,320,390271,1,0
352,256,390391,2,2,L|256:256|256:192|304:192,2,199.80000011909
416,96,391111,6,0,L|320:48|224:64,1,199.80000011909,4|0
152,64,391471,1,0
80,64,391591,2,0,L|80:192|144:240,1,199.80000011909,4|0
208,192,391951,1,0
208,192,392071,2,4,L|265:235|265:363,1,199.80000011909
304,192,392551,2,4,L|246:148|246:20,1,199.80000011909
96,96,393031,6,0,L|192:48|288:64,1,199.80000011909,4|0
360,64,393391,1,0
432,64,393511,2,0,L|432:192|368:240,1,199.80000011909,4|0
304,192,393871,1,0
304,192,393991,2,4,L|246:235|246:363,1,199.80000011909
208,192,394471,2,4,L|265:148|265:20,1,199.80000011909
320,320,394951,5,2
384,320,395071,1,0
448,288,395191,1,2
384,256,395311,1,0
320,256,395431,1,2
320,128,395671,5,2
384,96,395791,1,0
448,128,395911,1,2
192,128,396151,5,8
256,96,396271,1,0
320,128,396391,1,8
64,128,396631,5,2
128,96,396751,1,0
192,128,396871,1,2
320,128,397111,5,8
256,160,397231,1,0
192,128,397351,1,8
320,128,397591,5,2
384,96,397711,1,0
448,128,397831,1,2
288,240,398071,6,4,B|352:240|352:336|464:336,2,199.80000011909
192,320,398791,5,2
128,320,398911,1,0
64,288,399031,1,2
128,256,399151,1,0
192,256,399271,1,2
192,128,399511,5,2
128,96,399631,1,0
64,128,399751,1,2
320,128,399991,5,8
256,96,400111,1,0
192,128,400231,1,8
448,128,400471,5,2
384,96,400591,1,0
320,128,400711,1,2
192,128,400951,5,8
256,160,401071,1,0
320,128,401191,1,8
192,128,401431,5,2
128,96,401551,1,0
64,128,401671,1,2
224,240,401911,6,4,B|160:240|160:336|48:336,2,199.80000011909
448,320,402631,6,2,B|336:320|336:192|416:192,1,199.80000011909
448,64,403111,2,2,B|336:64|336:192|416:192,1,199.80000011909
400,192,403591,5,8
336,192,403711,1,0
272,192,403831,1,0
208,192,403951,1,0
144,192,404071,1,4
64,320,404311,6,2,B|176:320|176:192|96:192,1,199.80000011909
64,64,404791,2,2,B|176:64|176:192|96:192,1,199.80000011909
112,192,405271,5,8
176,192,405391,1,0
240,192,405511,1,0
304,192,405631,1,0
368,192,405751,1,2
304,192,405871,1,0
240,192,405991,1,2
176,192,406111,1,0
112,192,406231,1,6
80,320,406471,6,0,L|192:320,1,99.900000059545,4|0
208,256,406711,2,0,L|96:256,1,99.900000059545
48,256,406951,1,4
48,192,407071,1,0
48,128,407191,1,0
48,64,407311,1,0
112,96,407431,5,8
256,96,407671,2,8,L|160:176,1,99.900000059545
179,160,407911,1,8
179,160,408151,1,8
432,320,408391,6,0,L|320:320,1,99.900000059545,4|0
304,256,408631,2,0,L|416:256,1,99.900000059545
464,256,408871,1,4
464,192,408991,1,0
464,128,409111,1,0
464,64,409231,1,0
400,96,409351,5,8
256,96,409591,2,8,L|352:176,1,99.900000059545
332,160,409831,1,8
332,160,410071,1,8
176,320,410311,6,0,B|128:288|176:224,1,99.900000059545,4|0
256,256,410551,6,0,B|304:224|256:160,1,99.900000059545,8|0
336,64,410791,6,0,B|384:96|336:160,1,99.900000059545,4|0
256,128,411031,6,0,B|208:160|256:224,1,99.900000059545,8|0
160,128,411271,5,0
352,256,411511,1,2
160,128,411751,1,0
352,256,411991,1,2
336,64,412231,6,0,B|384:96|336:160,1,99.900000059545,4|0
256,128,412471,6,0,B|208:160|256:224,1,99.900000059545,8|0
176,320,412711,6,0,B|128:288|176:224,1,99.900000059545,4|0
256,256,412951,6,0,B|304:224|256:160,1,99.900000059545,8|0
352,128,413191,5,0
160,256,413431,1,2
352,128,413671,1,0
160,256,413911,1,2
256,192,416071,12,4,417511
80,80,417991,6,0,B|80:288,1,199.80000011909,4|0
144,272,418231,5,8
256,80,418471,5,12
368,272,418711,5,0
256,272,418831,1,0
144,272,418951,1,0
368,272,419191,1,0
144,272,419431,1,4
432,80,419911,6,0,B|432:288,1,199.80000011909,4|0
368,272,420151,5,8
256,80,420391,5,12
144,272,420631,5,0
256,272,420751,1,0
368,272,420871,1,0
144,272,421111,1,0
368,272,421351,1,4
48,64,421831,6,0,B|256:64,1,199.80000011909,4|0
48,128,422071,1,8
48,320,422311,1,8
48,128,422551,5,0
48,224,422671,1,0
144,224,422791,1,8
144,128,422911,1,0
256,128,423031,1,8
256,128,423271,1,8
464,64,423751,6,0,B|256:64,1,199.80000011909,4|0
464,128,423991,1,8
464,320,424231,1,8
464,128,424471,5,0
464,224,424591,1,0
368,224,424711,1,8
368,128,424831,1,0
256,128,424951,1,8
256,128,425191,1,8
48,336,425671,6,2,B|48:320|48:320|64:320|64:320|64:336|64:336|80:336|80:336|80:320|80:320|96:320|96:320|96:336|96:336|112:336|112:336|112:320|112:320|128:320|128:320|128:336|128:336|144:336|144:336|144:320|144:320|160:320|160:320|160:336|160:336|176:336|176:336|176:320|176:320|192:320|192:320|192:336|192:336|208:336|208:336|208:320|208:320|224:320|224:320|288:320,1,399.60000023818
464,336,426151,2,2,B|464:352|464:352|448:352|448:352|448:336|448:336|432:336|432:336|432:352|432:352|416:352|416:352|416:336|416:336|400:336|400:336|400:352|400:352|384:352|384:352|384:336|384:336|368:336|368:336|368:352|368:352|352:352|352:352|352:336|352:336|336:336|336:336|336:352|336:352|320:352|320:352|320:336|320:336|304:336|304:336|304:352|304:352|288:352|288:352|224:352,1,399.60000023818
256,192,426631,1,0
112,64,426871,5,8
112,64,426991,1,0
112,64,427111,1,8
176,192,427351,6,2,B|160:192|160:192|160:208|160:208|176:208|176:208|176:224|176:224|160:224|160:224|144:224|144:224|144:240|144:240|160:240|160:240|160:256|160:256|144:256|144:256|128:256|128:256|128:272|128:272|144:272,2,199.80000011909
256,48,427831,1,8
256,48,427951,1,0
256,48,428071,1,8
336,192,428311,6,2,B|352:192|352:192|352:208|352:208|336:208|336:208|336:224|336:224|352:224|352:224|368:224|368:224|368:240|368:240|352:240|352:240|352:256|352:256|368:256|368:256|384:256|384:256|384:272|384:272|368:272,2,199.80000011909
256,336,428791,1,8
256,336,428911,1,0
256,336,429031,1,8
256,336,429151,1,0
256,336,429271,1,8
464,336,429511,6,2,B|464:320|464:320|448:320|448:320|448:336|448:336|432:336|432:336|432:320|432:320|416:320|416:320|416:336|416:336|400:336|400:336|400:320|400:320|384:320|384:320|384:336|384:336|368:336|368:336|368:320|368:320|352:320|352:320|352:336|352:336|336:336|336:336|336:320|336:320|320:320|320:320|320:336|320:336|304:336|304:336|304:320|304:320|288:320|288:320|224:320,1,399.60000023818
48,336,429991,2,2,B|48:352|48:352|64:352|64:352|64:336|64:336|80:336|80:336|80:352|80:352|96:352|96:352|96:336|96:336|112:336|112:336|112:352|112:352|128:352|128:352|128:336|128:336|144:336|144:336|144:352|144:352|160:352|160:352|160:336|160:336|176:336|176:336|176:352|176:352|192:352|192:352|192:336|192:336|208:336|208:336|208:352|208:352|224:352|224:352|288:352,1,399.60000023818
256,192,430471,1,0
400,64,430711,5,8
400,64,430831,1,0
400,64,430951,1,8
336,192,431191,6,2,B|352:192|352:192|352:208|352:208|336:208|336:208|336:224|336:224|352:224|352:224|368:224|368:224|368:240|368:240|352:240|352:240|352:256|352:256|368:256|368:256|384:256|384:256|384:272|384:272|368:272,2,199.80000011909
256,48,431671,1,8
256,48,431791,1,0
256,48,431911,1,8
176,192,432151,6,2,B|160:192|160:192|160:208|160:208|176:208|176:208|176:224|176:224|160:224|160:224|144:224|144:224|144:240|144:240|160:240|160:240|160:256|160:256|144:256|144:256|128:256|128:256|128:272|128:272|144:272,2,199.80000011909
256,336,432631,1,8
256,336,432751,1,0
256,336,432871,1,8
256,336,432991,1,0
256,336,433111,1,8
48,48,433351,6,2,B|48:64|48:64|64:64|64:64|64:48|64:48|80:48|80:48|80:64|80:64|96:64|96:64|96:48|96:48|112:48|112:48|112:64|112:64|128:64|128:64|128:48|128:48|144:48|144:48|144:64|144:64|160:64|160:64|160:48|160:48|176:48|176:48|176:64|176:64|192:64|192:64|192:48|192:48|208:48|208:48|208:64|208:64|224:64|224:64|288:64,1,399.60000023818
464,48,433831,2,2,B|464:32|464:32|448:32|448:32|448:48|448:48|432:48|432:48|432:32|432:32|416:32|416:32|416:48|416:48|400:48|400:48|400:32|400:32|384:32|384:32|384:48|384:48|368:48|368:48|368:32|368:32|352:32|352:32|352:48|352:48|336:48|336:48|336:32|336:32|320:32|320:32|320:48|320:48|304:48|304:48|304:32|304:32|288:32|288:32|224:32,1,399.60000023818
256,224,434311,5,8
256,128,434431,1,0
160,128,434551,1,8
64,128,434671,2,0,B|64:336,1,199.80000011909,0|0
464,48,435031,6,2,B|464:64|464:64|448:64|448:64|448:48|448:48|432:48|432:48|432:64|432:64|416:64|416:64|416:48|416:48|400:48|400:48|400:64|400:64|384:64|384:64|384:48|384:48|368:48|368:48|368:64|368:64|352:64|352:64|352:48|352:48|336:48|336:48|336:64|336:64|320:64|320:64|320:48|320:48|304:48|304:48|304:64|304:64|288:64|288:64|224:64,1,399.60000023818
48,48,435511,2,2,B|48:32|48:32|64:32|64:32|64:48|64:48|80:48|80:48|80:32|80:32|96:32|96:32|96:48|96:48|112:48|112:48|112:32|112:32|128:32|128:32|128:48|128:48|144:48|144:48|144:32|144:32|160:32|160:32|160:48|160:48|176:48|176:48|176:32|176:32|192:32|192:32|192:48|192:48|208:48|208:48|208:32|208:32|224:32|224:32|288:32,1,399.60000023818
268,32,435991,1,4
256,224,436231,1,0
256,128,436351,1,0
352,128,436471,1,8
448,128,436591,2,0,B|448:336,1,199.80000011909,0|0
256,336,437191,5,8
208,288,437431,5,2
304,288,437671,1,8
160,240,437911,5,2
352,240,438151,1,8
112,192,438391,5,2
400,192,438631,1,8
160,144,438871,5,2
352,144,439111,1,2
208,96,439351,5,2
304,96,439591,1,2
256,48,439831,5,2
256,192,440071,1,2
256,336,440311,5,2
256,192,440551,1,2
400,192,440791,5,4
256,192,441031,1,4
112,192,441271,5,4
256,192,441511,1,4
256,64,441751,5,4
112,64,441991,1,4
256,192,442231,5,4
400,192,442471,1,4
256,320,442711,5,6
112,320,442951,1,6
400,192,443191,5,6
256,192,443431,1,6
256,64,443671,5,6
400,64,443911,1,6
256,192,444151,5,6
112,192,444391,1,6
256,320,444631,5,6
400,320,444871,1,6
256,192,451277,12,4,452563
256,336,452991,5,8
320,320,453099,1,0
384,304,453206,1,0
432,256,453313,1,0
432,192,453420,1,2
256,192,453634,1,0
256,48,453849,5,8
192,64,453956,1,0
128,80,454063,1,0
80,128,454170,1,0
80,192,454277,1,2
256,192,454491,1,0
176,352,454706,6,0,B|176:192|352:192|352:368,1,323.999984550477,4|0
256,288,455349,1,0
176,128,455563,6,8,B|336:32,1,161.999992275238
352,160,455991,2,8,B|192:256,1,161.999992275238,8|8
256,48,456420,5,8
192,64,456527,1,0
128,80,456634,1,0
80,128,456741,1,0
80,192,456849,1,2
256,192,457063,1,0
256,336,457277,5,8
320,320,457384,1,0
384,304,457491,1,0
432,256,457599,1,0
432,192,457706,1,2
256,192,457920,1,0
336,32,458134,6,0,B|336:192|160:192|160:16,1,323.999984550477,4|0
256,96,458777,1,0
336,256,458991,6,8,B|176:352,1,161.999992275238
160,224,459420,2,8,B|320:128,1,161.999992275238,8|8
336,336,459849,5,0
400,304,459956,1,0
448,256,460063,1,0
448,192,460170,1,0
384,192,460277,1,8
256,96,460491,5,2
176,336,460706,5,2
112,304,460813,1,0
64,256,460920,1,0
64,192,461027,1,0
128,192,461134,1,8
256,96,461349,5,2
384,192,461563,6,0,B|384:272|384:272|304:320,1,161.999992275238
128,192,461991,2,0,B|128:112|128:112|208:64,1,161.999992275238
128,192,462420,2,0,B|128:272|128:272|208:320,1,161.999992275238
384,192,462849,2,0,B|384:112|384:112|304:64,1,161.999992275238
224,48,463277,6,4,B|16:48|16:352|240:352,1,485.999976825715,4|0
290,351,464134,2,4,B|496:352|496:48|284:48,1,485.999976825715,4|0
256,192,464991,12,6,465849
256,192,466277,5,0
256,192,466491,1,2
128,48,466706,6,0,B|32:64|32:64|32:160|144:160,1,242.999988412858,8|0
128,112,467134,2,0,B|224:128|224:128|224:224|112:224,1,242.999988412858,2|0
128,176,467563,6,0,B|32:192|32:192|32:288|144:288,1,242.999988412858,8|0
128,240,467991,2,0,B|224:256|224:256|224:352|112:352,1,242.999988412858,2|0
320,272,468420,5,8
256,96,468634,1,0
192,272,468849,1,2
384,192,469063,5,2
320,192,469170,1,0
256,192,469277,1,0
192,192,469384,1,0
128,192,469491,1,2
256,96,469706,5,4
384,48,470134,6,0,B|480:64|480:64|480:160|368:160,1,242.999988412858,8|0
384,112,470563,2,0,B|288:128|288:128|288:224|400:224,1,242.999988412858,2|0
384,176,470991,6,0,B|480:192|480:192|480:288|368:288,1,242.999988412858,8|0
384,240,471420,2,0,B|288:256|288:256|288:352|400:352,1,242.999988412858,2|0
192,272,471849,5,8
256,96,472063,1,0
320,272,472277,1,2
128,192,472491,5,2
192,192,472599,1,0
256,192,472706,1,0
320,192,472813,1,0
384,192,472920,1,2
256,288,473134,5,4
256,192,473563,12,4,479563
176,256,479991,5,8
256,96,480206,1,8
336,256,480420,1,12
256,144,487277,6,0,B|208:144|176:208,1,90,4|0
256,192,487599,1,0
256,240,487706,2,0,B|304:240|336:176,1,90
256,144,488027,1,0
256,144,488134,6,2,B|148:144,1,90
256,240,488563,2,2,B|352:240,1,90
224,112,488991,6,0,B|176:112|144:176,1,90,4|0
256,192,489313,1,0
288,272,489420,2,0,B|336:272|368:208,1,90
224,112,489741,1,0
224,112,489849,6,2,B|116:112,1,90
288,272,490277,2,2,B|384:272,1,90
256,96,490706,6,0,B|144:96|144:208,1,161.999992275238,4|0
256,192,491027,1,0
256,288,491134,2,0,B|368:288|368:176,1,161.999992275238
256,96,491456,1,0
256,96,491563,6,2,B|80:96,1,161.999992275238
256,288,491991,2,2,B|432:288,1,161.999992275238
224,64,492420,6,0,B|112:64|112:176,1,161.999992275238,4|0
256,192,492741,1,0
288,320,492849,2,0,B|400:320|400:208,1,161.999992275238
224,64,493170,1,0
224,64,493277,6,2,B|48:64,1,161.999992275238
288,320,493706,2,2,B|464:320,1,161.999992275238
112,144,494134,6,8,B|144:96|192:112,1,80.9999961376192
112,144,494349,2,0,B|144:192|192:176,1,80.9999961376192
112,144,494563,6,8,B|80:96|32:112,1,80.9999961376192
112,144,494777,2,8,B|80:192|32:176,1,80.9999961376192
112,144,494991,6,0,B|112:320|224:320|224:112,1,323.999984550477,0|4
400,144,495849,6,8,B|368:96|320:112,1,80.9999961376192
400,144,496063,2,0,B|368:192|320:176,1,80.9999961376192
400,144,496277,6,8,B|432:96|480:112,1,80.9999961376192
400,144,496491,2,8,B|432:192|480:176,1,80.9999961376192
400,144,496706,6,0,B|400:320|288:320|288:112,1,323.999984550477,0|4
256,320,497563,6,0,B|160:320|160:192|160:192|64:192|64:112,1,323.999984550477,2|8
256,128,498420,5,2
64,320,498634,1,0
208,176,498849,5,2
112,272,499063,1,0
160,224,499277,6,0,B|64:160|64:160|64:32|64:32|160:32,1,323.999984550477
352,224,500134,6,0,B|448:160|448:160|448:32|448:32|352:32,1,323.999984550477
256,320,500991,6,0,B|352:320|352:192|352:192|448:192|448:112,1,323.999984550477,2|8
256,128,501849,5,2
448,320,502063,1,0
304,176,502277,5,2
400,272,502491,1,0
352,224,502706,6,0,B|448:160|448:160|448:32|448:32|352:32,1,323.999984550477
160,224,503563,6,0,B|64:160|64:160|64:32|64:32|160:32,1,323.999984550477
256,128,504206,1,0
256,288,504420,1,4
160,96,514706,5,8
352,96,514920,1,0
352,288,515134,1,2
160,288,515349,1,0
205,66,515563,5,8
381,141,515777,1,0
306,317,515991,1,2
130,242,516206,1,0
256,56,516420,5,8
391,191,516634,1,0
256,327,516849,1,2
120,192,517063,1,0
309,67,517277,5,8
380,245,517491,1,0
202,316,517706,1,2
131,138,517920,1,0
351,95,518134,5,8
352,288,518349,1,0
159,288,518563,1,2
160,95,518777,1,0
381,141,518991,5,8
306,317,519206,1,0
130,242,519420,1,2
205,66,519634,1,0
391,191,519849,5,8
256,327,520063,1,0
120,192,520277,1,2
256,56,520491,1,0
380,245,520706,5,8
202,316,520920,1,0
131,138,521134,1,2
309,67,521349,1,0
256,192,521563,5,4
416,48,529586,6,0,B|288:48|288:240,1,250.199991052151,4|0
223,228,530060,2,0,B|224:48|96:48,1,250.199991052151
96,128,530533,6,8,B|96:256,1,125.099995526076
144,320,530849,2,0,B|256:336|224:96,1,250.199991052151,4|0
256,48,531323,1,0
284,122,531481,2,0,B|256:336|368:320,1,250.199991052151,0|8
416,253,531955,6,0,B|416:128,1,125.099995526076,8|0
96,253,532428,6,0,B|96:128,2,125.099995526076,0|0|4
336,192,533060,5,2
176,192,533218,1,2
256,192,533376,12,4,534323
224,128,534639,6,0,L|128:16|64:112,1,250.199991052151,4|0
160,160,535112,1,8
288,128,535270,6,0,L|384:16|448:112,1,250.199991052151,12|0
352,160,535744,1,8
160,224,535902,6,0,L|160:288|224:352,1,125.099995526076,2|0
308,331,536218,2,0,L|352:288|352:224,1,125.099995526076,2|0
288,256,536533,5,2
160,112,536691,1,2
224,256,536849,5,2
352,112,537007,1,0
256,32,537165,6,0,B|64:32|64:176,1,250.199991052151,4|0
256,192,537639,1,8
256,32,537797,2,0,B|448:32|448:176,1,250.199991052151,4|0
256,192,538270,1,8
256,352,538428,2,0,B|64:352|64:208,1,250.199991052151,4|0
256,192,538902,1,8
256,352,539060,2,4,B|448:352|448:208,1,250.199991052151
96,336,539691,6,0,B|224:336|224:144,1,250.199991052151,4|0
289,156,540165,2,0,B|288:336|416:336,1,250.199991052151
416,256,540639,6,8,B|416:128,1,125.099995526076
368,64,540955,2,0,B|256:48|288:288,1,250.199991052151,4|0
256,336,541428,1,0
228,262,541586,2,0,B|256:48|144:64,1,250.199991052151,0|8
96,131,542060,6,0,B|96:256,1,125.099995526076,8|0
416,131,542533,6,0,B|416:256,2,125.099995526076,0|0|4
176,192,543165,5,2
336,192,543323,1,2
256,192,543481,12,4,544428
288,256,544744,6,0,L|384:368|448:272,1,250.199991052151,4|0
352,224,545218,1,8
224,256,545376,6,0,L|128:368|64:272,1,250.199991052151,12|0
160,224,545849,1,8
352,160,546007,6,0,L|352:96|288:32,1,125.099995526076,2|0
204,53,546323,2,0,L|160:96|160:160,1,125.099995526076,2|0
224,128,546639,5,2
352,272,546797,1,2
288,128,546955,5,2
160,272,547112,1,0
256,352,547270,6,0,B|448:352|448:208,1,250.199991052151,4|0
256,192,547744,1,8
256,352,547902,2,0,B|64:352|64:208,1,250.199991052151,4|0
256,192,548376,1,8
256,32,548533,2,0,B|448:32|448:176,1,250.199991052151,4|0
256,192,549007,1,8
256,32,549165,2,4,B|64:32|64:176,1,250.199991052151
256,64,557376,6,0,B|112:64,1,125.099995526076
208,128,557691,2,0,B|80:128,1,125.099995526076
176,192,558007,2,0,B|48:192,1,125.099995526076
208,256,558323,2,0,B|64:256,1,125.099995526076
256,320,558639,6,0,B|128:320,1,125.099995526076
256,320,558955,2,0,B|384:320,1,125.099995526076
256,320,559270,2,0,B|144:256,1,125.099995526076
256,320,559586,2,0,B|368:256,1,125.099995526076
256,320,559902,6,0,B|400:320,1,125.099995526076
304,256,560218,2,0,B|432:256,1,125.099995526076
336,192,560533,2,0,B|464:192,1,125.099995526076
304,128,560849,2,0,B|448:128,1,125.099995526076
256,64,561165,6,0,B|384:64,1,125.099995526076
256,64,561481,2,0,B|128:64,1,125.099995526076
256,64,561797,2,4,B|368:128,1,125.099995526076
256,64,562112,2,4,B|144:128,1,125.099995526076
80,192,562428,5,8
80,272,562586,1,0
144,320,562744,1,2
208,272,562902,1,0
208,192,563060,1,4
144,112,563218,6,0,B|144:256,2,125.099995526076
256,64,563691,5,4
368,112,563849,6,0,B|368:256,2,125.099995526076
256,144,564323,5,4
256,192,564402,1,0
256,240,564481,1,0
256,288,564560,1,0
256,336,564639,1,0
432,272,564955,6,8,B|432:144,1,125.099995526076
320,272,565270,2,0,B|320:144,1,125.099995526076
176,272,565586,2,8,B|176:144,1,125.099995526076
64,272,565902,2,0,B|64:144,1,125.099995526076
160,48,566218,6,0,B|160:176|368:176|380:72,1,250.199991052151
352,336,566849,6,4,B|352:208|144:208|132:312,1,250.199991052151
432,192,567481,5,8
432,272,567639,1,0
368,320,567797,1,2
304,272,567955,1,0
304,192,568112,1,4
368,112,568270,6,0,B|368:256,2,125.099995526076
256,64,568744,5,4
144,112,568902,6,0,B|144:256,2,125.099995526076
256,144,569376,5,4
256,192,569455,1,0
256,240,569533,1,0
256,288,569612,1,0
256,336,569691,1,0
80,272,570007,6,8,B|80:144,1,125.099995526076
192,272,570323,2,0,B|192:144,1,125.099995526076
336,272,570639,2,8,B|336:144,1,125.099995526076
448,272,570955,2,0,B|448:144,1,125.099995526076
352,48,571270,6,0,B|352:176|144:176|132:72,1,250.199991052151
160,336,571902,6,4,B|160:208|368:208|380:312,1,250.199991052151
256,48,572533,5,8
208,80,572612,1,0
160,112,572691,1,0
96,192,572849,1,2
96,192,573007,1,0
256,336,573165,5,8
304,304,573244,1,0
352,272,573323,1,0
416,192,573481,1,2
416,192,573639,1,0
416,64,573797,6,4,B|320:64|320:160,1,125.099995526076
96,320,574112,2,8,B|192:320|192:224,1,125.099995526076
96,64,574428,6,4,B|192:64|192:160,1,125.099995526076
416,320,574744,2,8,B|320:320|320:224,1,125.099995526076
256,64,575060,5,8
240,112,575139,1,0
192,144,575218,1,0
256,320,575376,5,8
272,272,575455,1,0
320,240,575533,1,0
256,192,575691,12,4,577270
256,64,577586,5,2
224,112,577665,1,0
192,160,577744,1,2
192,224,577823,1,0
256,224,577902,1,2
320,224,577981,1,0
320,160,578060,1,0
288,112,578139,1,0
256,64,578218,1,2
128,128,578376,5,0
128,128,578455,1,0
128,128,578533,1,8
128,240,578691,5,0
128,240,578770,1,0
128,240,578849,1,2
256,320,579007,5,0
256,320,579086,1,0
256,320,579165,1,8
384,240,579323,5,0
384,240,579402,1,0
384,240,579481,1,2
384,128,579639,5,0
384,128,579718,1,0
384,128,579797,1,10
256,192,579955,5,8
256,192,580033,1,0
256,192,580112,6,4,B|256:48,1,125.099995526076
256,192,580428,2,4,B|256:320,1,125.099995526076
160,192,580744,5,2
160,192,580823,1,0
160,192,580902,1,0
352,192,581060,1,2
352,192,581139,1,0
352,192,581218,1,0
256,192,581376,12,4,582639
160,176,589358,6,0,B|128:128|144:32|144:32|208:80|224:160,1,299.700000178635,4|0
288,158,589880,2,4,B|304:80|368:32|368:32|384:128|352:176,1,299.700000178635
416,192,590402,6,8,B|416:256|352:256,1,99.900000059545
288,272,590663,2,0,B|288:336|352:336,1,99.900000059545,8|0
163,335,590924,6,8,B|224:336|224:272,1,99.900000059545
156,255,591184,2,0,B|96:256|96:192,1,99.900000059545,8|0
96,128,591445,5,8
160,128,591576,1,0
224,128,591706,1,0
128,64,591837,5,0
192,64,591967,1,8
256,64,592098,1,0
288,128,592228,5,0
352,128,592358,1,0
416,128,592489,1,8
256,64,592619,5,0
320,64,592750,1,0
384,64,592880,1,0
384,64,593011,1,8
384,64,593141,1,0
416,352,593532,6,0,B|416:240,1,99.900000059545,8|0
352,128,593793,2,0,B|352:240,1,99.900000059545
288,352,594054,6,0,B|288:240,1,99.900000059545,8|0
224,128,594315,2,0,B|224:240,1,99.900000059545
160,352,594576,6,0,B|160:240,1,99.900000059545,8|0
96,128,594837,2,0,B|96:240,2,99.900000059545,0|0|8
96,64,595228,1,8
160,64,595358,1,8
96,352,595619,6,0,B|96:240,1,99.900000059545,8|0
160,128,595880,2,0,B|160:240,1,99.900000059545
224,352,596141,6,0,B|224:240,1,99.900000059545,8|0
288,128,596402,2,0,B|288:240,1,99.900000059545
352,352,596663,6,0,B|352:240,1,99.900000059545,8|0
416,128,596924,2,0,B|416:240,2,99.900000059545,0|0|8
416,64,597315,1,8
352,64,597445,1,8
96,48,597706,6,0,B|16:48|16:176|112:176,1,199.80000011909,4|0
99,112,598098,1,0
160,112,598228,6,0,B|256:64,1,99.900000059545,8|0
352,176,598489,2,0,B|256:128,1,99.900000059545,8|0
160,176,598750,2,0,B|256:224,1,99.900000059545,8|0
352,240,599011,2,0,B|256:288,1,99.900000059545,8|0
192,304,599271,2,8,B|80:304,2,99.900000059545
416,48,599793,6,0,B|496:48|496:176|400:176,1,199.80000011909,4|0
413,112,600184,1,0
352,112,600315,6,0,B|256:64,1,99.900000059545,8|0
160,176,600576,2,0,B|256:128,1,99.900000059545,8|0
352,176,600837,2,0,B|256:224,1,99.900000059545,8|0
160,240,601098,2,0,B|256:288,1,99.900000059545,8|0
320,304,601358,2,8,B|432:304,2,99.900000059545
256,192,601880,12,4,605011
256,64,605532,5,4
80,192,606054,5,8
64,256,606184,1,0
96,320,606315,1,0
160,352,606445,1,0
192,288,606576,1,8
128,256,606706,1,0
192,224,606837,1,0
432,192,607098,5,8
448,256,607228,1,0
416,320,607358,1,0
352,352,607489,1,0
320,288,607619,1,8
384,256,607750,1,0
320,224,607880,1,0
208,112,608141,6,0,B|64:80|48:224,1,199.80000011909,8|0
304,112,608663,2,0,B|448:80|464:224,1,199.80000011909,8|0
256,320,609184,5,8
192,288,609315,1,0
192,224,609445,1,8
256,192,609576,1,8
320,224,609706,1,8
320,288,609837,1,0
256,256,609967,1,12
208,32,610228,6,0,B|112:32|96:48,1,99.900000059545,4|0
208,64,610489,2,0,B|112:64|96:80,1,99.900000059545
208,96,610750,2,8,B|112:96|96:112,1,99.900000059545
208,128,611011,2,8,B|112:128|96:144,1,99.900000059545
208,160,611271,2,0,B|112:160|96:176,1,99.900000059545,8|0
208,192,611532,2,0,B|112:192|96:208,1,99.900000059545
208,224,611793,2,0,B|112:224|96:240,1,99.900000059545,2|0
208,256,612054,2,0,B|112:256|96:272,1,99.900000059545
304,256,612315,6,0,B|400:256|416:272,1,99.900000059545,4|0
304,224,612576,2,0,B|400:224|416:240,1,99.900000059545
304,192,612837,2,8,B|400:192|416:208,1,99.900000059545
304,160,613098,2,8,B|400:160|416:176,1,99.900000059545
304,128,613358,2,0,B|400:128|416:144,1,99.900000059545,8|0
304,96,613619,2,0,B|400:96|416:112,1,99.900000059545,2|0
304,64,613880,2,0,B|400:64|416:80,1,99.900000059545,2|0
304,32,614141,2,0,B|400:32|416:48,1,99.900000059545,0|0
224,32,614402,6,0,B|176:112|32:64,1,199.80000011909,4|0
48,128,614793,1,0
224,160,614924,6,0,B|176:240|32:192,1,199.80000011909,8|0
48,256,615315,1,0
224,304,615445,6,0,B|192:352|192:352|48:352|96:256|160:288,1,199.80000011909,4|0
224,80,615967,2,8,B|192:32|192:32|48:32|96:128|160:96,1,199.80000011909
288,32,616489,6,0,B|336:112|480:64,1,199.80000011909,4|0
464,128,616880,1,0
288,160,617011,6,0,B|336:240|480:192,1,199.80000011909,8|0
464,256,617402,1,0
288,304,617532,6,0,B|320:352|320:352|464:352|416:256|352:288,1,199.80000011909,4|0
288,80,618054,2,8,B|320:32|320:32|464:32|416:128|352:96,1,199.80000011909
176,192,618576,5,2
336,192,618837,1,2
96,192,619098,5,2
416,192,619358,1,2
256,192,619619,12,4,621706
256,336,622228,5,4
176,64,622750,6,0,B|272:96,1,99.900000059545,4|0
384,240,623011,2,0,B|304:320,1,99.900000059545
112,272,623271,2,0,B|128:160,1,99.900000059545
464,80,623532,6,0,B|464:192,1,99.900000059545
336,64,623793,6,0,B|240:96,1,99.900000059545,4|0
128,240,624054,2,0,B|208:320,1,99.900000059545
400,272,624315,2,0,B|384:160,1,99.900000059545
48,80,624576,6,0,B|48:192,1,99.900000059545
288,352,624837,6,0,B|384:304,1,99.900000059545,8|0
448,192,625098,2,0,B|336:256,1,99.900000059545
224,352,625358,6,0,B|128:304,1,99.900000059545,8|0
64,192,625619,2,0,B|176:256,1,99.900000059545
256,240,625880,5,8
320,240,626011,1,0
320,176,626141,1,8
320,112,626271,1,0
256,112,626402,1,8
192,112,626532,1,0
192,176,626663,1,8
192,240,626793,1,0
288,336,626924,6,0,B|368:272,1,99.900000059545,8|0
320,240,627184,2,0,B|400:176,1,99.900000059545
352,144,627445,2,0,B|432:80,1,99.900000059545,8|0
368,48,627706,2,0,B|288:112,1,99.900000059545
256,160,627967,5,8
224,224,628098,1,0
224,288,628228,1,8
256,352,628358,1,0
288,288,628489,1,8
288,224,628619,1,0
256,160,628750,1,8
256,160,628880,1,0
222,110,629011,6,0,B|144:48,1,99.900000059545,8|0
81,81,629271,2,0,B|160:144,1,99.900000059545
113,177,629532,2,0,B|192:240,1,99.900000059545,8|0
145,273,629793,2,0,B|224:336,1,99.900000059545
288,336,630054,6,0,B|368:272,1,99.900000059545,8|0
320,240,630315,2,0,B|400:176,1,99.900000059545
352,144,630576,2,0,B|432:80,1,99.900000059545,8|0
368,48,630837,2,0,B|288:112,1,99.900000059545
224,128,631098,6,0,B|144:112|160:48,1,99.900000059545,8|0
176,176,631358,2,0,B|96:160|112:96,1,99.900000059545
288,256,631619,6,0,B|368:272|352:336,1,99.900000059545,4|0
336,208,631880,2,0,B|416:224|400:288,1,99.900000059545
288,128,632141,6,0,B|368:112|352:48,1,99.900000059545,8|0
336,176,632402,2,0,B|416:160|400:96,1,99.900000059545
224,256,632663,6,0,B|144:272|160:336,1,99.900000059545,8|0
176,208,632924,2,0,B|96:224|112:288,1,99.900000059545,8|0
48,272,633184,6,0,B|48:160,1,99.900000059545,4|0
112,64,633445,2,0,B|112:176,1,99.900000059545,4|0
176,272,633706,6,0,B|176:160,1,99.900000059545,4|0
240,64,633967,2,0,B|240:176,1,99.900000059545
464,272,634228,6,0,B|464:160,1,99.900000059545,8|0
400,64,634489,2,0,B|400:176,1,99.900000059545,8|0
336,272,634750,6,0,B|336:160,1,99.900000059545,2|0
272,64,635011,2,0,B|272:176,1,99.900000059545,2|0
256,192,635271,12,4,638402
256,48,638924,5,4
128,336,639445,5,8
160,272,639576,1,0
192,208,639706,1,0
224,144,639837,1,0
160,144,639967,5,8
192,208,640098,1,0
224,272,640228,1,0
256,336,640358,1,0
192,336,640489,5,8
224,272,640619,1,0
256,208,640750,1,0
288,144,640880,1,0
224,144,641011,5,8
256,208,641141,1,0
288,272,641271,1,0
320,336,641402,1,0
256,336,641532,5,8
288,272,641663,1,0
320,208,641793,1,0
352,144,641924,1,0
288,144,642054,5,8
320,208,642184,1,0
352,272,642315,1,0
384,336,642445,1,0
416,272,642576,6,0,B|448:176,1,99.900000059545,8|0
416,48,642837,2,0,B|384:160,1,99.900000059545,8|0
96,272,643098,6,8,C|64:176,1,99.900000059545
96,48,643358,2,0,B|128:160,1,99.900000059545
208,56,643619,6,0,B|320:56,1,99.900000059545,8|0
304,328,643880,2,0,B|192:328,1,99.900000059545
208,112,644141,6,0,B|320:112,1,99.900000059545,8|0
304,272,644402,2,0,B|192:272,1,99.900000059545
144,144,644663,6,0,B|144:256,1,99.900000059545,8|0
368,244,644924,2,0,B|368:144,1,99.900000059545
80,144,645184,6,0,B|80:256,1,99.900000059545,8|0
432,244,645445,2,0,B|432:144,1,99.900000059545
160,48,645706,6,8,B|64:96,1,99.900000059545
70,291,645967,2,0,B|160:336,1,99.900000059545
352,336,646228,6,8,B|441:291,1,99.900000059545
441,92,646489,2,0,B|352:48,1,99.900000059545
224,96,646750,6,8,B|224:208,1,99.900000059545
224,304,647011,2,8,B|160:208,1,99.900000059545
343,220,647271,6,8,B|288:304,1,99.900000059545,8|0
288,196,647532,2,0,B|288:96,1,99.900000059545,0|0
144,352,647793,6,0,B|64:336|48:288,1,99.900000059545,8|0
80,240,648054,2,0,B|160:256|176:304,1,99.900000059545
112,176,648315,6,0,B|128:96|176:80,1,99.900000059545,8|0
224,112,648576,2,0,B|208:192|160:208,1,99.900000059545
333,198,648837,6,0,B|304:192|288:112,1,99.900000059545,8|0
354,89,649098,2,0,B|384:96|400:176,1,99.900000059545,0|0
345,285,649358,6,0,B|352:256|432:240,1,99.900000059545,8|0
454,306,649619,2,0,B|448:336|368:352,1,99.900000059545,0|0
288,352,649880,5,8
288,288,650011,1,0
224,288,650141,1,0
224,352,650271,1,0
160,352,650402,5,8
160,288,650532,1,0
160,224,650663,1,0
224,224,650793,1,0
288,224,650924,5,8
352,224,651054,1,0
352,288,651184,1,0
352,352,651315,1,0
288,352,651445,5,8
256,288,651576,1,0
224,352,651706,1,8
256,192,651967,12,4,655098
256,192,655619,5,4
256,192,656141,1,0
