osu file format v6

[General]
AudioFilename: Susumu Hirasawa - Big Brother.mp3
AudioLeadIn: 0
PreviewTime: 15372
Countdown: 1
SampleSet: Normal
StackLeniency: 1
Mode: 0
LetterboxInBreaks: 1

[Editor]
Bookmarks: 15451,20661,25714,30766,35819,43398,44661,49714,54766,59819,64872,74977,80030,82556,87608,92661,97714,107819,112872,117924,122977,128030,138135,143187,148240,150608,153293,163398,167187,168451,170977,176030,186135,191187,195608
DistanceSpacing: 0
BeatDivisor: 4
GridSize: 8

[Metadata]
Title:Big Brother
Artist:Susumu Hirasawa
Creator:Gens
Version:Insane
Source:
Tags:KAKU P-MODEL Starrodkirby86 Real1

[Difficulty]
HPDrainRate:7
CircleSize:4
OverallDifficulty:6
SliderMultiplier:2
SliderTickRate:2

[Events]
//Background and Video events
0,0,"BigBrotherBG.png"
//Break Periods
2,36098,42427
2,65151,74006
2,97992,106848
2,128308,132111
2,153571,162427
//Storyboard Layer 0 (Background)
//Storyboard Layer 1 (Fail)
//Storyboard Layer 2 (Pass)
//Storyboard Layer 3 (Foreground)
//Storyboard Sound Samples
//Background Colour Transformations
3,100,0,128,192

[TimingPoints]
530,315.789473684211,4,1,0,70,1,0
46872,-100,4,2,0,50,0,0
47187,-100,4,1,0,70,0,0
51924,-100,4,2,0,50,0,0
52240,-100,4,1,0,70,0,0
128108,-100,4,1,0,10,0,0
133082,-100,4,1,0,70,0,0
186214,-100,4,1,0,70,0,1
196319,-100,4,1,0,0,0,0

[HitObjects]
256,40,15530,5,8
256,40,15687,1,4
376,112,16003,2,0,B|432:128|472:184,2,100,8|0|0
136,200,16635,2,0,B|80:216|40:272,2,100,8|0|0
256,104,17266,2,2,B|256:312,2,200,10|6|8
344,304,18214,5,4
296,368,18372,1,0
216,368,18530,1,8
168,304,18687,1,0
192,232,18845,2,0,B|208:128|320:240|328:80,1,200,4|8
256,32,19319,1,0
187,109,19477,2,0,B|192:240|304:128|320:232,1,200,4|8
256,304,19951,1,0
256,304,20108,1,4
256,80,20424,1,8
256,80,20582,1,0
328,96,20740,6,0,B|376:192|328:296,1,200,4|8
256,192,21214,1,0
184,96,21372,2,0,B|136:192|184:296,1,200,4|8
256,360,21845,1,0
328,320,22003,2,0,B|328:216,1,100,2|0
184,320,22319,2,0,B|184:216,1,100,8|0
160,128,22635,2,0,B|256:96|360:128,1,200,4|8
488,64,23266,6,0,B|392:32,1,100,4|0
432,64,23582,2,0,B|336:32,1,100,8|0
376,64,23898,2,0,B|280:32,1,100,0|0
320,64,24214,2,0,B|224:32,1,100,8|0
272,64,24530,2,0,B|176:96,1,100,2|0
216,64,24845,2,0,B|120:96,1,100,10|2
136,192,25161,2,4,B|136:336|256:344|384:336|383:188,1,400
256,192,26108,6,0,B|208:192|208:192|208:256|256:264|328:256|308:192|308:192|288:192,2,200,8|0|8
312,136,26898,1,0
256,64,27056,2,0,B|48:64,1,200,0|10
256,64,27687,2,0,B|464:64,1,200,6|8
432,136,28161,1,0
480,208,28319,6,0,B|480:312,1,100,4|0
408,208,28635,2,0,B|408:312,1,100,8|0
336,208,28951,2,0,B|336:0,1,200,4|8
336,208,29424,1,0
264,208,29582,2,0,B|264:0,1,200,4|8
264,208,30056,1,0
192,56,30214,2,0,B|72:56|72:192,1,200,4|10
256,280,30845,5,4
256,120,31161,1,8
256,120,31319,1,0
288,32,31477,2,0,B|416:32|416:160,1,200,4|8
256,192,31951,1,0
416,224,32108,2,0,B|416:352|288:352,2,200,4|10|6
184,192,33056,1,8
104,192,33214,1,0
256,208,33372,12,4,35898
256,56,43477,5,4
40,56,43793,2,0,B|144:56,1,100,8|0
205,192,44108,2,0,B|309:192,1,100,8|0
376,328,44424,2,0,B|480:328,1,100,8|0
256,328,44740,5,4
56,136,45056,1,0
56,136,45214,1,2
160,88,45372,2,0,B|256:64|256:120|360:88,1,200,0|0
416,192,45845,1,2
352,296,46003,2,0,B|256:320|256:264|152:296,1,200,2|0
184,192,46477,5,2
328,192,46635,1,0
184,192,46793,1,0
328,192,46951,1,2
184,192,47108,1,12
256,328,47266,5,4
456,136,47582,1,0
456,136,47740,1,2
352,88,47898,2,0,B|256:64|256:120|152:88,1,200,0|0
96,192,48372,1,2
160,296,48530,2,0,B|256:320|256:264|360:296,1,200,0|2
256,40,49161,5,6
256,368,49477,1,0
256,40,49793,5,4
456,248,50108,1,0
456,248,50266,1,2
352,296,50424,2,0,B|256:320|256:264|152:296,1,200,0|0
96,192,50898,1,2
160,88,51056,2,0,B|256:64|256:120|360:88,1,200,2|0
328,192,51530,5,2
184,192,51687,1,0
328,192,51845,1,0
184,192,52003,1,2
328,192,52161,1,12
256,56,52319,5,4
56,248,52635,1,0
56,248,52793,1,2
160,296,52951,2,0,B|256:320|256:264|360:296,1,200,0|0
416,192,53424,1,2
352,88,53582,2,0,B|256:64|256:120|152:88,1,200,0|2
256,344,54214,5,6
256,16,54530,1,8
256,104,54687,1,8
256,192,54845,5,4
456,328,55161,1,8
456,328,55319,1,0
456,328,55477,1,4
56,328,55793,1,8
56,328,55951,1,0
56,328,56108,1,4
256,272,56424,2,2,B|256:64,2,200,10|6|8
336,152,57372,5,4
336,232,57530,1,0
176,152,57687,1,8
176,232,57845,1,0
160,312,58003,2,0,B|256:352|360:312,1,200,4|8
256,192,58477,1,0
352,72,58635,2,0,B|256:32|152:72,1,200,4|8
256,192,59108,1,0
160,312,59266,2,2,B|256:352|360:312,1,200,6|10
144,64,59898,6,0,B|80:64|56:128|80:192|144:192,1,200,4|8
368,64,60530,2,0,B|432:64|456:128|432:192|368:192,1,200,4|8
296,192,61003,1,0
296,112,61161,1,2
216,112,61319,1,2
216,192,61477,1,8
256,264,61635,1,0
320,304,61793,2,0,B|320:368|256:392|192:368|192:304,1,200,4|8
136,256,62266,5,0
80,192,62424,1,0
320,192,62740,1,10
376,256,62898,1,0
432,192,63056,1,2
296,40,63372,1,8
216,40,63530,1,0
256,192,63687,5,4
256,208,63766,12,4,64951
256,40,75056,5,4
66,105,75530,1,0
66,105,75687,2,0,B|178:105|256:160,1,200,8|0
445,105,76319,2,0,B|333:105|256:160,1,200,8|0
256,240,76793,1,0
168,280,76951,2,0,B|256:360|352:280,1,200,8|0
128,208,77582,6,0,B|24:208,2,100,8|0|0
384,208,78214,2,0,B|488:208,2,100,8|0|0
256,208,78687,1,0
344,144,78845,2,0,B|256:64|160:144,1,200,8|0
344,96,79477,2,0,B|256:16|160:96,1,200,8|0
104,352,80108,6,0,B|312:352,1,200,8|0
256,280,80582,1,0
408,208,80740,2,0,B|200:208,1,200,8|0
256,136,81214,1,0
176,136,81372,1,8
184,64,81530,1,0
256,56,81687,1,0
256,216,82003,1,8
328,208,82161,1,0
336,136,82319,1,0
256,352,82635,5,4
440,352,82951,1,2
72,288,83266,2,0,B|72:104|264:104,1,300,2|0
128,320,83898,2,0,B|128:136|320:136,1,300,2|0
184,352,84530,2,0,B|184:168|376:168,1,300,2|0
336,248,85161,1,2
408,232,85319,1,0
448,168,85477,1,0
432,96,85635,1,0
256,32,85793,6,0,B|48:32,1,200,2|0
256,32,86424,2,0,B|464:32,1,200,2|2
256,32,87056,2,2,B|256:88,8,50,2|0|0|0|2|0|0|0|6
440,32,88003,5,2
72,96,88319,2,0,B|72:280|264:280,1,300,2|0
128,64,88951,2,0,B|128:248|320:248,1,300,2|0
184,32,89582,2,0,B|184:216|376:216,1,300,2|0
336,136,90214,1,2
408,152,90372,1,0
448,216,90530,1,0
432,288,90687,1,0
256,352,90845,6,0,B|48:352,1,200,2|0
256,352,91477,2,0,B|464:352,1,200,2|2
256,352,92108,2,2,B|256:296,8,50,2|0|0|0|2|0|0|0|6
256,40,93056,5,8
440,40,93372,2,0,B|440:248,1,200,4|8
368,40,93845,1,0
368,40,94003,2,0,B|368:248,1,200,4|8
296,40,94477,1,0
296,40,94635,2,0,B|296:248,1,200,4|8
224,288,95108,1,2
152,296,95266,5,4
80,280,95424,1,0
32,224,95582,1,8
8,152,95740,1,0
56,88,95898,2,0,B|256:88,1,200,4|8
456,88,96530,2,0,B|256:88,1,200,6|10
56,192,97161,2,4,B|200:112|344:296|472:176,1,400
56,41,107898,6,0,B|152:25|256:40,3,200,4|8|0|8
456,40,109003,1,0
455,121,109161,6,0,B|359:105|256:120,3,200,4|8|0|8
56,120,110266,1,0
56,201,110424,6,0,B|152:185|256:200,3,200,4|8|0|8
456,200,111530,1,0
455,281,111687,6,0,B|359:265|256:280,3,200,4|8|0|8
55,280,112793,1,0
185,262,112951,6,0,B|256:192,1,100,4|0
185,121,113266,2,0,B|256:192,1,100,8|0
326,121,113582,2,0,B|256:192,1,100,0|0
326,262,113898,2,0,B|256:192,1,100,8|0
156,192,114214,6,0,B|256:192,1,100,4|0
256,92,114530,2,0,B|256:192,1,100,8|0
356,192,114845,2,0,B|256:192,1,100,0|0
256,292,115161,2,0,B|256:192,1,100,8|0
256,192,115477,1,4
256,208,115556,12,4,118003
56,56,118319,6,0,B|16:16,2,50,8|0|0
144,112,118635,2,0,B|192:104|248:112,1,100
368,272,118951,2,0,B|320:280|264:272,1,100,8|0
256,192,119266,5,4
456,56,119582,2,0,B|496:16,2,50,8|0|0
368,96,119898,2,0,B|320:88|264:96,1,100
144,288,120214,2,0,B|192:296|248:288,1,100,8|0
256,192,120530,5,4
56,328,120845,2,0,B|16:368,2,50,8|0|0
144,304,121161,2,0,B|192:312|248:304,1,100
368,80,121477,2,0,B|320:72|264:80,1,100,8|0
256,192,121793,5,4
456,328,122108,2,0,B|496:368,2,50,8|0|0
368,320,122424,2,0,B|320:328|264:320,1,100
144,64,122740,2,0,B|192:56|248:64,1,100,8|0
256,192,123056,5,4
48,192,123372,2,0,B|48:248,2,50,8|0|0
120,304,123687,2,0,B|168:320|224:304,3,100,0|0|8|0
256,192,124319,5,4
464,192,124635,2,0,B|464:136,2,50,8|0|0
392,64,124951,2,0,B|344:48|288:64,3,100,0|0|8|0
256,192,125582,5,4
48,192,125898,2,0,B|48:248,2,50,8|0|0
120,336,126214,2,0,B|168:352|224:336,3,100,0|0|8|0
256,192,126845,5,4
464,192,127161,2,0,B|464:136,2,50,8|0|0
392,32,127477,2,0,B|344:16|288:32,3,100,0|0|8|0
256,192,128108,5,0
216,72,133161,6,0,B|112:200|160:360,1,300,4|2
353,353,133793,2,0,B|399:199|296:72,1,300,0|2
176,136,134424,2,0,B|176:256|256:264|336:256|336:136,1,300,2|2
256,48,135056,1,0
256,368,135372,1,4
256,368,135530,1,8
216,312,135687,6,0,B|112:184|160:24,1,300,4|2
353,30,136319,2,0,B|399:184|296:312,1,300,0|2
176,248,136951,2,0,B|176:128|256:120|336:128,1,200,0|2
213,125,137582,2,0,B|256:120|336:128|336:248,1,200,6|0
408,312,138214,6,0,B|256:264|256:376|112:312,1,300,4|2
117,194,138845,2,0,B|256:256|256:144|408:192,1,300,0|2
408,64,139477,2,0,B|256:16|256:128|112:64,1,300,2|2
192,16,140108,1,0
320,360,140424,1,4
192,360,140582,1,8
104,312,140740,6,0,B|256:264|256:376|400:312,1,300,4|2
394,194,141372,2,0,B|255:256|255:144|104:192,1,300,0|2
104,64,142003,2,0,B|200:16|200:128|296:64,1,200,0|2
224,64,142635,2,0,B|320:16|320:128|416:64,1,200,6|8
352,160,143108,1,8
256,192,143266,6,0,B|120:192|120:296|176:296,1,200,4|8
256,280,143740,1,0
256,192,143898,2,0,B|392:192|392:296|336:296,1,200,4|8
256,280,144372,1,0
256,192,144529,2,0,B|184:120,1,100,2|0
256,192,144845,2,0,B|328:120,1,100,10|2
352,40,145161,2,0,B|280:-8|256:104|224:-8|152:40,1,200,4|8
96,88,145635,1,0
96,168,145793,6,0,B|96:296|224:296,1,200,4|8
416,88,146266,1,0
416,168,146424,2,0,B|416:296|288:296,1,200,4|8
256,224,146898,1,2
256,144,147056,2,0,B|360:72|128:72|256:0,1,200,6|10
256,144,147529,1,0
256,224,147687,2,0,B|360:296|128:296|256:368,1,200,4|8
64,192,148319,6,0,B|64:128|128:128,2,100,6|0|8
448,192,148951,2,0,B|448:256|384:256,2,100,6|0|8
408,120,149424,1,2
336,64,149582,1,4
256,16,149740,1,0
176,64,149898,1,8
104,120,150056,1,0
256,104,150214,2,0,B|256:312,1,200,4|8
336,304,150687,5,2
416,304,150845,1,0
256,80,151161,1,10
176,80,151319,1,0
96,80,151477,1,6
96,304,151793,1,8
176,304,151951,1,0
156,232,152108,6,0,B|364:232,1,200,4|8
424,192,152582,1,0
355,152,152740,2,0,B|147:152,2,200,4|8|4
256,40,163477,5,4
446,105,163951,1,0
446,105,164108,2,0,B|334:105|256:160,1,200,8|0
67,105,164740,2,0,B|179:105|256:160,1,200,8|0
256,240,165214,1,0
344,280,165372,2,0,B|256:360|160:280,1,200,8|0
384,208,166003,6,0,B|488:208,2,100,8|0|0
128,208,166635,2,0,B|24:208,2,100,8|0|0
208,160,167108,1,0
256,80,167266,6,0,B|360:64|464:80,1,200,12|0
256,80,167740,1,0
256,80,167898,2,0,B|152:96|48:80,1,200,8|0
408,352,168529,6,0,B|200:352,1,200,8|0
256,280,169003,1,0
104,208,169161,2,0,B|312:208,1,200,8|0
256,136,169635,1,0
336,136,169793,1,8
328,64,169951,1,0
256,56,170108,1,0
256,216,170424,1,8
184,208,170582,1,0
176,136,170740,1,0
40,352,171056,5,6
40,352,171372,2,0,B|40:296,2,50,2|0|0
112,320,171687,2,0,B|112:264,2,50,2|0|0
184,288,172003,2,0,B|184:232,2,50,2|0|0
256,256,172319,2,0,B|256:200,2,50,2|0|0
328,224,172635,2,0,B|328:168,2,50,2|0|0
400,192,172951,2,0,B|400:136,2,50,2|0|0
472,160,173266,2,0,B|472:104,2,50,2|0|0
416,64,173582,6,0,B|416:8,2,50,4|0|0
336,64,173898,2,0,B|336:8,2,50,8|0|0
256,64,174214,2,0,B|256:8,2,50,2|0|0
176,64,174529,2,0,B|176:8,2,50,8|0|0
96,64,174845,2,0,B|96:8,2,50,6|0|0
96,64,175161,2,0,B|96:120,2,50,2|0|0
62,192,175477,2,4,L|94:192|94:208|110:192|110:208|126:192|126:208|142:192|142:208|158:192|158:208|174:192|174:208|190:192|190:208|206:192|206:208|222:192|222:208|230:192|256:192,1,400,4|6
320,144,176266,5,0
384,192,176424,1,10
256,304,176740,2,0,B|160:272|56:304,1,200,6|8
256,304,177214,1,0
256,304,177372,2,0,B|352:336|456:304,1,200,6|8
256,304,177845,1,0
256,304,178003,2,0,B|160:272|56:304,1,200,6|8
256,304,178477,1,0
256,224,178635,6,0,B|256:168,2,50,6|0|0
296,112,178951,1,8
216,112,179108,1,0
136,112,179266,2,0,B|24:112|24:256,1,200,4|8
376,112,179898,2,0,B|488:112|488:256,1,200,6|10
449,192,180530,2,4,L|417:192|417:208|401:192|401:208|385:192|385:208|369:192|369:208|353:192|353:208|337:192|337:208|321:192|321:208|305:192|305:208|289:192|289:208|281:192|256:192,1,400,4|6
192,240,181319,5,0
128,192,181477,1,10
256,80,181793,2,0,B|352:112|456:80,1,200,6|8
256,80,182266,1,0
256,80,182424,2,0,B|160:48|56:80,1,200,6|8
256,80,182898,1,0
256,80,183056,2,0,B|352:112|456:80,1,200,6|8
256,80,183529,1,2
256,160,183687,6,0,B|256:216,2,50,4|0|0
216,272,184003,1,8
296,272,184161,1,0
376,272,184319,2,0,B|488:272|488:128,1,200,4|8
136,272,184951,2,0,B|24:272|24:128,1,200,6|10
0,0,185582,2,4,B|200:0|8:192|192:192,1,300,4|0
256,192,186214,6,0,B|256:136,2,50,6|0|0
384,192,186529,2,0,B|384:136,2,50,8|0|0
384,320,186845,2,0,B|384:376,2,50,4|0|0
256,320,187161,2,0,B|256:376,2,50,8|0|0
128,320,187477,2,0,B|128:376,2,50,4|0|0
128,192,187793,2,0,B|128:136,2,50,8|0|0
256,192,188108,2,0,B|256:136,2,50,4|0|0
256,320,188424,2,0,B|304:272,1,50,8|0
256,320,188582,2,0,B|208:272,1,50
256,224,188740,1,4
256,88,188898,6,0,B|256:144,2,50,0|0|8
184,88,189214,1,0
112,88,189372,2,0,B|112:32,2,50,6|0|0
112,88,189687,1,8
400,296,190003,2,0,B|400:352,2,50,2|0|0
400,296,190319,1,10
512,0,190635,2,4,B|312:0|504:192|320:192,1,300,4|0
256,192,191266,6,0,B|256:248,2,50,6|0|0
128,192,191582,2,0,B|128:248,2,50,8|0|0
128,64,191898,2,0,B|128:8,2,50,4|0|0
256,64,192214,2,0,B|256:8,2,50,8|0|0
384,64,192529,2,0,B|384:8,2,50,4|0|0
384,192,192845,2,0,B|384:248,2,50,8|0|0
256,192,193161,2,0,B|256:248,2,50,4|0|0
256,64,193477,2,0,B|304:112,1,50,8|0
256,64,193635,2,0,B|208:112,1,50
256,160,193793,1,4
256,296,193951,6,0,B|256:240,2,50,0|0|8
328,296,194266,1,0
400,296,194424,2,0,B|400:352,2,50,6|0|0
400,296,194740,1,8
112,88,195056,2,0,B|112:32,2,50,2|0|0
112,88,195372,1,10
256,192,195687,5,4
256,208,195766,12,0,196319
