osu file format v14

[General]
AudioFilename: Sushi Killer - Zora.mp3
AudioLeadIn: 0
PreviewTime: 66422
Countdown: 0
SampleSet: None
StackLeniency: 0.7
Mode: 0
LetterboxInBreaks: 0
WidescreenStoryboard: 1

[Editor]
Bookmarks: 23032,35914,44727,88117,131507,133880,174897
DistanceSpacing: 1
BeatDivisor: 4
GridSize: 4
TimelineZoom: 2.1

[Metadata]
Title:Zora
TitleUnicode:Zora
Artist:Sushi Killer
ArtistUnicode:Sushi Killer
Creator:Liiraye
Version:Something
Source:
Tags:dnb mashup
BeatmapID:784868
BeatmapSetID:356696

[Difficulty]
HPDrainRate:6
CircleSize:4.3
OverallDifficulty:8
ApproachRate:9
SliderMultiplier:1.5
SliderTickRate:1

[Events]
//Background and Video events
0,0,"BGBGBG.jpg",0,0
//Break Periods
2,110011,120059
//Storyboard Layer 0 (Background)
//Storyboard Layer 1 (Fail)
//Storyboard Layer 2 (Pass)
//Storyboard Layer 3 (Foreground)
//Storyboard Sound Samples

[TimingPoints]
-18,338.983050847458,4,3,1,100,1,0
1337,-200,4,3,1,100,0,0
6761,-166.666666666667,4,3,1,100,0,0
12185,-142.857142857143,4,3,1,100,0,0
17609,-125,4,3,1,100,0,0
23032,-100,4,3,1,100,0,0
60998,-83.3333333333333,4,3,1,100,0,0
63710,-76.9230769230769,4,3,1,100,0,0
66083,-55.5555555555556,4,3,1,100,0,0
66422,-66.6666666666667,4,3,1,90,0,1
80659,-50,4,3,1,90,0,1
80998,-66.6666666666667,4,3,1,90,0,1
93541,-52.6315789473684,4,3,1,90,0,1
93880,-66.6666666666667,4,3,1,90,0,1
109812,-133.333333333333,4,3,1,80,0,0
142354,-100,4,3,1,80,0,0
153202,-66.6666666666667,4,3,1,90,0,1
196592,-66.6666666666667,4,3,1,90,0,0

[Colours]
Combo1 : 242,228,53
Combo2 : 249,72,47
Combo3 : 247,108,49
Combo4 : 247,183,49

[HitObjects]
255,199,1337,5,0,0:0:0:0:
255,199,1676,2,0,L|339:207,1,75
453,62,2580,5,0,0:0:0:0:
440,64,2693,2,0,L|349:70,2,75
456,180,3597,1,0,0:0:0:0:
460,191,3710,1,0,0:0:0:0:
216,73,4049,5,0,0:0:0:0:
216,73,4388,2,0,L|123:66,1,75
68,294,5292,5,0,0:0:0:0:
77,285,5405,2,0,P|105:243|118:199,1,75
272,300,6083,5,0,0:0:0:0:
266,242,6195,5,0,0:0:0:0:
261,185,6308,5,0,0:0:0:0:
256,128,6421,5,0,0:0:0:0:
367,95,6648,5,0,0:0:0:0:
369,80,6761,2,0,L|376:20,1,59.9999981689454
466,92,7100,2,0,L|472:152,1,59.9999981689454
474,166,7439,1,0,0:0:0:0:
250,303,8004,5,0,0:0:0:0:
247,288,8117,2,0,B|244:261|244:261|252:228,1,59.9999981689454
354,184,8456,2,0,B|362:216|362:216|359:243,1,59.9999981689454
150,281,8795,2,0,L|90:283,1,59.9999981689454
74,284,9134,1,0,0:0:0:0:
197,54,9473,6,0,L|279:59,1,59.9999981689454
346,105,9812,2,0,L|417:102,1,59.9999981689454
421,101,10151,1,0,0:0:0:0:
344,274,10716,1,0,0:0:0:0:
344,274,10829,1,0,0:0:0:0:
256,192,11055,12,0,12863,0:0:0:0:
126,98,13428,5,0,0:0:0:0:
128,115,13541,2,0,L|136:195,1,69.9999978637696
238,105,13880,2,0,L|241:26,1,69.9999978637696
425,79,14219,2,0,B|389:90|389:90|356:87,1,69.9999978637696
339,84,14558,1,0,0:0:0:0:
187,323,14897,5,0,0:0:0:0:
187,323,15236,2,0,B|171:275|171:275|173:218,1,104.999996795654
312,50,16140,5,0,0:0:0:0:
329,47,16253,2,0,L|444:31,1,104.999996795654
405,200,16931,5,0,0:0:0:0:
341,227,17043,5,0,0:0:0:0:
271,226,17156,5,0,0:0:0:0:
209,195,17269,5,0,0:0:0:0:
79,328,17496,5,0,0:0:0:0:
94,326,17609,2,0,L|174:319,1,80
140,144,17948,2,0,P|125:180|129:220,1,80
135,235,18287,1,0,0:0:0:0:
452,114,18852,5,0,0:0:0:0:
437,107,18965,2,0,P|398:97|357:107,1,80
267,239,19304,2,0,L|277:339,1,80
392,287,19643,2,0,L|397:190,1,80
398,191,19982,1,0,0:0:0:0:
216,47,20320,5,0,0:0:0:0:
216,47,20659,2,0,B|157:37|157:37|97:45,1,120
66,316,21563,1,0,0:0:0:0:
80,311,21676,2,0,P|130:279|158:227,1,120
305,26,22354,5,0,0:0:0:0:
252,74,22466,5,0,0:0:0:0:
232,142,22579,5,0,0:0:0:0:
249,211,22692,5,0,0:0:0:0:
368,147,23032,5,0,0:0:0:0:
368,147,23371,2,0,L|361:228,1,75
184,258,23880,2,0,P|121:234|39:241,2,150
195,267,24727,1,0,0:0:0:0:
235,27,25066,1,0,0:0:0:0:
334,60,25236,2,0,L|417:55,1,75
408,55,25575,1,0,0:0:0:0:
361,306,25744,5,0,0:0:0:0:
361,306,26083,2,0,B|369:271|369:271|364:232,1,75
365,232,26422,1,0,0:0:0:0:
213,171,26592,2,0,L|121:159,1,75
138,161,26931,1,0,0:0:0:0:
283,75,27100,6,0,L|369:69,1,75
437,264,27439,1,0,0:0:0:0:
471,164,27609,1,0,0:0:0:0:
283,179,27778,5,0,0:0:0:0:
238,232,27891,5,0,0:0:0:0:
222,299,28004,5,0,0:0:0:0:
240,366,28117,6,0,L|314:368,1,75
150,249,28456,6,0,L|21:259,1,112.5
26,259,28795,1,0,0:0:0:0:
90,56,28965,1,0,0:0:0:0:
90,56,29134,2,0,B|96:95|96:95|91:130,1,75
280,144,29473,1,0,0:0:0:0:
184,187,29643,2,0,B|178:148|178:148|182:112,1,75
182,112,29982,5,0,0:0:0:0:
353,31,30151,1,0,0:0:0:0:
353,31,30490,1,0,0:0:0:0:
420,129,30659,1,0,0:0:0:0:
251,260,30829,1,0,0:0:0:0:
280,144,30998,1,0,0:0:0:0:
429,288,31168,5,0,0:0:0:0:
429,288,31507,2,0,L|421:363,1,75
421,363,31846,1,0,0:0:0:0:
323,217,32015,2,0,L|316:120,1,75
317,142,32354,1,0,0:0:0:0:
200,71,32524,6,0,B|158:62|158:62|126:65,2,75
316,39,33032,1,0,0:0:0:0:
188,181,33202,2,0,B|178:223|178:223|178:254,1,75
340,333,33541,2,0,B|350:291|350:291|349:259,1,75
256,192,33880,12,0,35575,0:0:0:0:
197,245,35914,5,0,0:0:0:0:
197,245,36083,2,0,L|117:256,1,75
57,87,36422,1,0,0:0:0:0:
22,183,36592,2,0,L|96:172,1,75
276,32,36931,6,0,P|294:77|297:124,1,75
375,240,37270,2,0,P|430:237|465:220,1,75
401,98,37609,1,0,0:0:0:0:
129,199,37863,1,0,0:0:0:0:
127,218,37948,2,0,L|120:326,2,75
96,96,38456,1,0,0:0:0:0:
285,80,38626,5,0,0:0:0:0:
317,142,38739,5,0,0:0:0:0:
319,213,38852,5,0,0:0:0:0:
292,278,38965,6,0,L|219:289,1,75
398,358,39304,6,0,P|431:292|416:233,1,112.5
426,255,39643,1,0,0:0:0:0:
319,213,39812,1,0,0:0:0:0:
365,51,39982,1,0,0:0:0:0:
365,51,40151,2,0,P|328:57|297:77,1,75
398,192,40490,2,0,L|483:205,1,75
472,204,40829,1,0,0:0:0:0:
294,351,40998,5,0,0:0:0:0:
294,351,41337,2,0,L|284:253,1,75
173,134,41676,2,0,P|137:127|100:129,1,75
297,77,42015,6,0,P|370:91|436:76,1,112.5
421,80,42354,1,0,0:0:0:0:
384,213,42524,2,0,L|381:295,1,75
190,333,42863,1,0,0:0:0:0:
164,231,43032,2,0,B|202:228|202:228|237:239,1,75
337,158,43371,6,0,B|299:161|299:161|263:149,1,75
105,62,43710,1,0,0:0:0:0:
105,62,43880,2,0,B|83:121|83:121|87:207,1,150
320,301,44388,2,0,L|412:288,1,75
475,363,44727,5,0,0:0:0:0:
256,192,44812,12,0,47100,0:0:0:0:
88,67,47439,5,0,0:0:0:0:
256,192,47524,12,0,49812,0:0:0:0:
359,106,50151,5,0,0:0:0:0:
256,192,50236,12,0,52524,0:0:0:0:
198,260,52863,5,0,0:0:0:0:
256,192,52948,12,0,55236,0:0:0:0:
256,200,55575,5,0,0:0:0:0:
353,161,55744,1,0,0:0:0:0:
433,229,55914,2,0,L|439:330,1,75
248,340,56253,1,0,0:0:0:0:
348,368,56422,2,0,L|341:273,1,75
394,85,56761,1,0,0:0:0:0:
300,35,56931,6,0,L|207:26,1,75
90,153,57270,1,0,0:0:0:0:
270,141,57439,1,0,0:0:0:0:
159,62,57609,1,0,0:0:0:0:
122,300,57778,1,0,0:0:0:0:
328,260,57948,1,0,0:0:0:0:
213,188,58117,1,0,0:0:0:0:
381,172,58287,6,0,L|506:166,1,100
501,165,58626,1,0,0:0:0:0:
436,68,58795,1,0,0:0:0:0:
328,260,58965,2,0,P|289:260|251:247,1,75
43,242,59304,1,0,0:0:0:0:
119,313,59473,1,0,0:0:0:0:
191,137,59643,6,0,P|200:101|204:64,1,75
400,123,59982,1,0,0:0:0:0:
303,164,60151,2,0,P|307:201|316:237,1,75
280,336,60490,1,0,0:0:0:0:
191,137,60659,1,0,0:0:0:0:
69,269,60829,1,0,0:0:0:0:
18,51,60998,5,0,0:0:0:0:
18,51,61168,1,0,0:0:0:0:
140,80,61337,2,0,L|234:63,1,89.9999972534181
433,186,61676,1,0,0:0:0:0:
433,186,61846,1,0,0:0:0:0:
330,258,62015,2,0,P|318:312|323:360,1,89.9999972534181
135,186,62354,5,0,0:0:0:0:
135,186,62524,1,0,0:0:0:0:
247,241,62693,2,0,P|256:195|254:152,1,89.9999972534181
439,109,63032,1,0,0:0:0:0:
439,109,63202,1,0,0:0:0:0:
317,58,63371,2,0,L|227:63,1,89.9999972534181
62,244,63710,6,0,P|65:299|79:347,1,97.4999955368044
265,366,64049,2,0,P|231:331|186:313,1,97.4999955368044
132,115,64388,2,0,P|166:150|211:168,1,97.4999955368044
464,147,64727,5,0,0:0:0:0:
312,274,64897,1,0,0:0:0:0:
323,21,65066,1,0,0:0:0:0:
366,129,65236,1,0,0:0:0:0:
189,38,65405,1,0,0:0:0:0:
35,201,65575,2,0,L|189:227,1,146.249993305207
196,228,65914,1,0,0:0:0:0:
323,21,66083,6,0,L|174:40,1,134.999995880127
434,172,66422,6,0,P|470:239|420:330,1,168.750006437302
417,331,66761,1,0,0:0:0:0:
127,280,66931,1,0,0:0:0:0:
206,144,67100,2,0,B|217:90|217:90|211:28,1,112.500004291535
433,171,67439,1,0,0:0:0:0:
472,18,67609,1,0,0:0:0:0:
315,111,67778,5,0,0:0:0:0:
315,111,67863,1,0,0:0:0:0:
315,111,67948,2,0,L|254:107,1,56.2500021457673
182,220,68117,2,0,L|241:213,1,56.2500021457673
387,42,68287,1,0,0:0:0:0:
387,42,68456,2,0,B|403:87|403:87|406:151,1,112.500004291535
264,323,68795,1,0,0:0:0:0:
421,313,68965,1,0,0:0:0:0:
199,219,69134,6,0,B|126:209|126:209|11:234,1,168.750006437302
13,233,69473,1,0,0:0:0:0:
332,268,69643,1,0,0:0:0:0:
247,153,69813,1,0,0:0:0:0:
386,125,69982,1,0,0:0:0:0:
176,45,70151,1,0,0:0:0:0:
59,222,70320,6,0,P|65:285|90:338,1,112.500004291535
247,153,70659,2,0,L|255:14,1,112.500004291535
474,140,70998,1,0,0:0:0:0:
410,299,71168,2,0,L|337:288,1,56.2500021457673
230,243,71337,2,0,L|157:232,1,56.2500021457673
199,28,71507,1,0,0:0:0:0:
199,28,71676,2,0,L|217:82,1,56.2500021457673
236,153,71846,6,0,B|208:157|185:147|185:147|152:152|152:152|123:124|67:128,1,168.750006437302
61,131,72185,1,0,0:0:0:0:
119,334,72354,1,0,0:0:0:0:
230,243,72524,5,0,0:0:0:0:
252,240,72608,1,0,0:0:0:0:
274,237,72693,1,0,0:0:0:0:
297,234,72778,1,0,0:0:0:0:
319,232,72863,2,0,L|385:244,1,56.2500021457673
481,136,73032,1,0,0:0:0:0:
481,136,73117,1,0,0:0:0:0:
481,136,73202,2,0,L|404:145,1,56.2500021457673
341,82,73371,2,0,L|344:25,1,56.2500021457673
257,67,73541,5,0,0:0:0:0:
212,75,73625,1,0,0:0:0:0:
168,84,73710,1,0,0:0:0:0:
123,80,73795,1,0,0:0:0:0:
78,73,73880,6,0,L|62:147,1,56.2500021457673
190,233,74049,2,0,L|186:172,1,56.2500021457673,2|0,2:0|0:0,0:0:0:0:
412,200,74219,2,0,L|426:258,1,56.2500021457673,2|0,2:0|0:0,0:0:0:0:
295,300,74388,2,0,L|299:242,1,56.2500021457673,2|0,2:0|0:0,0:0:0:0:
481,143,74558,6,0,P|412:187|333:167,1,168.750006437302
322,158,74897,1,0,0:0:0:0:
132,311,75066,1,0,0:0:0:0:
30,116,75236,2,0,L|143:109,1,112.500004291535
212,146,75490,1,0,0:0:0:0:
212,146,75575,2,0,L|218:75,1,56.2500021457673
356,31,75744,1,0,0:0:0:0:
400,40,75828,1,0,0:0:0:0:
444,49,75914,6,0,P|478:124|475:223,1,168.750006437302
370,207,76253,2,0,L|379:142,1,56.2500021457673
205,276,76422,2,0,L|226:348,1,56.2500021457673
295,273,76592,2,0,B|280:215|280:215|289:163,1,112.500004291535
289,163,76846,1,0,0:0:0:0:
289,163,76931,1,0,0:0:0:0:
227,25,77100,1,0,0:0:0:0:
21,165,77270,6,0,P|103:161|151:235,1,168.750006437302
151,246,77609,1,0,0:0:0:0:
377,212,77778,1,0,0:0:0:0:
218,345,77948,2,0,L|142:347,1,56.2500021457673
350,295,78117,1,0,0:0:0:0:
403,309,78201,1,0,0:0:0:0:
457,324,78287,2,0,L|475:243,1,56.2500021457673
372,123,78456,5,0,0:0:0:0:
372,123,78541,1,0,0:0:0:0:
372,123,78626,2,0,L|377:201,1,56.2500021457673
230,241,78795,5,0,0:0:0:0:
230,241,78880,1,0,0:0:0:0:
230,241,78965,2,0,L|237:154,1,56.2500021457673
288,27,79134,2,0,L|292:95,1,56.2500021457673
115,80,79304,2,0,L|37:69,1,56.2500021457673
32,228,79473,5,0,0:0:0:0:
32,228,79558,1,0,0:0:0:0:
32,228,79643,2,0,L|47:301,2,56.2500021457673
307,143,79982,6,0,B|311:172|327:190|327:190|308:216|308:216|325:263|288:299,1,168.750006437302
279,304,80320,1,0,0:0:0:0:
477,109,80490,1,0,0:0:0:0:
307,143,80659,6,0,L|231:138,1,75
150,58,80829,2,0,L|74:51,1,75
14,218,80998,6,0,P|68:229|124:226,1,112.500004291535
170,250,81253,1,0,0:0:0:0:
170,250,81337,2,0,L|181:317,1,56.2500021457673
389,283,81507,2,0,L|445:272,1,56.2500021457673
242,110,81676,2,0,L|183:98,1,56.2500021457673
416,26,81846,2,0,L|410:81,1,56.2500021457673
406,133,82015,5,0,0:0:0:0:
242,110,82185,1,0,0:0:0:0:
80,146,82354,1,0,0:0:0:0:
209,353,82524,1,0,0:0:0:0:
45,259,82693,2,0,B|81:240|108:249|108:249|136:231|136:231|181:251|213:235,1,168.750006437302
221,232,83032,1,0,0:0:0:0:
474,90,83202,1,0,0:0:0:0:
396,299,83371,6,0,L|334:304,1,56.2500021457673
253,124,83541,2,0,L|308:133,1,56.2500021457673
196,347,83710,2,0,L|182:276,1,56.2500021457673
90,163,83880,2,0,L|79:218,1,56.2500021457673
252,123,84049,2,0,L|264:57,1,56.2500021457673
126,18,84219,2,0,L|138:78,1,56.2500021457673
242,217,84388,6,0,L|156:227,1,56.2500021457673
45,308,84558,2,0,L|131:318,1,56.2500021457673
230,316,84727,1,0,0:0:0:0:
284,319,84811,1,0,0:0:0:0:
341,323,84896,1,0,0:0:0:0:
309,134,85066,1,0,0:0:0:0:
230,316,85236,1,0,0:0:0:0:
36,95,85405,6,0,P|88:77|144:74,1,112.500004291535
283,26,85744,1,0,0:0:0:0:
377,243,85914,1,0,0:0:0:0:
441,112,86083,1,0,0:0:0:0:
385,119,86167,1,0,0:0:0:0:
329,127,86252,1,0,0:0:0:0:
273,134,86337,1,0,0:0:0:0:
218,142,86421,1,0,0:0:0:0:
131,38,86592,1,0,0:0:0:0:
62,241,86761,6,0,B|52:295|52:295|60:351,1,112.500004291535
151,125,87100,1,0,0:0:0:0:
258,211,87270,1,0,0:0:0:0:
258,211,87354,1,0,0:0:0:0:
258,211,87439,2,0,L|265:279,1,56.2500021457673
151,125,87609,1,0,0:0:0:0:
199,97,87693,1,0,0:0:0:0:
249,72,87778,1,0,0:0:0:0:
369,190,87948,1,0,0:0:0:0:
215,340,88117,6,0,B|91:326|91:326|131:310,1,168.750006437302
258,210,88456,2,0,P|271:156|265:101,1,112.500004291535
87,31,88795,1,0,0:0:0:0:
32,214,88965,1,0,0:0:0:0:
301,336,89134,1,0,0:0:0:0:
258,210,89304,1,0,0:0:0:0:
385,58,89473,5,0,0:0:0:0:
391,67,89557,1,0,0:0:0:0:
396,77,89642,1,0,0:0:0:0:
401,87,89727,1,0,0:0:0:0:
405,98,89811,1,0,0:0:0:0:
408,108,89896,1,0,0:0:0:0:
410,119,89981,1,0,0:0:0:0:
412,130,90066,1,0,0:0:0:0:
413,142,90151,6,0,B|349:157|349:157|250:146,1,112.500004291535
180,24,90490,1,0,0:0:0:0:
92,310,90659,1,0,0:0:0:0:
13,173,90829,6,0,B|71:125|141:154|141:154|156:130|156:130|190:143|237:134,1,225.000008583069
275,293,91337,2,0,P|276:266|272:231,1,56.2500021457673
214,137,91507,1,0,0:0:0:0:
202,82,91591,1,0,0:0:0:0:
168,36,91676,2,0,L|90:46,1,56.2500021457673
319,99,91846,1,0,0:0:0:0:
374,104,91931,1,0,0:0:0:0:
428,93,92015,2,0,L|494:84,1,56.2500021457673
496,262,92185,6,0,L|309:241,1,168.750006437302
247,211,92524,2,0,B|273:172|273:172|275:293,1,168.750006437302
191,340,92863,1,0,0:0:0:0:
152,351,92947,1,0,0:0:0:0:
114,354,93032,1,0,0:0:0:0:
74,348,93117,1,0,0:0:0:0:
37,335,93202,1,0,0:0:0:0:
50,280,93286,1,0,0:0:0:0:
64,225,93371,1,0,0:0:0:0:
78,171,93456,1,0,0:0:0:0:
92,116,93541,6,0,B|99:78|160:71|177:111|177:111|148:144|148:186|174:215,1,213.749994292259
229,165,93880,2,0,P|294:156|350:184,1,112.500004291535
401,230,94134,1,0,0:0:0:0:
401,230,94219,2,0,B|416:169|416:169|400:118|400:118|409:62,1,168.750006437302
335,23,94558,2,0,L|321:95,1,56.2500021457673
267,162,94727,2,0,L|253:234,1,56.2500021457673
233,320,94897,5,0,0:0:0:0:
244,319,94981,1,0,0:0:0:0:
256,318,95066,1,0,0:0:0:0:
267,317,95151,1,0,0:0:0:0:
277,315,95236,2,0,L|331:300,1,56.2500021457673
168,215,95405,2,0,L|113:200,1,56.2500021457673
75,98,95575,5,0,0:0:0:0:
76,87,95659,1,0,0:0:0:0:
77,75,95744,2,0,L|81:11,1,56.2500021457673
183,72,95914,1,0,0:0:0:0:
185,85,95998,2,0,L|194:152,1,56.2500021457673
349,154,96253,6,0,B|303:136|262:178|262:178|232:228|170:213,1,168.750006437302
168,215,96592,1,0,0:0:0:0:
324,222,96761,2,0,P|345:251|363:286,1,56.2500021457673
456,200,96931,2,0,B|480:151|461:117|461:117|496:69|466:7,1,168.750006437302
403,63,97270,2,0,L|311:54,1,56.2500021457673
193,143,97439,2,0,L|249:138,1,56.2500021457673
358,207,97609,6,0,L|369:318,1,112.500004291535
102,265,97948,1,0,0:0:0:0:
249,138,98117,1,0,0:0:0:0:
345,363,98287,1,0,0:0:0:0:
305,361,98371,1,0,0:0:0:0:
266,359,98456,1,0,0:0:0:0:
226,358,98541,1,0,0:0:0:0:
187,356,98626,2,0,L|161:256,1,56.2500021457673
89,120,98795,2,0,L|74:174,1,56.2500021457673
329,134,98965,6,0,B|363:89|417:98|417:98|413:57|413:57|461:51|483:7,1,225.000008583069
405,235,99473,2,0,L|398:179,1,56.2500021457673
289,202,99643,1,0,0:0:0:0:
288,224,99727,1,0,0:0:0:0:
287,246,99812,1,0,0:0:0:0:
285,269,99897,1,0,0:0:0:0:
284,291,99982,2,0,L|350:309,1,56.2500021457673
460,224,100151,2,0,L|393:238,1,56.2500021457673
382,129,100320,5,0,0:0:0:0:
380,106,100404,1,0,0:0:0:0:
379,84,100490,2,0,L|364:27,1,56.2500021457673
261,115,100659,2,0,L|246:169,1,56.2500021457673
396,352,100829,2,0,L|381:297,1,56.2500021457673
284,291,100998,1,0,0:0:0:0:
244,282,101082,1,0,0:0:0:0:
206,272,101167,1,0,0:0:0:0:
168,263,101252,1,0,0:0:0:0:
130,254,101337,2,0,L|68:240,1,56.2500021457673
111,92,101507,1,0,0:0:0:0:
111,92,101676,6,0,P|190:73|262:116,1,168.750006437302
337,81,102015,2,0,P|320:58|299:39,1,56.2500021457673
178,167,102185,2,0,L|191:240,1,56.2500021457673
309,260,102354,2,0,B|323:321|323:321|316:370,1,112.500004291535
448,203,102693,2,0,B|433:132|433:132|444:36,1,168.750006437302
447,18,103032,5,0,0:0:0:0:
292,82,103202,1,0,0:0:0:0:
279,84,103287,1,0,0:0:0:0:
266,86,103371,1,0,0:0:0:0:
290,245,103541,1,0,0:0:0:0:
72,164,103710,1,0,0:0:0:0:
230,171,103880,1,0,0:0:0:0:
243,169,103965,1,0,0:0:0:0:
256,167,104049,1,0,0:0:0:0:
167,39,104219,1,0,0:0:0:0:
76,295,104388,6,0,P|128:280|189:303,1,112.500004291535
181,297,104643,1,0,0:0:0:0:
181,297,104727,1,0,0:0:0:0:
431,250,104897,1,0,0:0:0:0:
341,345,105066,1,0,0:0:0:0:
332,330,105150,1,0,0:0:0:0:
325,314,105235,1,0,0:0:0:0:
320,298,105320,1,0,0:0:0:0:
316,282,105405,2,0,P|317:217|328:160,1,112.500004291535
167,39,105744,6,0,P|181:93|182:149,1,112.500004291535
182,149,105998,1,0,0:0:0:0:
182,149,106083,1,0,0:0:0:0:
431,250,106253,1,0,0:0:0:0:
207,340,106422,1,0,0:0:0:0:
195,340,106506,1,0,0:0:0:0:
184,341,106591,1,0,0:0:0:0:
67,160,106761,1,0,0:0:0:0:
33,291,106931,1,0,0:0:0:0:
290,208,107100,6,0,P|306:126|267:53,1,168.750006437302
254,44,107439,1,0,0:0:0:0:
190,172,107609,1,0,0:0:0:0:
195,228,107693,1,0,0:0:0:0:
200,284,107778,2,0,L|207:347,1,56.2500021457673
63,215,107948,2,0,L|66:159,1,56.2500021457673
198,53,108117,1,0,0:0:0:0:
198,53,108202,1,0,0:0:0:0:
198,53,108287,2,0,L|258:43,1,56.2500021457673
433,148,108456,6,0,B|362:138|326:81|326:81|296:116|252:119|252:119|203:116|174:143,1,281.250010728836
237,225,108965,1,0,0:0:0:0:
229,270,109049,1,0,0:0:0:0:
222,315,109134,2,0,L|210:387,1,56.2500021457673
96,274,109304,2,0,L|91:197,1,56.2500021457673
64,98,109473,1,0,0:0:0:0:
119,92,109557,1,0,0:0:0:0:
175,86,109642,1,0,0:0:0:0:
231,80,109727,1,0,0:0:0:0:
286,73,109811,1,0,0:0:0:0:
236,118,120659,6,0,B|273:109|302:129|302:129|333:118|333:118|344:155|387:180,2,168.750006437302
93,263,122185,1,0,0:0:0:0:
230,123,122693,1,0,0:0:0:0:
437,152,123202,5,0,0:0:0:0:
239,194,123710,1,0,0:0:0:0:
425,155,124219,1,0,0:0:0:0:
68,54,124727,1,0,0:0:0:0:
340,37,125236,1,0,0:0:0:0:
79,54,125744,1,0,0:0:0:0:
189,208,126083,6,0,P|192:263|180:318,1,112.500004291535
272,343,126592,2,0,L|324:340,1,28.1250010728836
432,236,127100,2,0,L|392:229,1,28.1250010728836
265,83,127609,2,0,L|272:120,1,28.1250010728836
90,252,128117,2,0,L|96:210,1,28.1250010728836
67,90,128626,5,0,0:0:0:0:
57,78,128710,1,0,0:0:0:0:
399,46,129134,1,0,0:0:0:0:
415,42,129219,1,0,0:0:0:0:
156,334,129643,1,0,0:0:0:0:
154,353,129727,1,0,0:0:0:0:
421,304,130151,5,0,0:0:0:0:
416,289,130236,1,0,0:0:0:0:
116,189,130659,1,0,0:0:0:0:
103,186,130744,1,0,0:0:0:0:
359,47,131168,1,0,0:0:0:0:
359,47,131507,6,0,L|355:159,1,112.500004291535
278,242,132015,1,0,0:0:0:0:
403,337,132354,2,0,P|411:294|412:268,1,56.2500021457673
278,242,132693,6,0,B|223:230|223:230|167:238,1,112.500004291535
62,281,133202,1,0,0:0:0:0:
81,170,133371,1,0,0:0:0:0:
221,331,133541,2,0,L|285:345,1,56.2500021457673
438,228,133880,2,0,L|374:242,1,56.2500021457673
241,175,134219,6,0,B|226:135|226:135|230:74,1,84.3750032186509
308,66,134558,2,0,L|305:124,1,56.2500021457673
163,188,134897,1,0,0:0:0:0:
109,286,135066,2,0,B|165:297|165:297|219:284,1,112.500004291535
385,341,135575,6,0,B|329:330|329:330|275:343,1,112.500004291535
306,178,136083,2,0,L|308:65,1,112.500004291535
414,101,136592,2,0,L|483:113,1,56.2500021457673
428,241,136931,5,0,0:0:0:0:
206,280,137270,2,0,L|138:288,1,56.2500021457673
211,70,137778,1,0,0:0:0:0:
303,275,138117,1,0,0:0:0:0:
79,246,138456,5,0,0:0:0:0:
79,246,138795,1,0,0:0:0:0:
157,164,138965,2,0,L|272:160,1,112.500004291535
269,160,139473,1,0,0:0:0:0:
434,303,139643,6,0,L|303:294,1,112.500004291535
145,234,140151,2,0,B|138:276|138:276|150:345,1,112.500004291535
150,345,140829,1,0,0:0:0:0:
231,268,140998,2,0,B|238:226|238:226|226:157,1,112.500004291535
163,62,141507,2,0,L|50:71,1,112.500004291535
145,234,142015,1,0,0:0:0:0:
333,221,142185,1,0,0:0:0:0:
416,97,142354,6,0,P|422:60|422:22,1,75
282,79,142693,2,0,P|285:116|293:152,1,75
376,305,143032,1,0,0:0:0:0:
273,272,143202,1,0,0:0:0:0:
425,225,143371,1,0,0:0:0:0:
224,352,143541,1,0,0:0:0:0:
103,261,143710,6,0,P|93:226|89:188,1,75
146,49,144049,1,0,0:0:0:0:
215,219,144219,1,0,0:0:0:0:
307,134,144388,1,0,0:0:0:0:
154,51,144558,1,0,0:0:0:0:
447,70,144727,1,0,0:0:0:0:
310,237,144897,1,0,0:0:0:0:
444,301,145066,6,0,P|457:246|448:191,1,112.5
440,180,145405,1,0,0:0:0:0:
307,134,145575,2,0,P|246:141|177:178,1,112.5
85,104,145914,2,0,P|122:99|157:86,1,75
283,234,146253,1,0,0:0:0:0:
139,274,146422,6,0,P|126:309|119:346,1,75
242,345,146761,1,0,0:0:0:0:
26,255,146931,1,0,0:0:0:0:
168,77,147100,1,0,0:0:0:0:
271,165,147270,1,0,0:0:0:0:
402,114,147439,1,0,0:0:0:0:
178,80,147609,1,0,0:0:0:0:
220,262,147778,6,0,L|294:268,1,75
432,329,148117,1,0,0:0:0:0:
432,329,148287,1,0,0:0:0:0:
336,31,148456,2,0,L|323:104,1,75
419,220,148795,1,0,0:0:0:0:
419,220,148965,1,0,0:0:0:0:
226,336,149134,6,0,L|218:248,1,75
128,141,149473,1,0,0:0:0:0:
128,141,149643,1,0,0:0:0:0:
336,31,149812,2,0,L|261:37,1,75
236,185,150151,1,0,0:0:0:0:
236,185,150320,1,0,0:0:0:0:
436,321,150490,6,0,P|443:284|441:246,1,75
236,184,150829,2,0,P|236:222|246:258,1,75
388,127,151168,2,0,P|396:90|395:52,1,75
146,69,151507,2,0,P|202:77|237:95,1,75
419,218,151846,5,0,0:0:0:0:
133,267,152100,5,0,0:0:0:0:
501,281,152354,5,0,0:0:0:0:
65,180,152609,5,0,0:0:0:0:
297,328,152863,5,0,0:0:0:0:
276,191,153032,1,0,0:0:0:0:
431,38,153202,6,0,B|449:108|449:108|421:214,1,168.750006437302
419,218,153541,1,0,0:0:0:0:
161,148,153710,1,0,0:0:0:0:
97,292,153880,2,0,P|151:304|207:299,1,112.500004291535
327,59,154219,1,0,0:0:0:0:
275,190,154388,1,0,0:0:0:0:
168,92,154558,5,0,0:0:0:0:
168,92,154643,1,0,0:0:0:0:
168,92,154727,2,0,L|157:173,1,56.2500021457673
275,190,154897,2,0,L|271:133,1,56.2500021457673
120,28,155066,1,0,0:0:0:0:
120,28,155236,2,0,B|160:13|160:13|233:26,1,112.500004291535
434,202,155575,1,0,0:0:0:0:
407,49,155744,1,0,0:0:0:0:
275,190,155914,6,0,B|264:282|264:282|280:357,1,168.750006437302
284,372,156253,1,0,0:0:0:0:
400,278,156422,1,0,0:0:0:0:
155,319,156592,1,0,0:0:0:0:
197,138,156761,1,0,0:0:0:0:
284,372,156931,1,0,0:0:0:0:
374,190,157100,1,0,0:0:0:0:
391,188,157184,1,0,0:0:0:0:
407,185,157269,1,0,0:0:0:0:
56,222,157439,6,0,P|36:274|33:330,1,112.500004291535
284,372,157778,1,0,0:0:0:0:
263,189,157948,1,0,0:0:0:0:
400,268,158117,2,0,L|465:275,1,56.2500021457673
502,155,158287,2,0,L|446:161,1,56.2500021457673
229,110,158456,1,0,0:0:0:0:
229,110,158626,6,0,B|274:101|306:124|306:124|312:180|373:193,1,168.750006437302
377,195,158965,1,0,0:0:0:0:
149,227,159134,1,0,0:0:0:0:
149,227,159304,2,0,B|151:195|138:173|138:173|152:153|152:153|128:99|173:37,1,168.750006437302
254,33,159643,2,0,L|336:35,1,56.2500021457673
388,87,159812,2,0,L|456:89,1,56.2500021457673
380,200,159982,6,0,L|245:206,1,112.500004291535
309,323,160320,1,0,0:0:0:0:
310,112,160490,1,0,0:0:0:0:
62,175,160659,1,0,0:0:0:0:
165,349,160829,2,0,P|182:296|188:240,1,112.500004291535
310,112,161168,1,0,0:0:0:0:
309,112,161337,6,0,P|300:167|306:223,1,112.500004291535
479,248,161676,1,0,0:0:0:0:
306,223,161846,1,0,0:0:0:0:
443,160,162015,2,0,P|456:243|440:326,1,168.750006437302
433,340,162354,1,0,0:0:0:0:
238,295,162524,1,0,0:0:0:0:
235,279,162609,1,0,0:0:0:0:
232,263,162693,6,0,L|223:192,1,56.2500021457673
89,98,162863,2,0,B|79:157|79:157|85:210,1,112.500004291535
336,182,163202,2,0,L|403:171,1,56.2500021457673
441,162,163371,1,0,0:0:0:0:
154,137,163541,1,0,0:0:0:0:
365,94,163710,1,0,0:0:0:0:
215,71,163880,2,0,L|210:27,2,37.5000014305115
289,100,164049,6,0,B|301:158|301:158|295:210,1,112.500004291535
294,210,164304,1,0,0:0:0:0:
294,210,164388,1,0,0:0:0:0:
154,137,164558,1,0,0:0:0:0:
62,263,164727,1,0,0:0:0:0:
61,275,164812,1,0,0:0:0:0:
60,287,164897,2,0,L|55:351,1,56.2500021457673
210,336,165066,2,0,L|295:325,1,56.2500021457673
415,252,165236,2,0,L|330:241,1,56.2500021457673
230,160,165405,5,0,0:0:0:0:
229,143,165489,1,0,0:0:0:0:
228,126,165575,2,0,L|225:46,1,56.2500021457673
85,81,165744,1,0,0:0:0:0:
85,81,165829,1,0,0:0:0:0:
85,81,165914,2,0,L|19:87,1,56.2500021457673
102,196,166083,2,0,L|168:202,1,56.2500021457673
357,149,166253,1,2,2:0:0:0:
251,265,166422,1,2,2:0:0:0:
201,49,166592,1,2,2:0:0:0:
186,341,166761,6,0,B|260:355|260:355|346:321,1,168.750006437302
361,316,167100,1,0,0:0:0:0:
357,149,167270,1,0,0:0:0:0:
341,155,167354,1,0,0:0:0:0:
325,161,167439,1,0,0:0:0:0:
201,49,167609,1,0,0:0:0:0:
459,26,167778,2,0,P|479:78|486:133,1,112.500004291535
472,181,168032,1,0,0:0:0:0:
472,181,168117,6,0,L|468:243,1,56.2500021457673
361,316,168287,2,0,L|357:254,1,56.2500021457673
257,185,168456,1,0,0:0:0:0:
219,172,168540,1,0,0:0:0:0:
180,166,168625,1,0,0:0:0:0:
141,169,168710,1,0,0:0:0:0:
103,178,168794,1,0,0:0:0:0:
180,291,168965,1,0,0:0:0:0:
180,291,169049,1,0,0:0:0:0:
180,291,169134,2,0,P|239:306|299:297,1,112.500004291535
415,43,169473,6,0,P|351:94|332:175,1,168.750006437302
336,191,169812,1,0,0:0:0:0:
451,158,169982,1,0,0:0:0:0:
253,30,170151,1,0,0:0:0:0:
180,166,170320,1,0,0:0:0:0:
30,48,170490,1,0,0:0:0:0:
244,31,170659,1,0,0:0:0:0:
171,166,170829,5,0,0:0:0:0:
396,268,170998,1,0,0:0:0:0:
237,31,171168,1,0,0:0:0:0:
165,165,171337,1,0,0:0:0:0:
255,318,171507,1,0,0:0:0:0:
305,168,171676,1,0,0:0:0:0:
118,251,171846,1,0,0:0:0:0:
92,95,172015,1,0,0:0:0:0:
348,111,172185,6,0,B|393:112|429:98|429:98|426:134|426:134|479:166|456:241,1,225.000008583069
255,318,172693,1,0,0:0:0:0:
253,306,172778,1,0,0:0:0:0:
251,293,172863,1,0,0:0:0:0:
305,168,173032,1,0,0:0:0:0:
175,99,173202,1,0,0:0:0:0:
172,109,173286,1,0,0:0:0:0:
170,120,173371,1,0,0:0:0:0:
168,131,173456,1,0,0:0:0:0:
166,143,173541,6,0,L|96:150,1,56.2500021457673
24,37,173710,2,0,L|93:46,1,56.2500021457673
277,13,173880,2,0,L|268:68,1,56.2500021457673
305,168,174049,1,0,0:0:0:0:
357,185,174133,1,0,0:0:0:0:
411,172,174218,1,0,0:0:0:0:
448,131,174303,1,0,0:0:0:0:
457,76,174388,2,0,L|446:0,1,56.2500021457673
277,13,174558,1,0,0:0:0:0:
362,97,174727,1,0,0:0:0:0:
179,188,174897,6,0,L|45:198,1,112.500004291535
66,196,175236,1,0,0:0:0:0:
150,63,175405,1,0,0:0:0:0:
289,268,175575,1,0,0:0:0:0:
362,97,175744,1,0,0:0:0:0:
442,232,175914,1,0,0:0:0:0:
179,188,176083,2,0,L|199:113,1,56.2500021457673
289,69,176253,6,0,B|262:178,1,112.500004291535
262,178,176507,1,0,0:0:0:0:
262,178,176592,1,0,0:0:0:0:
478,25,176761,1,0,0:0:0:0:
451,134,176931,1,0,0:0:0:0:
289,69,177100,1,0,0:0:0:0:
38,87,177270,1,0,0:0:0:0:
36,76,177354,1,0,0:0:0:0:
35,65,177439,1,0,0:0:0:0:
34,54,177524,1,0,0:0:0:0:
32,43,177609,6,0,B|117:22|117:22|195:41,1,168.750006437302
262,178,177948,1,0,0:0:0:0:
251,180,178032,1,0,0:0:0:0:
240,183,178117,1,0,0:0:0:0:
229,186,178202,1,0,0:0:0:0:
218,188,178287,2,0,L|119:186,1,56.2500021457673
86,302,178456,2,0,L|142:300,1,56.2500021457673
238,271,178626,1,0,0:0:0:0:
293,279,178710,1,0,0:0:0:0:
349,287,178795,1,0,0:0:0:0:
404,295,178880,1,0,0:0:0:0:
460,303,178965,6,0,L|493:219,2,75.000002861023
364,182,179304,2,0,L|358:95,2,75.000002861023
263,87,179643,5,0,0:0:0:0:
274,60,179727,1,0,0:0:0:0:
291,39,179812,1,0,0:0:0:0:
314,22,179897,1,0,0:0:0:0:
341,14,179981,1,0,0:0:0:0:
370,14,180066,1,0,0:0:0:0:
396,22,180151,1,0,0:0:0:0:
420,37,180236,1,0,0:0:0:0:
439,57,180320,6,0,L|456:168,1,112.500004291535
457,168,180575,1,0,0:0:0:0:
457,168,180659,1,0,0:0:0:0:
378,282,180829,2,0,L|301:264,1,56.2500021457673
248,184,180998,2,0,L|192:195,2,56.2500021457673
367,108,181337,1,0,0:0:0:0:
311,97,181421,1,0,0:0:0:0:
256,87,181506,1,0,0:0:0:0:
200,77,181591,1,0,0:0:0:0:
145,67,181676,6,0,L|106:161,1,75.000002861023
66,285,181902,2,0,L|167:271,1,75.000002861023
295,244,182128,2,0,L|232:163,1,75.000002861023
145,67,182354,2,0,L|106:161,1,75.000002861023
256,87,182580,2,0,P|329:73|404:79,1,150.000005722046
427,353,183032,6,0,B|395:286|395:286|397:204,1,150.000005722046
396,210,183371,1,0,0:0:0:0:
203,180,183541,2,0,L|124:171,1,56.2500021457673
161,315,183710,2,0,L|341:292,1,168.750006437302
396,209,184049,2,0,L|404:141,1,56.2500021457673
283,59,184219,6,0,L|291:115,1,56.2500021457673
203,178,184388,2,0,B|147:195|147:195|93:187,1,112.500004291535
93,187,184643,1,0,0:0:0:0:
93,187,184727,1,0,0:0:0:0:
143,62,184897,1,0,0:0:0:0:
153,58,184981,1,0,0:0:0:0:
164,55,185066,1,0,0:0:0:0:
203,178,185236,1,0,0:0:0:0:
373,95,185405,2,0,L|432:87,1,56.2500021457673
482,221,185575,2,0,L|423:213,1,56.2500021457673
288,189,185744,6,0,B|272:272|272:272|288:354,1,168.750006437302
292,370,186083,1,0,0:0:0:0:
191,232,186253,2,0,L|202:177,1,56.2500021457673
159,86,186423,2,0,B|121:124|121:124|108:181,1,112.500004291535
98,231,186677,1,0,0:0:0:0:
98,231,186761,2,0,L|88:286,1,56.2500021457673
213,364,186931,2,0,L|203:308,1,56.2500021457673
293,132,187100,6,0,L|286:209,1,56.2500021457673
338,269,187270,1,0,0:0:0:0:
355,267,187354,1,0,0:0:0:0:
372,266,187439,1,0,0:0:0:0:
389,264,187524,1,0,0:0:0:0:
406,263,187609,2,0,L|481:251,1,56.2500021457673
493,151,187778,2,0,L|437:142,1,56.2500021457673
378,14,187948,2,0,L|365:68,1,56.2500021457673
265,134,188117,1,0,0:0:0:0:
260,106,188201,1,0,0:0:0:0:
255,78,188286,1,0,0:0:0:0:
250,50,188371,1,0,0:0:0:0:
245,23,188456,6,0,P|163:5|81:24,1,168.750006437302
83,129,188795,2,0,P|110:125|136:114,1,56.2500021457673
189,221,188965,2,0,L|182:276,1,56.2500021457673
81,342,189134,6,0,P|66:302|61:266,2,75.000002861023
285,259,189473,2,0,P|320:246|357:244,2,75.000002861023
286,151,189812,6,0,L|279:95,1,56.2500021457673
413,22,189982,2,0,L|412:92,1,56.2500021457673
381,176,190151,1,0,0:0:0:0:
384,192,190235,1,0,0:0:0:0:
387,209,190320,1,0,0:0:0:0:
391,225,190405,1,0,0:0:0:0:
394,242,190490,6,0,L|375:321,1,75.000002861023
213,281,190716,2,0,L|289:257,1,75.000002861023
286,151,190942,2,0,L|145:131,1,112.500004291535
130,160,191168,6,0,L|135:215,1,56.2500021457673
26,119,191337,2,0,L|29:62,1,56.2500021457673
139,45,191507,1,0,0:0:0:0:
195,43,191591,1,0,0:0:0:0:
251,41,191676,1,0,0:0:0:0:
307,39,191761,1,0,0:0:0:0:
363,37,191846,2,0,L|486:49,1,112.500004291535
404,278,192185,2,0,P|370:215|365:162,1,112.500004291535
141,259,192524,6,0,P|152:234|168:211,1,56.2500021457673
264,122,192693,2,0,P|270:149|273:177,1,56.2500021457673
262,317,192863,1,0,0:0:0:0:
209,338,192947,1,0,0:0:0:0:
157,359,193032,1,0,0:0:0:0:
102,356,193117,1,0,0:0:0:0:
46,350,193201,1,0,0:0:0:0:
68,193,193371,1,0,0:0:0:0:
285,220,193541,2,0,P|351:173|354:92,1,168.750006437302
325,62,193880,6,0,P|288:55|253:41,2,75.000002861023
454,184,194219,2,0,P|464:224|464:268,2,75.000002861023
131,128,194558,2,0,P|93:124|56:126,2,75.000002861023
213,281,194897,2,0,P|213:318|220:355,2,75.000002861023
363,162,195236,6,0,B|306:152|306:152|251:158,1,112.500004291535
252,159,195490,1,0,0:0:0:0:
252,159,195575,1,0,0:0:0:0:
339,28,195744,1,0,0:0:0:0:
468,277,195914,1,0,0:0:0:0:
290,280,196083,2,0,L|212:269,1,56.2500021457673,2|0,2:0|0:0,0:0:0:0:
74,182,196253,2,0,L|152:171,1,56.2500021457673,2|0,2:0|0:0,0:0:0:0:
283,76,196422,2,0,L|205:65,1,56.2500021457673,2|0,2:0|0:0,0:0:0:0:
92,42,196592,1,0,0:0:0:0:
