osu file format v14

[General]
AudioFilename: SUPER MERK 2 - LA DANZA.mp3
AudioLeadIn: 0
PreviewTime: -1
Countdown: 0
SampleSet: None
StackLeniency: 0.7
Mode: 3
LetterboxInBreaks: 0
SpecialStyle: 0
WidescreenStoryboard: 0

[Editor]
DistanceSpacing: 1
BeatDivisor: 4
GridSize: 4
TimelineZoom: 1

[Metadata]
Title:La danza
TitleUnicode:La danza
Artist:Supermerk2
ArtistUnicode:Supermerk2
Creator:FerchOx
Version:Chanchin
Source:
Tags:cumbia argentina 2004
BeatmapID:902384
BeatmapSetID:416605

[Difficulty]
HPDrainRate:5
CircleSize:4
OverallDifficulty:7
ApproachRate:5
SliderMultiplier:1.4
SliderTickRate:1

[Events]
//Background and Video events
0,0,"asdsakdoasjd.jpg",0,0
//Break Periods
2,11972,15896
//Storyboard Layer 0 (Background)
//Storyboard Layer 1 (Fail)
//Storyboard Layer 2 (Pass)
//Storyboard Layer 3 (Foreground)
//Storyboard Sound Samples

[TimingPoints]
24.0994140052163,367.152123363114,4,1,0,100,1,0

[HitObjects]
192,192,483,128,0,850:0:0:0:0:
192,192,1217,1,0,0:0:0:0:
320,192,1584,1,0,0:0:0:0:
448,192,1951,128,0,2410:0:0:0:0:
448,192,2685,1,0,0:0:0:0:
448,192,3053,1,0,0:0:0:0:
320,192,3420,128,0,3970:0:0:0:0:
320,192,4154,1,0,0:0:0:0:
320,192,4521,1,0,0:0:0:0:
320,192,4888,1,0,0:0:0:0:
320,192,5072,1,0,0:0:0:0:
192,192,5256,1,0,0:0:0:0:
64,192,5439,1,0,0:0:0:0:
320,192,5623,128,0,5806:0:0:0:0:
448,192,6265,1,0,0:0:0:0:
192,192,6265,1,0,0:0:0:0:
64,192,6265,1,0,0:0:0:0:
320,192,6265,1,0,0:0:0:0:
320,192,7091,1,0,0:0:0:0:
192,192,7458,1,0,0:0:0:0:
320,192,7826,128,0,8285:0:0:0:0:
64,192,8560,1,0,0:0:0:0:
64,192,8927,1,0,0:0:0:0:
448,192,9294,128,0,9753:0:0:0:0:
448,192,10028,1,0,0:0:0:0:
448,192,10304,1,0,0:0:0:0:
192,192,10763,1,0,0:0:0:0:
320,192,10946,1,0,0:0:0:0:
448,192,11130,1,0,0:0:0:0:
320,192,11314,1,0,0:0:0:0:
192,192,11497,1,0,0:0:0:0:
192,192,11772,1,0,0:0:0:0:
320,192,17096,5,0,0:0:0:0:
192,192,17280,1,0,0:0:0:0:
320,192,17463,1,0,0:0:0:0:
192,192,17647,1,0,0:0:0:0:
320,192,17830,1,0,0:0:0:0:
320,192,18014,1,0,0:0:0:0:
192,192,18565,1,0,0:0:0:0:
320,192,18748,1,0,0:0:0:0:
192,192,18932,1,0,0:0:0:0:
320,192,19116,1,0,0:0:0:0:
192,192,19299,1,0,0:0:0:0:
192,192,19483,1,0,0:0:0:0:
320,192,20033,1,0,0:0:0:0:
192,192,20217,1,0,0:0:0:0:
320,192,20401,1,0,0:0:0:0:
192,192,20584,1,0,0:0:0:0:
192,192,20768,1,0,0:0:0:0:
192,192,20951,1,0,0:0:0:0:
320,192,21135,1,0,0:0:0:0:
320,192,21318,1,0,0:0:0:0:
320,192,21502,1,0,0:0:0:0:
448,192,21686,1,0,0:0:0:0:
448,192,21869,1,0,0:0:0:0:
192,192,22053,1,0,0:0:0:0:
192,192,22236,1,0,0:0:0:0:
192,192,22420,1,0,0:0:0:0:
320,192,22787,1,0,0:0:0:0:
192,192,22971,1,0,0:0:0:0:
448,192,23154,1,0,0:0:0:0:
320,192,23338,1,0,0:0:0:0:
192,192,23521,1,0,0:0:0:0:
448,192,23705,1,0,0:0:0:0:
320,192,23980,1,0,0:0:0:0:
320,192,24256,1,0,0:0:0:0:
320,192,24531,1,0,0:0:0:0:
192,192,24715,1,0,0:0:0:0:
320,192,24898,1,0,0:0:0:0:
192,192,25082,1,0,0:0:0:0:
192,192,25357,1,0,0:0:0:0:
320,192,25632,1,0,0:0:0:0:
448,192,26091,1,0,0:0:0:0:
320,192,26275,1,0,0:0:0:0:
192,192,26459,1,0,0:0:0:0:
64,192,26642,1,0,0:0:0:0:
192,192,26826,1,0,0:0:0:0:
64,192,27009,1,0,0:0:0:0:
192,192,27193,1,0,0:0:0:0:
64,192,27376,1,0,0:0:0:0:
192,192,27560,1,0,0:0:0:0:
64,192,27744,1,0,0:0:0:0:
192,192,27927,1,0,0:0:0:0:
192,192,28111,1,0,0:0:0:0:
320,192,28294,1,0,0:0:0:0:
448,192,28478,1,0,0:0:0:0:
192,192,28661,1,0,0:0:0:0:
