osu file format v6

[General]
AudioFilename: Forest Maze.mp3
AudioLeadIn: 0
PreviewTime: -1
Countdown: 0
SampleSet: Normal
StackLeniency: 0.7
Mode: 0
LetterboxInBreaks: 1

[Editor]
DistanceSpacing: 0.800000011920929
BeatDivisor: 6
GridSize: 8

[Metadata]
Title:Forest Maze
Artist:Supermario RPG
Creator:dudgns88
Version:Insane
Source:
Tags:

[Difficulty]
HPDrainRate:5
CircleSize:5
OverallDifficulty:5
SliderMultiplier:2.6
SliderTickRate:1

[Events]
//Background and Video events
0,0,"2009-12-31 11;29;52.jpg"
//Break Periods
2,26908,30031
//Storyboard Layer 0 (Background)
//Storyboard Layer 1 (Fail)
//Storyboard Layer 2 (Pass)
//Storyboard Layer 3 (Foreground)
//Storyboard Sound Samples
//Background Colour Transformations
3,100,163,162,255

[TimingPoints]
6390.33757961783,382.165605095541,4,1,0,100,1,0
30414,-100,4,1,0,21,0,0
37941,-100,4,1,0,77,0,0

[HitObjects]
216,256,15434,1,0
152,176,15626,1,0
96,88,15817,1,0
192,56,16008,1,0
296,40,16199,1,0
432,200,16581,1,0
280,288,16899,1,0
88,216,17282,1,0
136,120,17473,1,0
240,112,17664,1,0
432,192,18046,5,0
224,208,18428,1,0
208,104,18619,1,0
256,8,18810,1,0
352,48,19001,2,0,B|352:184,1,130
368,360,19527,5,0
272,328,19718,1,0
200,256,19909,2,0,B|104:232|128:176|184:144|288:152|304:152,2,260
392,176,21438,5,0
320,104,21629,1,0
272,200,21820,1,0
224,120,21995,2,0,B|184:64|96:64|80:80,1,130
224,248,22568,1,0
304,184,22759,1,0
400,216,22950,1,0
208,296,23333,1,0
160,200,23524,2,0,B|112:112|200:72,1,130
336,72,24415,5,0
216,200,24798,1,0
112,200,24989,1,0
112,96,25180,1,0
112,304,25562,1,0
216,304,25753,1,0
320,304,25944,1,0
320,96,26326,1,0
216,96,26517,2,0,B|184:144|200:184|256:232|264:232,1,130
72,208,31231,6,0,B|72:144,47,43.3333333333333
256,208,34352,12,0,37664
256,192,37982,5,0
256,192,38173,1,0
256,192,38364,1,0
256,192,38555,1,0
224,256,38683,1,0
240,288,38747,1,0
272,296,38810,1,0
408,280,39065,1,0
416,176,39256,1,0
360,88,39447,5,0
320,184,39639,1,0
216,160,39830,1,0
120,208,40021,1,0
88,112,40212,1,0
288,176,40594,1,0
368,328,40912,1,0
168,288,41295,1,0
128,192,41486,1,0
160,96,41677,1,0
368,104,42059,5,0
448,296,42441,1,0
256,216,42823,1,0
152,216,43014,2,0,B|152:352,1,130
312,272,43587,5,0
216,312,43778,1,0
160,224,43969,2,0,B|64:200|88:144|144:112|248:120|248:120,1,216.666666666667
392,112,44670,1,0
392,176,45434,5,0
272,8,45816,1,0
200,64,45991,2,0,B|160:8|72:8|56:24,1,130
224,176,46564,1,0
304,240,46755,1,0
400,200,46946,1,0
208,272,47329,1,0
104,272,47520,2,0,B|56:184|144:144,1,130
480,16,48428,5,0
288,96,48811,1,0
384,144,49002,1,0
288,96,49193,1,0
120,224,49575,1,0
144,120,49766,1,0
224,184,49957,1,0
416,264,50339,1,0
312,264,50530,2,0,B|224:264|176:232|176:232,1,130
216,264,51422,5,0
320,248,51614,1,0
384,168,51805,1,0
392,64,51996,1,0
288,40,52187,1,0
120,160,52569,1,0
280,96,52887,1,0
248,304,53270,1,0
280,208,53461,1,0
352,136,53652,1,0
168,224,54033,5,0
104,24,54415,1,0
208,48,54606,1,0
304,80,54797,1,0
400,112,54989,1,0
464,192,55180,1,0
344,360,55562,5,0
240,344,55753,1,0
184,256,55944,2,0,B|208:216|192:160|168:112|280:128|296:256,2,260
40,224,57090,2,0,B|56:120|208:56,1,216.666666666667,0|0
