osu file format v14

[General]
AudioFilename: tz.mp3
AudioLeadIn: 0
PreviewTime: 27700
Countdown: 0
SampleSet: Soft
StackLeniency: 0.4
Mode: 0
LetterboxInBreaks: 0
WidescreenStoryboard: 1

[Editor]
Bookmarks: 6126,11520,16913,27699,38486,49273,54666,65452,76239,87036,108609,119395,130182
DistanceSpacing: 1
BeatDivisor: 4
GridSize: 32
TimelineZoom: 1.9

[Metadata]
Title:White Light
TitleUnicode:White Light
Artist:Superfly
ArtistUnicode:Superfly
Creator:Sieg
Version:Normal
Source:テイルズ オブ ゼスティリア
Tags:Tales of Zestiria 越智志帆 蔦谷好位置 Shiho Ochi Kōichi Tsutaya bandai namco opening toz rock japanese video game
BeatmapID:787419
BeatmapSetID:357970

[Difficulty]
HPDrainRate:3.5
CircleSize:3.5
OverallDifficulty:4
ApproachRate:5
SliderMultiplier:1.8
SliderTickRate:1

[Events]
//Background and Video events
Video,0,"vid.avi"
0,0,"bg.jpg",0,0
//Break Periods
//Storyboard Layer 0 (Background)
//Storyboard Layer 1 (Fail)
//Storyboard Layer 2 (Pass)
//Storyboard Layer 3 (Foreground)
//Storyboard Sound Samples

[TimingPoints]
6127,674.157303370787,4,1,1,60,1,0
8486,-100,4,1,1,40,0,0
8823,-100,4,1,1,60,0,0
27700,-111.111111111111,4,1,1,60,0,0
31744,-111.111111111111,4,1,1,50,0,0
33093,-111.111111111111,4,1,1,60,0,0
36464,-90.9090909090908,4,1,1,60,0,0
37138,-111.111111111111,4,1,1,60,0,0
54666,-100,4,1,1,60,0,1
65410,-100,4,1,1,60,0,0
65452,-100,4,1,1,60,0,1
76197,-100,4,1,1,60,0,0
76239,-100,4,1,1,60,0,1
76281,-100,4,1,1,60,0,0
87036,674.157303370787,4,1,1,60,1,1
87204,-100,4,1,1,60,0,0
105560,674.157303370787,4,1,1,60,1,0
106586,674.157303370787,4,1,1,60,1,0
108608,674.157303370787,4,1,1,60,1,0
119394,-111.111111111111,4,2,1,50,0,0
122091,-111.111111111111,4,2,1,45,0,0
124619,-111.111111111111,4,2,1,30,0,0
124787,-111.111111111111,4,2,1,40,0,0
127484,-111.111111111111,4,2,1,35,0,0

[Colours]
Combo1 : 180,95,186
Combo2 : 172,235,240
Combo3 : 0,128,128
Combo4 : 241,24,30

[HitObjects]
1,238,6126,6,0,L|90:224,1,90,4|0,2:0|2:0,0:0:0:0:
179,213,6801,2,0,P|222:251|334:190,1,180,8|2,0:0|0:2,0:0:0:0:
350,125,7812,1,0,0:0:0:0:
414,61,8149,1,8,0:0:0:0:
502,76,8486,1,4,2:1:0:0:
492,165,8823,6,0,B|505:257,1,90,4|0,0:0|2:0,0:0:0:0:
423,292,9497,2,0,P|378:346|275:327,1,180,8|0,0:0|0:0,0:0:0:0:
223,258,10509,1,0,0:0:0:0:
138,227,10846,2,0,L|143:325,1,90,8|0,0:0|2:0,0:0:0:0:
62,357,11520,6,0,L|57:268,1,90,4|0,0:0|2:0,0:0:0:0:
4,193,12194,2,0,P|-7:99|55:32,1,180,8|2,0:0|0:2,0:0:0:0:
133,24,13206,1,0,0:0:0:0:
211,67,13542,1,8,0:0:0:0:
195,155,13880,1,4,2:1:0:0:
133,222,14217,6,0,L|120:336,1,90,4|0,0:0|2:0,0:0:0:0:
197,361,14891,2,0,P|263:365|349:287,1,180,8|0,0:0|0:0,0:0:0:0:
363,207,15903,1,8,0:0:0:0:
449,231,16239,2,0,L|461:285,2,45,8|8|8,0:0|0:0|0:0,0:0:0:0:
465,143,16913,6,0,B|445:46,1,90,4|0,0:0|2:0,0:0:0:0:
357,42,17588,2,0,P|318:112|221:111,1,180,8|2,0:0|0:2,0:0:0:0:
152,62,18599,1,0,0:0:0:0:
62,55,18936,1,8,0:0:0:0:
0,120,19273,1,4,2:1:0:0:
36,202,19610,6,0,L|49:305,1,90,4|0,0:0|2:0,0:0:0:0:
114,351,20284,2,0,P|182:356|242:260,1,180,8|0,0:0|0:0,0:0:0:0:
209,188,21296,1,0,0:0:0:0:
194,99,21633,2,0,P|143:126|125:156,1,90,8|0,0:0|2:0,0:0:0:0:
121,240,22307,6,0,L|211:280,1,90,4|0,0:0|2:0,0:0:0:0:
262,343,22980,2,0,P|319:357|403:277,1,180,8|2,0:0|0:2,0:0:0:0:
417,192,23993,1,0,0:0:0:0:
373,113,24330,1,8,0:0:0:0:
396,26,24667,1,4,2:1:0:0:
306,17,25004,6,0,B|193:23,1,90,4|0,0:0|2:0,0:0:0:0:
198,110,25678,2,0,L|99:132,1,90,8|0,0:0|2:0,0:0:0:0:
22,147,26351,2,0,L|9:87,2,45,0|0|0,0:0|0:0|0:0,0:0:0:0:
71,222,27025,2,0,L|121:213,2,45,0|0|0,0:0|0:0|0:0,0:0:0:0:
36,295,27700,6,0,P|85:347|165:317,1,161.999995056153,6|10,0:0|0:0,0:0:0:0:
303,238,29048,1,2,0:0:0:0:
379,272,29385,1,2,0:0:0:0:
448,313,29722,2,0,P|419:342|364:349,1,80.9999975280763,10|0,0:0|2:0,0:0:0:0:
305,323,30396,6,0,P|271:343|227:342,1,80.9999975280763,2|0,0:0|2:0,0:0:0:0:
153,316,31070,1,10,0:0:0:0:
171,155,31744,2,0,L|253:139,1,80.9999975280763,6|2,0:0|0:0,0:0:0:0:
320,184,32419,2,0,L|418:180,1,80.9999975280763,14|0,0:0|2:0,0:0:0:0:
469,137,33093,6,0,P|452:74|365:48,1,161.999995056153,2|10,0:0|0:0,0:0:0:0:
209,88,34441,1,2,0:0:0:0:
146,36,34778,1,2,0:0:0:0:
70,64,35115,2,0,B|52:161,1,80.9999975280763,10|0,0:0|2:0,0:0:0:0:
41,223,35789,5,4,0:0:0:0:
179,365,36464,2,0,B|202:261,1,99.0000030212403,10|0,0:0|2:0,0:0:0:0:
216,188,37138,1,6,0:0:0:0:
320,71,37812,1,6,0:0:0:0:
469,133,38486,6,0,P|460:176|356:211,1,161.999995056153,6|10,0:0|0:0,0:0:0:0:
257,86,39834,1,2,0:0:0:0:
182,117,40171,1,2,0:0:0:0:
126,176,40508,2,0,P|109:216|122:271,1,80.9999975280763,10|0,0:0|2:0,0:0:0:0:
160,318,41183,6,0,L|245:300,1,80.9999975280763,2|0,0:0|2:0,0:0:0:0:
318,286,41856,1,10,0:0:0:0:
482,276,42530,2,0,L|490:368,1,80.9999975280763,6|0,0:0|2:0,0:0:0:0:
409,342,43205,2,0,L|401:250,1,80.9999975280763,14|0,0:0|2:0,0:0:0:0:
391,181,43879,5,2,0:0:0:0:
269,288,44553,2,0,P|180:289|122:226,1,161.999995056153,10|2,0:0|0:0,0:0:0:0:
66,190,45565,1,2,0:0:0:0:
13,129,45901,2,0,L|21:42,1,80.9999975280763,10|0,0:0|2:0,0:0:0:0:
99,28,46576,5,6,0:0:0:0:
168,69,46913,2,0,L|156:169,1,80.9999975280763,2|10,2:0|0:0,0:0:0:0:
249,283,47924,2,0,L|261:183,1,80.9999975280763,6|0,0:0|2:0,0:0:0:0:
293,129,48598,2,0,L|267:78,2,40.4999987640381,4|0|0,0:0|0:0|0:0,0:0:0:0:
353,183,49273,6,0,P|383:227|484:195,1,161.999995056153,6|10,0:0|0:0,0:0:0:0:
444,48,50621,2,0,L|270:24,1,161.999995056153,6|10,0:0|0:0,0:0:0:0:
257,185,51969,6,0,B|233:217|257:256|257:268|278:307|256:343,1,161.999995056153,6|10,0:0|0:0,0:0:0:0:
176,349,52980,2,0,P|102:337|92:252,1,161.999995056153,8|0,0:0|0:0,0:0:0:0:
76,180,53992,2,0,P|26:178|-3:161,1,80.9999975280763
55,92,54666,5,6,0:0:0:0:
132,47,55003,2,0,L|234:20,1,90,2|8,2:0|0:0,0:0:0:0:
231,113,55677,2,0,L|327:111,1,90,2|0,2:0|0:0,0:0:0:0:
374,38,56351,1,2,0:0:0:0:
462,55,56688,2,0,P|482:96|478:145,1,90,10|2,0:0|2:0,0:0:0:0:
425,211,57362,6,0,P|398:253|463:370,1,180,10|10,0:0|0:0,0:0:0:0:
264,346,58711,2,0,L|167:334,1,90,0|0,0:0|0:0,0:0:0:0:
86,350,59385,1,10,0:0:0:0:
24,284,59722,1,2,2:0:0:0:
38,195,60059,5,6,0:0:0:0:
97,127,60396,2,0,B|188:140,1,90,2|10,2:0|0:0,0:0:0:0:
235,214,61070,2,0,P|278:220|326:169,1,90,2|10,2:0|0:0,0:0:0:0:
346,110,61744,1,2,0:0:0:0:
398,36,62082,2,0,L|513:30,1,90,10|0,0:0|2:0,0:0:0:0:
469,119,62755,6,0,P|440:208|329:198,1,180,6|10,0:0|0:0,0:0:0:0:
274,206,63767,2,0,L|254:114,1,90,2|10,2:0|0:0,0:0:0:0:
220,34,64441,1,8,0:0:0:0:
131,50,64778,2,0,L|83:17,2,45,8|8|8,0:0|0:0|0:0,0:0:0:0:
143,139,65452,6,0,P|147:197|27:242,1,180,4|10,0:0|0:0,0:0:0:0:
6,329,66464,2,0,L|97:345,1,90,2|0,2:0|0:0,0:0:0:0:
184,352,67138,1,2,0:0:0:0:
268,321,67475,1,10,0:0:0:0:
284,232,67812,1,2,2:0:0:0:
215,174,68149,6,0,L|123:153,1,90,10|0,0:0|2:0,0:0:0:0:
64,88,68824,1,10,0:0:0:0:
228,28,69497,2,0,L|320:49,1,90,0|0,0:0|0:0,0:0:0:0:
404,65,70172,1,10,0:0:0:0:
450,142,70509,1,2,2:0:0:0:
435,231,70846,5,6,0:0:0:0:
399,313,71183,2,0,P|358:331|308:325,1,90,2|10,2:0|0:0,0:0:0:0:
257,257,71857,2,0,L|247:159,1,90,2|10,2:0|0:0,0:0:0:0:
224,80,72531,2,0,L|250:41,2,45,2|0|10,0:0|0:0|0:0,0:0:0:0:
142,117,73205,1,2,2:0:0:0:
57,85,73542,6,0,P|8:121|36:227,2,180,6|10|10,0:0|0:0|0:0,0:0:0:0:
142,117,75228,1,8,0:0:0:0:
156,205,75565,2,0,B|149:259,2,45,8|8|8,0:0|0:0|0:0,0:0:0:0:
241,233,76239,6,0,B|252:341,1,90,4|0,0:0|2:0,0:0:0:0:
339,336,76914,2,0,P|387:369|486:302,1,180,8|2,0:0|0:2,0:0:0:0:
497,228,77925,1,0,0:0:0:0:
480,139,78262,1,8,0:0:0:0:
424,67,78599,1,4,2:1:0:0:
342,104,78936,6,0,P|282:97|256:64,1,90,4|0,0:0|2:0,0:0:0:0:
181,39,79610,2,0,P|152:118|199:227,1,180,8|0,0:0|0:0,0:0:0:0:
237,275,80622,1,0,0:0:0:0:
175,341,80959,2,0,L|85:353,1,90,8|0,0:0|2:0,0:0:0:0:
59,266,81632,6,0,L|149:254,1,90,4|0,0:0|2:0,0:0:0:0:
237,275,82306,2,0,P|328:258|373:177,1,180,8|2,0:0|0:2,0:0:0:0:
372,103,83319,1,0,0:0:0:0:
302,46,83656,1,8,0:0:0:0:
212,54,83993,1,4,2:1:0:0:
153,121,84329,6,0,P|148:166|173:209,1,90,4|0,1:0|2:0,0:0:0:0:
218,277,85003,2,0,L|322:294,1,90,4|0,1:0|2:0,0:0:0:0:
256,192,85677,12,0,87036,0:0:0:0:
413,231,88047,6,0,L|399:140,1,90,2|0,2:0|0:0,0:0:0:0:
358,61,88721,1,2,0:0:0:0:
270,38,89058,1,10,0:0:0:0:
196,89,89395,1,2,2:0:0:0:
119,136,89732,6,0,P|69:129|35:8,1,180,10|10,0:0|0:0,0:0:0:0:
196,89,91081,2,0,P|211:136|197:186,1,90
159,252,91755,1,10,0:0:0:0:
164,341,92092,1,2,2:0:0:0:
246,377,92429,5,6,0:0:0:0:
333,354,92766,2,0,L|430:345,1,90,2|10,2:0|0:0,0:0:0:0:
498,297,93440,2,0,P|513:256|503:202,1,90,2|10,2:0|0:0,0:0:0:0:
445,144,94114,1,2,0:0:0:0:
367,189,94451,2,0,L|270:198,1,90,10|2,0:0|2:0,0:0:0:0:
205,251,95125,6,0,P|146:270|86:172,1,180,6|10,0:0|0:0,0:0:0:0:
90,98,96137,2,0,L|190:78,1,90,2|10,2:0|0:0,0:0:0:0:
267,66,96811,1,8,0:0:0:0:
317,140,97148,2,0,L|303:195,2,45,8|8|8,0:0|0:0|0:0,0:0:0:0:
394,186,97822,6,0,B|376:250|376:250|396:294|396:294|378:358,1,180,4|10,0:0|0:0,0:0:0:0:
468,348,98834,2,0,L|488:257,1,90,2|0,2:0|0:0,0:0:0:0:
494,170,99508,1,2,0:0:0:0:
478,81,99844,1,10,0:0:0:0:
411,21,100182,1,2,2:0:0:0:
353,90,100519,6,0,P|290:129|190:78,1,180,10|10,0:0|0:0,0:0:0:0:
25,140,101868,2,0,L|32:250,1,90,0|0,0:0|0:0,0:0:0:0:
115,200,102541,2,0,L|108:90,1,90,10|2,0:0|2:0,0:0:0:0:
165,40,103215,6,0,P|222:31|320:108,1,180,6|10,0:0|0:0,0:0:0:0:
357,179,104227,2,0,L|456:151,1,90,2|10,2:0|0:0,0:0:0:0:
512,216,104901,1,2,0:0:0:0:
473,297,105238,2,0,L|374:325,1,86,10|0,0:0|0:0,0:0:0:0:
305,350,105897,6,0,P|255:362|206:332,1,90,6|0,0:0|2:0,0:0:0:0:
135,307,106587,1,10,0:0:0:0:
50,276,106924,2,0,L|63:177,1,90,2|10,2:0|0:0,0:0:0:0:
31,102,107598,1,8,0:0:0:0:
89,33,107934,1,10,0:0:0:0:
174,191,108609,6,0,L|166:282,1,90,4|0,0:0|2:0,0:0:0:0:
245,322,109282,2,0,P|302:325|349:216,1,180,8|2,0:0|0:2,0:0:0:0:
344,139,110293,1,0,0:0:0:0:
382,57,110630,1,8,0:0:0:0:
467,29,110967,1,4,2:1:0:0:
486,116,111304,6,0,B|500:218,1,90,4|0,0:0|2:0,0:0:0:0:
483,293,111978,2,0,P|419:348|311:318,1,180,8|0,0:0|0:0,0:0:0:0:
261,275,112990,1,0,0:0:0:0:
179,312,113327,2,0,L|76:337,1,90,8|0,0:0|2:0,0:0:0:0:
35,262,114001,6,0,P|25:214|44:159,1,90,4|0,0:0|2:0,0:0:0:0:
107,121,114676,2,0,L|100:12,1,90,8|0,0:0|2:0,0:0:0:0:
185,61,115349,2,0,L|190:122,2,45,2|2|0,0:2|2:0|0:0,0:0:0:0:
270,88,116023,2,0,L|275:147,2,45,10|0|4,0:0|0:0|2:1,0:0:0:0:
346,40,116698,6,0,P|389:37|430:73,1,90,4|0,0:0|2:0,0:0:0:0:
473,140,117372,2,0,L|490:324,1,180,8|0,0:0|0:0,0:0:0:0:
420,377,118384,1,8,0:0:0:0:
351,319,118720,2,0,B|343:228,1,90,10|0,0:0|2:0,0:0:0:0:
310,147,119394,5,4,0:0:0:0:
180,50,120068,2,0,P|117:33|41:98,1,161.999995056153,2|2,0:0|0:2,0:0:0:0:
8,245,121416,1,0,0:0:0:0:
125,357,122091,5,2,2:0:0:0:
266,276,122765,2,0,P|339:264|405:323,1,161.999995056153,2|0,0:0|0:0,0:0:0:0:
451,163,124113,1,2,0:0:0:0:
378,19,124787,5,4,0:0:0:0:
290,155,125461,2,0,L|317:321,1,161.999995056153,2|2,0:0|0:2,0:0:0:0:
186,217,126810,1,0,0:0:0:0:
233,62,127484,5,2,0:0:0:0:
114,172,128158,2,0,P|115:268|176:303,1,161.999995056153,2|0,0:0|0:0,0:0:0:0:
244,305,129168,1,0,0:0:0:0:
307,254,129506,1,2,0:0:0:0:
