osu file format v14

[General]
AudioFilename: tz.mp3
AudioLeadIn: 0
PreviewTime: 27700
Countdown: 0
SampleSet: Normal
StackLeniency: 0.4
Mode: 0
LetterboxInBreaks: 0
WidescreenStoryboard: 1

[Editor]
Bookmarks: 6126,11520,16913,27699,38486,49273,54666,65452,76239,87036,108609,119395,130182
DistanceSpacing: 2
BeatDivisor: 8
GridSize: 32
TimelineZoom: 2.6

[Metadata]
Title:White Light
TitleUnicode:White Light
Artist:Superfly
ArtistUnicode:Superfly
Creator:Sieg
Version:Hard
Source:テイルズ オブ ゼスティリア
Tags:Tales of Zestiria 越智志帆 蔦谷好位置 Shiho Ochi Kōichi Tsutaya bandai namco opening toz rock japanese video game
BeatmapID:787242
BeatmapSetID:357970

[Difficulty]
HPDrainRate:6.9
CircleSize:4
OverallDifficulty:7
ApproachRate:8
SliderMultiplier:2.2
SliderTickRate:1

[Events]
//Background and Video events
Video,0,"vid.avi"
0,0,"bg.jpg",0,0
//Break Periods
//Storyboard Layer 0 (Background)
//Storyboard Layer 1 (Fail)
//Storyboard Layer 2 (Pass)
//Storyboard Layer 3 (Foreground)
//Storyboard Sound Samples

[TimingPoints]
6127,674.157303370787,4,1,1,60,1,0
8486,-100,4,1,1,40,0,0
8823,-100,4,1,1,60,0,0
27700,-111.111111111111,4,1,1,60,0,0
36464,-90.9090909090908,4,1,1,60,0,0
37138,-111.111111111111,4,1,1,60,0,0
37812,-111.111111111111,4,1,1,70,0,0
38486,-111.111111111111,4,1,1,80,0,0
38570,-111.111111111111,4,1,1,60,0,0
54666,-100,4,1,1,70,0,1
65410,-100,4,1,1,70,0,0
65452,-100,4,1,1,70,0,1
76197,-100,4,1,1,60,0,0
76239,-100,4,1,1,60,0,1
76281,-100,4,1,1,60,0,0
87036,674.157303370787,4,1,1,60,1,1
87204,-100,4,1,1,60,0,0
105560,674.157303370787,4,1,1,60,1,0
106586,674.157303370787,4,1,1,60,1,0
108608,674.157303370787,4,1,1,60,1,0
119394,-111.111111111111,4,2,1,50,0,0
122091,-111.111111111111,4,2,1,45,0,0
124619,-111.111111111111,4,2,1,30,0,0
124787,-111.111111111111,4,2,1,40,0,0
127484,-111.111111111111,4,2,1,35,0,0

[Colours]
Combo1 : 180,95,186
Combo2 : 172,235,240
Combo3 : 0,128,128
Combo4 : 241,24,30

[HitObjects]
77,300,6126,22,0,P|147:320|217:256,1,165,4|0,0:0|2:0,0:0:0:0:
281,147,6801,2,0,P|325:204|420:193,1,165,8|0,0:0|2:0,0:0:0:0:
386,75,7475,1,2,0:2:0:0:
386,75,7643,1,2,2:0:0:0:
257,51,7812,1,0,0:0:0:0:
373,284,8149,1,8,0:0:0:0:
185,83,8486,1,4,2:1:0:0:
122,336,8823,6,0,B|183:318|183:318|227:325|227:325|294:310,1,165,4|0,0:0|2:0,0:0:0:0:
153,245,9497,2,0,B|112:256|112:256|41:213|69:145,1,165,8|0,0:0|2:0,0:0:0:0:
193,166,10171,1,0,0:0:0:0:
8,38,10509,1,0,0:0:0:0:
280,158,10846,2,0,P|350:146|387:57,1,165,8|0,0:0|2:0,0:0:0:0:
261,41,11520,6,0,B|219:49|181:27|181:27|147:63|95:68,1,165,4|0,0:0|2:0,0:0:0:0:
19,166,12194,2,0,P|-9:231|45:310,1,165,8|0,0:0|2:0,0:0:0:0:
171,312,12869,1,2,0:2:0:0:
171,312,13037,1,2,2:0:0:0:
209,190,13206,1,0,0:0:0:0:
24,316,13543,1,8,0:0:0:0:
189,107,13880,1,4,2:1:0:0:
408,229,14216,6,0,P|446:169|407:81,1,165,4|0,0:0|2:0,0:0:0:0:
340,191,14891,2,0,P|302:251|341:339,1,165,8|0,0:0|2:0,0:0:0:0:
474,326,15565,1,0,0:0:0:0:
206,304,15903,1,8,0:0:0:0:
343,83,16239,5,8,0:0:0:0:
232,22,16407,1,8,0:0:0:0:
170,133,16576,1,8,0:0:0:0:
289,200,16744,1,8,0:0:0:0:
289,200,16913,6,0,P|354:231|434:180,1,165,4|0,0:0|2:0,0:0:0:0:
343,83,17588,2,0,B|285:60|285:60|241:68|241:68|183:51,1,165,8|0,0:0|2:0,0:0:0:0:
60,60,18262,1,2,0:2:0:0:
60,60,18430,1,2,2:0:0:0:
170,133,18599,1,0,0:0:0:0:
400,25,18936,1,8,0:0:0:0:
178,218,19273,1,4,2:1:0:0:
348,88,19610,6,0,B|366:149|366:149|359:193|359:193|374:260,1,165,4|0,0:0|2:0,0:0:0:0:
493,239,20284,2,0,B|504:280|504:280|461:351|393:323,1,165,8|0,0:0|2:0,0:0:0:0:
281,281,20958,1,0,0:0:0:0:
56,360,21296,1,0,0:0:0:0:
278,126,21633,2,0,P|216:163|214:258,1,165,8|0,0:0|2:0,0:0:0:0:
145,360,22306,6,0,P|179:296|131:213,1,165,4|0,0:0|2:0,0:0:0:0:
21,148,22980,2,0,P|-13:211|34:294,1,165,8|0,0:0|2:0,0:0:0:0:
145,360,23656,1,2,0:2:0:0:
145,360,23823,1,2,2:0:0:0:
252,275,23993,1,0,0:0:0:0:
60,71,24330,1,8,0:0:0:0:
225,354,24667,1,4,2:1:0:0:
186,32,25004,6,0,B|209:50|163:62|195:90|195:90|154:129|165:187,1,165,4|0,0:0|2:0,0:0:0:0:
304,118,25678,2,0,P|249:166|274:252,1,165,8|0,0:0|2:0,0:0:0:0:
376,326,26352,1,0,0:0:0:0:
476,253,26520,1,0,0:0:0:0:
458,133,26688,1,0,0:0:0:0:
277,344,27025,5,0,0:0:0:0:
159,370,27193,1,0,0:0:0:0:
53,313,27362,1,0,0:0:0:0:
2,214,27530,1,0,0:0:0:0:
2,214,27700,6,0,P|8:125|108:91,1,197.99999395752,6|10,0:0|0:0,0:0:0:0:
153,280,28711,1,2,2:0:0:0:
207,82,29048,1,2,0:0:0:0:
274,298,29385,2,0,P|245:298|223:311,1,49.4999984893799,2|0,0:0|2:0,0:0:0:0:
304,272,29722,2,0,P|341:308|445:293,1,148.49999546814,10|0,0:0|2:0,0:0:0:0:
385,215,30396,6,0,P|384:166|413:120,1,98.9999969787599,2|0,0:0|2:0,0:0:0:0:
466,365,31070,1,10,0:0:0:0:
464,192,31407,1,2,2:0:0:0:
464,192,31576,1,2,2:0:0:0:
397,99,31744,2,0,P|344:68|290:80,1,98.9999969787599,6|2,0:0|0:0,0:0:0:0:
110,56,32419,2,0,P|157:115|241:99,1,148.49999546814,14|0,0:0|2:0,0:0:0:0:
278,194,33093,6,0,P|287:254|257:300,1,98.9999969787599,2|0,0:0|2:0,0:0:0:0:
42,336,33767,1,10,0:0:0:0:
43,138,34104,1,2,2:0:0:0:
215,238,34441,1,2,0:0:0:0:
117,65,34778,2,0,L|123:11,1,49.4999984893799,2|0,0:0|2:0,0:0:0:0:
42,88,35115,2,0,B|24:135|24:135|35:253,1,148.49999546814,10|0,0:0|2:0,0:0:0:0:
122,286,35789,6,0,L|110:185,1,98.9999969787599,4|0,0:0|2:0,0:0:0:0:
309,31,36464,2,0,B|295:54|313:80|313:80|305:95|305:95|334:158|274:205,1,181.500005538941,10|0,0:0|2:0,0:0:0:0:
209,267,37138,2,0,P|183:220|189:164,1,98.9999969787599,6|0,0:0|2:0,0:0:0:0:
412,283,37812,2,0,P|392:335|349:361,1,98.9999969787599,6|0,0:0|2:0,0:0:0:0:
340,141,38486,6,0,L|450:123,1,98.9999969787599,6|0,0:0|2:0,0:0:0:0:
221,71,39160,1,10,0:0:0:0:
404,29,39497,1,2,2:0:0:0:
201,152,39834,1,2,0:0:0:0:
395,189,40171,2,0,L|461:173,1,49.4999984893799,2|0,0:0|2:0,0:0:0:0:
372,240,40508,2,0,B|320:253|320:253|282:281|282:281|231:290,1,148.49999546814,10|0,0:0|2:0,0:0:0:0:
155,348,41182,6,0,P|97:342|68:302,1,98.9999969787599,2|0,0:0|2:0,0:0:0:0:
242,207,41856,1,10,0:0:0:0:
16,266,42193,1,2,2:0:0:0:
16,266,42362,1,2,2:0:0:0:
36,169,42530,2,0,P|72:137|129:140,1,98.9999969787599,6|0,0:0|2:0,0:0:0:0:
262,284,43205,2,0,P|317:232|295:150,1,148.49999546814,14|0,0:0|2:0,0:0:0:0:
245,90,43879,5,2,0:0:0:0:
185,303,44216,1,2,2:0:0:0:
0,357,44553,1,10,0:0:0:0:
64,154,44890,1,2,2:0:0:0:
247,252,45227,1,2,0:0:0:0:
153,77,45564,2,0,L|164:140,1,49.4999984893799,2|0,0:0|2:0,0:0:0:0:
64,154,45901,2,0,B|57:319,1,148.49999546814,10|0,0:0|2:0,0:0:0:0:
138,360,46576,5,6,0:0:0:0:
253,161,46913,2,0,L|246:216,1,49.4999984893799,2|0,2:0|2:0,0:0:0:0:
292,292,47250,1,10,0:0:0:0:
220,76,47587,1,2,2:0:0:0:
215,290,47924,2,0,P|223:335|266:364,1,98.9999969787599,6|0,0:0|2:0,0:0:0:0:
439,267,48598,5,4,0:0:0:0:
439,267,48767,1,0,0:0:0:0:
482,178,48935,1,0,0:0:0:0:
482,178,49104,1,0,0:0:0:0:
481,78,49273,6,0,B|504:39|504:39|399:82|337:57,1,197.99999395752,6|10,0:0|0:0,0:0:0:0:
31,306,50621,2,0,B|8:345|8:345|113:302|175:327,1,197.99999395752,6|10,0:0|0:0,0:0:0:0:
256,80,51969,6,0,B|296:120|256:168|256:184|216:232|256:264,1,197.99999395752,6|10,0:0|0:0,0:0:0:0:
170,121,52980,1,8,0:0:0:0:
111,25,53149,1,8,0:0:0:0:
53,126,53318,1,8,0:0:0:0:
80,239,53486,6,0,B|32:264,2,49.4999984893799
213,197,53992,2,0,P|229:179|252:170,1,49.4999984893799
269,306,54329,2,0,B|256:329|265:365|265:364,1,49.4999984893799
405,291,54666,6,0,P|429:308|458:310,1,55,6|0,0:0|2:0,0:0:0:0:
466,174,55003,2,0,P|470:101|506:62,1,110,2|8,2:0|0:0,0:0:0:0:
249,197,55677,2,0,L|269:308,1,110,2|0,2:0|0:0,0:0:0:0:
408,68,56351,1,2,0:0:0:0:
132,109,56688,2,0,L|75:99,1,55,10|0,0:0|2:0,0:0:0:0:
209,56,57025,2,0,L|266:66,1,55,2|0,2:0|2:0,0:0:0:0:
187,177,57362,6,0,P|165:235|180:284,1,110,10|0,0:0|2:0,0:0:0:0:
408,68,58037,1,10,0:0:0:0:
359,336,58374,2,0,L|415:358,1,55,2|0,2:0|2:0,0:0:0:0:
305,263,58711,2,0,P|242:264|203:296,1,110
471,228,59385,1,10,0:0:0:0:
373,136,59553,1,0,2:0:0:0:
249,197,59722,2,0,L|259:125,1,55,2|0,2:0|2:0,0:0:0:0:
305,263,60059,5,6,0:0:0:0:
40,357,60396,2,0,B|55:245,1,110,2|10,2:0|0:0,0:0:0:0:
167,14,61070,2,0,P|186:64|172:131,1,110,2|10,2:0|0:0,0:0:0:0:
40,357,61744,1,2,0:0:0:0:
75,85,62081,2,0,L|58:141,1,55,10|0,0:0|2:0,0:0:0:0:
179,207,62418,2,0,L|184:268,1,55,2|0,2:0|2:0,0:0:0:0:
308,323,62755,6,0,P|384:327|431:252,1,165,6|0,0:0|2:0,0:0:0:0:
416,122,63430,1,10,0:0:0:0:
142,68,63767,2,0,L|200:42,1,55,2|0,2:0|2:0,0:0:0:0:
66,49,64104,1,10,0:0:0:0:
324,166,64441,1,8,0:0:0:0:
90,317,64778,5,8,0:0:0:0:
201,378,64946,1,8,0:0:0:0:
263,267,65115,1,8,0:0:0:0:
144,200,65283,1,8,0:0:0:0:
144,200,65452,6,0,P|79:169|-1:220,1,165,4|0,0:0|2:0,0:0:0:0:
90,317,66127,1,10,0:0:0:0:
266,119,66464,2,0,P|270:65|316:17,1,110,2|0,2:0|0:0,0:0:0:0:
263,267,67138,1,2,0:0:0:0:
457,85,67475,2,0,L|514:75,1,55,10|0,0:0|2:0,0:0:0:0:
380,32,67812,2,0,L|323:42,1,55,2|0,2:0|2:0,0:0:0:0:
402,153,68149,6,0,P|424:211|409:260,1,110,10|0,0:0|2:0,0:0:0:0:
231,60,68824,1,10,0:0:0:0:
207,328,69161,2,0,L|263:350,1,55,2|0,2:0|2:0,0:0:0:0:
116,361,69498,2,0,P|53:360|14:328,1,110
280,263,70172,1,10,0:0:0:0:
367,196,70340,1,0,2:0:0:0:
443,285,70509,2,0,L|436:340,1,55,2|0,2:0|2:0,0:0:0:0:
511,198,70846,5,6,0:0:0:0:
272,72,71183,2,0,P|222:50|161:60,1,110,2|10,2:0|0:0,0:0:0:0:
217,331,71857,2,0,P|267:353|330:342,1,110,2|10,2:0|0:0,0:0:0:0:
137,145,72531,1,2,0:0:0:0:
24,73,72700,1,0,0:0:0:0:
8,225,72868,1,10,0:0:0:0:
365,279,73205,2,0,L|360:218,1,55,2|0,2:0|2:0,0:0:0:0:
321,348,73542,6,0,P|397:352|444:277,1,165,6|0,0:0|2:0,0:0:0:0:
421,146,74217,1,10,0:0:0:0:
178,275,74554,2,0,L|170:336,1,55,2|0,2:0|2:0,0:0:0:0:
120,201,74891,1,10,0:0:0:0:
363,75,75228,1,8,0:0:0:0:
90,317,75565,5,8,0:0:0:0:
201,378,75733,1,8,0:0:0:0:
263,267,75902,1,8,0:0:0:0:
144,200,76070,1,8,0:0:0:0:
144,200,76239,6,0,B|128:178|139:153|139:153|123:136|123:136|140:93|116:29,1,165,4|0,0:0|2:0,0:0:0:0:
236,124,76914,2,0,P|280:181|375:170,1,165,8|0,0:0|2:0,0:0:0:0:
439,61,77588,1,2,0:2:0:0:
439,61,77756,1,2,2:0:0:0:
505,186,77925,1,0,0:0:0:0:
376,305,78262,1,8,0:0:0:0:
354,25,78599,1,4,2:1:0:0:
241,280,78936,6,0,P|312:255|316:174,1,165,4|0,0:0|2:0,0:0:0:0:
185,208,79610,2,0,B|145:223|145:223|113:299|175:338,1,165,8|0,0:0|2:0,0:0:0:0:
290,362,80284,1,0,0:0:0:0:
49,200,80622,1,0,0:0:0:0:
301,205,80959,2,0,P|372:216|434:143,1,165,8|0,0:0|2:0,0:0:0:0:
322,67,81633,6,0,B|265:75|265:75|156:40,1,165,4|0,0:0|2:0,0:0:0:0:
26,77,82306,2,0,P|102:119|110:204,1,165,8|0,0:0|2:0,0:0:0:0:
113,334,82980,1,2,0:2:0:0:
113,334,83150,1,2,2:0:0:0:
243,320,83319,1,0,0:0:0:0:
26,171,83656,1,8,0:0:0:0:
318,303,83993,1,4,2:1:0:0:
384,53,84329,6,0,B|332:23|332:23|221:63,1,165,4|0,1:0|2:0,0:0:0:0:
131,165,85003,2,0,B|183:195|183:195|294:155,1,165,4|0,1:0|2:0,0:0:0:0:
256,192,85677,12,0,87036,0:0:0:0:
127,96,87373,6,0,P|70:141|17:141,1,110,2|8,2:0|0:0,0:0:0:0:
315,143,88047,2,0,P|266:145|219:187,1,110,2|0,2:0|0:0,0:0:0:0:
419,55,88721,1,2,0:0:0:0:
376,301,89058,2,0,P|365:329|366:358,1,55,10|0,0:0|2:0,0:0:0:0:
386,223,89395,2,0,P|413:231|438:248,1,55,2|0,2:0|2:0,0:0:0:0:
311,252,89732,6,0,P|253:274|204:259,1,110,10|0,0:0|2:0,0:0:0:0:
164,25,90407,1,10,0:0:0:0:
136,278,90744,2,0,L|122:350,1,55,2|0,2:0|2:0,0:0:0:0:
164,206,91081,2,0,P|101:207|67:244,1,110
297,154,91755,1,10,0:0:0:0:
233,41,91923,1,0,2:0:0:0:
128,116,92092,2,0,L|67:127,1,55,2|0,2:0|2:0,0:0:0:0:
212,123,92429,5,6,0:0:0:0:
319,344,92766,2,0,P|362:352|437:308,1,110,2|10,2:0|0:0,0:0:0:0:
478,128,93440,2,0,P|497:78|483:11,1,110,2|10,2:0|0:0,0:0:0:0:
378,235,94114,1,2,0:0:0:0:
221,46,94451,2,0,L|164:43,1,55,10|0,0:0|2:0,0:0:0:0:
114,159,94788,2,0,L|52:170,1,55,2|0,2:0|2:0,0:0:0:0:
179,117,95125,6,0,P|255:121|302:46,1,165,6|0,0:0|2:0,0:0:0:0:
360,161,95800,1,10,0:0:0:0:
184,350,96137,2,0,L|237:335,1,55,2|0,2:0|2:0,0:0:0:0:
334,261,96474,1,10,0:0:0:0:
90,317,96811,1,8,0:0:0:0:
326,356,97148,5,8,0:0:0:0:
443,322,97316,1,8,0:0:0:0:
492,210,97485,1,8,0:0:0:0:
465,97,97653,1,8,0:0:0:0:
465,97,97822,6,0,B|410:81|410:81|367:49|367:49|313:33,1,165,4|0,0:0|2:0,0:0:0:0:
209,93,98497,1,10,0:0:0:0:
241,336,98834,2,0,P|268:289|330:266,1,110,2|0,2:0|0:0,0:0:0:0:
114,366,99508,1,2,0:0:0:0:
286,146,99845,2,0,L|343:136,1,55,10|0,0:0|2:0,0:0:0:0:
209,93,100182,2,0,L|152:103,1,55,2|0,2:0|2:0,0:0:0:0:
111,227,100519,6,0,P|162:192|213:196,1,110,10|0,0:0|2:0,0:0:0:0:
376,361,101194,1,10,0:0:0:0:
286,146,101531,2,0,L|353:136,1,55,2|0,2:0|2:0,0:0:0:0:
254,248,101868,2,0,P|191:247|152:215,1,110
296,58,102541,2,0,L|288:-1,1,55,10|0,0:0|2:0,0:0:0:0:
371,110,102879,2,0,L|381:38,1,55,2|0,2:0|2:0,0:0:0:0:
286,146,103216,5,6,0:0:0:0:
138,341,103553,2,0,P|142:286|177:235,1,110,2|10,2:0|0:0,0:0:0:0:
371,110,104227,2,0,P|393:160|386:222,1,110,2|10,2:0|0:0,0:0:0:0:
138,341,104901,1,2,0:0:0:0:
76,77,105238,2,0,B|66:20,2,36.6666666666667,10|0|0,0:0|0:0|0:0,0:0:0:0:
158,94,105560,2,0,B|148:37,2,36.6666666666667
120,178,105897,6,0,P|196:182|249:107,1,165,6|0,0:0|2:0,0:0:0:0:
289,247,106587,1,10,0:0:0:0:
346,18,106924,2,0,L|338:79,1,55,2|0,2:0|2:0,0:0:0:0:
371,197,107261,1,10,0:0:0:0:
158,94,107598,1,8,0:0:0:0:
203,342,107934,2,0,B|189:318|202:294|202:294|188:276|188:276|210:235|196:186,1,165,10|0,0:0|2:0,0:0:0:0:
234,57,108609,6,0,P|166:13|91:38,1,165,4|0,0:0|2:0,0:0:0:0:
9,139,109282,2,0,P|53:196|148:185,1,165,8|0,0:0|2:0,0:0:0:0:
236,113,109956,1,2,0:2:0:0:
236,113,110124,1,2,2:0:0:0:
201,236,110293,1,0,0:0:0:0:
314,19,110630,1,8,0:0:0:0:
259,290,110967,1,4,2:1:0:0:
346,85,111304,6,0,B|407:67|407:67|451:74|451:74|518:59,1,165,4|0,0:0|2:0,0:0:0:0:
493,197,111978,2,0,B|504:238|504:238|461:309|392:281,1,165,8|0,0:0|2:0,0:0:0:0:
308,197,112652,1,0,0:0:0:0:
96,43,112990,1,0,0:0:0:0:
258,266,113327,2,0,P|329:277|391:204,1,165,8|0,0:0|2:0,0:0:0:0:
477,122,114001,6,0,B|471:293,1,165,4|0,0:0|2:0,0:0:0:0:
392,209,114676,2,0,L|398:41,1,165,8|0,0:0|2:0,0:0:0:0:
278,66,115350,1,2,0:2:0:0:
278,66,115518,1,2,2:0:0:0:
161,21,115687,1,0,0:0:0:0:
112,257,116023,2,0,L|119:324,1,55,10|0,0:0|0:0,0:0:0:0:
47,203,116361,1,4,2:1:0:0:
261,341,116698,6,0,B|286:234|286:234|343:181,1,165,4|0,0:0|2:0,0:0:0:0:
203,243,117372,2,0,B|190:296|190:296|130:344|62:310,1,165,8|0,0:0|2:0,0:0:0:0:
8,232,118046,1,0,0:0:0:0:
194,49,118384,1,8,0:0:0:0:
316,23,118551,1,0,0:0:0:0:
273,138,118720,2,0,B|286:161|273:185|273:185|287:203|287:203|265:244|279:293,1,165,10|0,0:0|2:0,0:0:0:0:
381,365,119395,6,0,P|421:303|392:224,1,148.49999546814,4|0,0:0|2:0,0:0:0:0:
393,136,120068,2,0,P|464:131|505:52,1,148.49999546814,2|0,0:0|2:0,0:0:0:0:
426,12,120742,1,2,0:2:0:0:
332,42,120910,1,2,2:0:0:0:
300,136,121079,1,0,0:0:0:0:
356,325,121416,1,0,0:0:0:0:
219,137,121753,1,2,2:0:0:0:
276,321,122091,6,0,P|224:366|142:343,1,148.49999546814,2|0,0:0|2:0,0:0:0:0:
81,280,122765,2,0,B|38:281|38:281|-20:223|14:170,1,148.49999546814,2|0,0:0|2:0,0:0:0:0:
54,101,123438,1,0,0:0:0:0:
161,267,123776,1,0,0:0:0:0:
108,43,124113,2,0,P|179:32|235:98,1,148.49999546814,2|0,0:0|2:0,0:0:0:0:
182,184,124787,6,0,P|156:262|194:320,1,148.49999546814,4|0,0:0|2:0,0:0:0:0:
287,274,125461,2,0,L|295:113,1,148.49999546814,2|0,0:0|2:0,0:0:0:0:
225,54,126136,1,2,0:2:0:0:
225,54,126304,1,2,2:0:0:0:
225,54,126473,1,0,0:0:0:0:
384,171,126810,1,0,0:0:0:0:
182,184,127147,1,2,2:0:0:0:
381,255,127484,6,0,P|450:226|466:152,1,148.49999546814,2|0,0:0|2:0,0:0:0:0:
410,78,128158,2,0,B|258:59,1,148.49999546814,2|0,0:0|2:0,0:0:0:0:
183,118,128832,1,0,0:0:0:0:
290,284,129168,1,0,0:0:0:0:
91,296,129506,1,2,0:0:0:0:
