osu file format v14

[General]
AudioFilename: tz.mp3
AudioLeadIn: 0
PreviewTime: 27700
Countdown: 0
SampleSet: Normal
StackLeniency: 0.4
Mode: 0
LetterboxInBreaks: 0
WidescreenStoryboard: 1

[Editor]
Bookmarks: 6126,11520,16913,27699,38486,49273,54666,65452,76239,87036,108609,119395,130182
DistanceSpacing: 1.7
BeatDivisor: 4
GridSize: 32
TimelineZoom: 1.9

[Metadata]
Title:White Light
TitleUnicode:White Light
Artist:Superfly
ArtistUnicode:Superfly
Creator:Sieg
Version:Advanced
Source:テイルズ オブ ゼスティリア
Tags:Tales of Zestiria 越智志帆 蔦谷好位置 Shiho Ochi Kōichi Tsutaya bandai namco opening toz rock japanese video game
BeatmapID:787324
BeatmapSetID:357970

[Difficulty]
HPDrainRate:5
CircleSize:3.8
OverallDifficulty:5.5
ApproachRate:6.5
SliderMultiplier:2
SliderTickRate:1

[Events]
//Background and Video events
Video,0,"vid.avi"
0,0,"bg.jpg",0,0
//Break Periods
//Storyboard Layer 0 (Background)
//Storyboard Layer 1 (Fail)
//Storyboard Layer 2 (Pass)
//Storyboard Layer 3 (Foreground)
//Storyboard Sound Samples

[TimingPoints]
6127,674.157303370787,4,1,1,60,1,0
8486,-100,4,1,1,40,0,0
8823,-100,4,1,1,60,0,0
27700,-111.111111111111,4,1,1,60,0,0
36464,-90.9090909090908,4,1,1,60,0,0
37138,-111.111111111111,4,1,1,60,0,0
37812,-111.111111111111,4,1,1,70,0,0
38486,-111.111111111111,4,1,1,80,0,0
38655,-111.111111111111,4,1,1,60,0,0
54666,-100,4,1,1,60,0,1
65410,-100,4,1,1,60,0,0
65452,-100,4,1,1,60,0,1
76197,-100,4,1,1,60,0,0
76239,-100,4,1,1,60,0,1
76281,-100,4,1,1,60,0,0
87036,674.157303370787,4,1,1,60,1,1
87204,-100,4,1,1,60,0,0
105560,674.157303370787,4,1,1,60,1,0
106586,674.157303370787,4,1,1,60,1,0
108608,674.157303370787,4,1,1,60,1,0
119394,-111.111111111111,4,2,1,50,0,0
122091,-111.111111111111,4,2,1,45,0,0
124619,-111.111111111111,4,2,1,30,0,0
124787,-111.111111111111,4,2,1,40,0,0
127484,-111.111111111111,4,2,1,35,0,0

[Colours]
Combo1 : 180,95,186
Combo2 : 172,235,240
Combo3 : 0,128,128
Combo4 : 241,24,30

[HitObjects]
95,289,6126,6,0,P|158:307|220:249,1,150,4|0,2:0|2:0,0:0:0:0:
294,217,6801,2,0,P|342:259|424:233,1,150,8|0,0:0|2:0,0:0:0:0:
479,178,7475,1,2,0:2:0:0:
411,21,7812,1,0,0:0:0:0:
365,184,8149,1,8,0:0:0:0:
260,49,8486,1,4,2:1:0:0:
136,166,8823,6,0,B|191:150|191:150|230:156|230:156|291:143,1,150,4|0,0:0|2:0,0:0:0:0:
280,230,9497,2,0,B|242:237|242:237|201:300|251:344,1,150,8|0,0:0|2:0,0:0:0:0:
321,378,10171,1,0,0:0:0:0:
412,234,10509,1,0,0:0:0:0:
287,118,10846,2,0,P|223:108|168:174,1,150,8|0,0:0|2:0,0:0:0:0:
100,217,11520,6,0,B|76:68,1,150,4|0,0:0|2:0,0:0:0:0:
1,110,12194,2,0,B|25:259,1,150,8|0,0:0|2:0,0:0:0:0:
40,342,12869,1,2,0:2:0:0:
188,259,13206,1,0,0:0:0:0:
79,128,13542,1,8,0:0:0:0:
237,190,13880,1,4,2:1:0:0:
222,45,14217,6,0,P|290:25|362:70,1,150,4|0,0:0|2:0,0:0:0:0:
327,141,14891,2,0,P|299:210|329:291,1,150,8|0,0:0|2:0,0:0:0:0:
372,346,15565,1,0,0:0:0:0:
201,341,15903,1,8,0:0:0:0:
107,200,16239,2,0,L|85:156,2,50,8|8|8,0:0|0:0|0:0,0:0:0:0:
169,257,16744,1,8,0:0:0:0:
217,187,16913,6,0,B|240:99|240:99|228:23,1,150,4|0,0:0|2:0,0:0:0:0:
315,56,17588,2,0,B|328:110|328:110|357:138|357:138|376:189,1,150,8|0,0:0|2:0,0:0:0:0:
401,270,18262,1,2,0:2:0:0:
269,162,18599,1,0,0:0:0:0:
401,55,18936,1,8,0:0:0:0:
468,225,19273,1,4,2:1:0:0:
312,293,19610,6,0,P|247:337|180:306,1,150,4|0,0:0|2:0,0:0:0:0:
111,273,20284,2,0,B|101:236|101:236|140:172|201:197,1,150,8|0,0:0|2:0,0:0:0:0:
279,215,20958,1,0,0:0:0:0:
468,225,21296,1,0,0:0:0:0:
310,131,21633,2,0,P|235:138|193:209,1,150,8|0,0:0|2:0,0:0:0:0:
215,279,22307,6,0,L|380:314,1,150,4|0,0:0|2:0,0:0:0:0:
447,305,22980,2,0,P|462:241|433:163,1,150,8|0,0:0|2:0,0:0:0:0:
371,103,23656,1,2,0:2:0:0:
219,25,23993,1,0,0:0:0:0:
123,165,24330,1,8,0:0:0:0:
288,126,24667,1,4,2:1:0:0:
157,234,25004,6,0,B|145:253|178:261|157:290|157:290|186:321|170:382,1,150,4|0,0:0|2:0,0:0:0:0:
92,343,25678,2,0,P|42:300|48:212,1,150,8|0,0:0|2:0,0:0:0:0:
82,145,26352,1,0,0:0:0:0:
82,145,26520,1,0,0:0:0:0:
82,145,26688,1,0,0:0:0:0:
210,33,27025,2,0,L|147:25,2,50,0|0|0,0:0|0:0|0:0,0:0:0:0:
284,72,27530,1,0,0:0:0:0:
363,40,27700,6,0,P|443:46|473:135,1,179.999994506836,6|10,0:0|0:0,0:0:0:0:
396,272,28711,1,2,2:0:0:0:
395,115,29048,1,2,0:0:0:0:
317,260,29385,1,2,0:0:0:0:
465,309,29722,2,0,P|432:342|339:326,1,134.999995880127,10|0,0:0|2:0,0:0:0:0:
273,325,30396,6,0,P|235:347|186:346,1,89.9999972534181,2|0,0:0|2:0,0:0:0:0:
45,297,31070,1,10,0:0:0:0:
180,225,31407,1,2,2:0:0:0:
180,225,31576,1,0,2:0:0:0:
180,225,31744,2,0,L|277:243,1,89.9999972534181,6|2,0:0|0:0,0:0:0:0:
374,130,32419,2,0,L|516:118,1,134.999995880127,14|0,0:0|2:0,0:0:0:0:
509,41,33093,6,0,L|412:48,1,89.9999972534181,2|0,0:0|2:0,0:0:0:0:
266,56,33767,1,10,0:0:0:0:
196,192,34104,1,2,2:0:0:0:
187,45,34441,1,2,0:0:0:0:
272,168,34778,1,2,0:0:0:0:
134,101,35115,2,0,B|102:133|102:133|79:235,1,134.999995880127,10|0,0:0|2:0,0:0:0:0:
141,269,35789,6,0,L|122:375,1,89.9999972534181,4|0,0:0|2:0,0:0:0:0:
281,254,36464,2,0,B|269:234|285:210|285:210|278:197|278:197|304:140|250:98,1,165.000005035401,10|0,0:0|2:0,0:0:0:0:
210,164,37138,2,0,P|183:120|189:73,1,89.9999972534181,6|0,0:0|2:0,0:0:0:0:
328,28,37812,2,0,P|377:30|415:56,1,89.9999972534181,6|0,0:0|2:0,0:0:0:0:
481,187,38486,6,0,P|471:235|438:267,1,89.9999972534181,6|0,0:0|2:0,0:0:0:0:
297,308,39160,1,10,0:0:0:0:
403,197,39497,1,2,2:0:0:0:
284,100,39834,1,2,0:0:0:0:
340,242,40171,1,2,0:0:0:0:
207,317,40508,2,0,B|158:328|158:328|127:353|127:353|80:362,1,134.999995880127,10|0,0:0|2:0,0:0:0:0:
33,302,41182,6,0,P|28:252|52:205,1,89.9999972534181,2|0,0:0|2:0,0:0:0:0:
130,90,41856,1,10,0:0:0:0:
245,189,42193,1,2,2:0:0:0:
245,189,42362,1,0,2:0:0:0:
245,189,42530,2,0,L|254:291,1,89.9999972534181,6|0,0:0|2:0,0:0:0:0:
365,174,43205,2,0,P|372:112|323:45,1,134.999995880127,14|0,0:0|2:0,0:0:0:0:
269,13,43879,5,2,0:0:0:0:
144,101,44216,1,2,2:0:0:0:
295,126,44553,1,10,0:0:0:0:
152,181,44890,1,2,2:0:0:0:
302,207,45227,1,2,0:0:0:0:
159,264,45565,1,2,0:0:0:0:
310,285,45901,2,0,P|370:318|458:276,1,134.999995880127,10|0,0:0|2:0,0:0:0:0:
485,247,46576,5,6,0:0:0:0:
395,122,46913,2,0,L|381:234,1,89.9999972534181,2|10,2:0|0:0,0:0:0:0:
306,79,47587,1,2,2:0:0:0:
251,221,47924,2,0,L|263:319,1,89.9999972534181,6|0,0:0|2:0,0:0:0:0:
416,251,48598,2,0,L|443:318,2,44.999998626709,4|0|0,0:0|0:0|0:0,0:0:0:0:
432,176,49104,1,0,0:0:0:0:
387,113,49273,6,0,P|353:63|241:99,1,179.999994506836,6|10,0:0|0:0,0:0:0:0:
14,281,50621,2,0,P|37:328|150:330,1,179.999994506836,6|10,0:0|0:0,0:0:0:0:
256,42,51969,6,0,B|283:78|256:121|256:135|233:178|258:218,1,179.999994506836,6|10,0:0|0:0,0:0:0:0:
138,118,52980,2,0,B|161:57,2,44.999998626709,8|8|8,0:0|0:0|0:0,0:0:0:0:
64,138,53486,2,0,B|55:77,2,44.999998626709,0|0|0,0:0|0:0|0:0,0:0:0:0:
44,212,53992,2,0,L|56:308,1,89.9999972534181,0|0,0:0|0:0,0:0:0:0:
167,347,54666,6,0,L|159:284,1,50,6|0,0:0|2:0,0:0:0:0:
188,217,55003,2,0,P|253:221|280:253,1,100,2|8,2:0|0:0,0:0:0:0:
362,97,55677,2,0,L|380:197,1,100,2|0,2:0|0:0,0:0:0:0:
430,33,56351,1,2,0:0:0:0:
261,55,56688,2,0,L|279:155,1,100,10|2,0:0|2:0,0:0:0:0:
207,307,57362,6,0,P|177:260|181:214,1,100,10|0,0:0|2:0,0:0:0:0:
261,55,58037,1,10,0:0:0:0:
122,153,58374,1,2,2:0:0:0:
291,153,58711,2,0,L|399:166,1,100,0|0,0:0|0:0,0:0:0:0:
261,55,59385,1,10,0:0:0:0:
122,153,59722,2,0,L|67:146,1,50,2|0,2:0|2:0,0:0:0:0:
10,88,60059,5,6,0:0:0:0:
35,256,60396,2,0,B|21:357,1,100,2|10,2:0|0:0,0:0:0:0:
191,346,61070,2,0,P|239:353|285:335,1,100,2|10,2:0|0:0,0:0:0:0:
123,284,61744,1,2,0:0:0:0:
181,123,62082,1,10,0:0:0:0:
296,246,62418,2,0,L|291:191,1,50,2|0,2:0|2:0,0:0:0:0:
330,120,62755,6,0,P|391:89|457:135,1,150,6|0,0:0|2:0,0:0:0:0:
486,209,63430,1,10,0:0:0:0:
347,307,63767,2,0,P|324:326|247:304,1,100,2|10,2:0|0:0,0:0:0:0:
249,147,64441,1,8,0:0:0:0:
98,68,64778,2,0,L|89:4,2,50,8|8|8,0:0|0:0|0:0,0:0:0:0:
76,149,65283,1,8,0:0:0:0:
43,227,65452,6,0,P|15:286|61:358,1,150,4|0,0:0|2:0,0:0:0:0:
136,377,66127,1,10,0:0:0:0:
184,214,66464,2,0,L|202:112,1,100,2|0,2:0|0:0,0:0:0:0:
302,252,67138,1,2,0:0:0:0:
436,148,67475,1,10,0:0:0:0:
317,26,67812,2,0,L|310:85,1,50,2|0,2:0|2:0,0:0:0:0:
351,150,68149,6,0,P|371:203|357:247,1,100,10|0,0:0|2:0,0:0:0:0:
215,334,68824,1,10,0:0:0:0:
383,321,69160,1,2,2:0:0:0:
225,256,69498,2,0,P|190:210|192:165,1,100,0|0,0:0|0:0,0:0:0:0:
258,13,70172,1,10,0:0:0:0:
408,91,70509,2,0,L|416:153,1,50,2|0,2:0|2:0,0:0:0:0:
462,210,70846,5,6,0:0:0:0:
321,113,71183,2,0,P|276:93|220:99,1,100,2|10,2:0|0:0,0:0:0:0:
130,239,71857,2,0,P|175:259|231:253,1,100,2|10,2:0|0:0,0:0:0:0:
95,144,72531,2,0,L|36:138,2,50,2|0|10,0:0|0:0|0:0,0:0:0:0:
246,221,73205,2,0,L|234:285,1,50,2|0,2:0|2:0,0:0:0:0:
256,353,73542,6,0,P|324:356|367:289,1,150,6|0,0:0|2:0,0:0:0:0:
342,211,74217,1,10,0:0:0:0:
185,276,74554,2,0,L|172:386,1,100,2|10,2:0|0:0,0:0:0:0:
246,221,75228,1,8,0:0:0:0:
87,282,75565,2,0,B|80:342,2,50,8|8|8,0:0|0:0|0:0,0:0:0:0:
71,198,76070,1,8,0:0:0:0:
136,146,76239,6,0,B|145:122|129:103|129:103|139:85|139:85|116:45|135:2,1,150,4|0,0:0|2:0,0:0:0:0:
207,38,76914,2,0,P|246:90|331:80,1,150,8|0,0:0|2:0,0:0:0:0:
396,38,77588,1,2,0:2:0:0:
511,162,77925,1,0,0:0:0:0:
457,323,78262,1,8,0:0:0:0:
418,157,78599,1,4,2:1:0:0:
379,322,78936,6,0,P|315:299|312:226,1,150,4|0,0:0|2:0,0:0:0:0:
333,143,79610,2,0,B|320:107|320:107|251:78|216:134,1,150,8|0,0:0|2:0,0:0:0:0:
178,202,80284,1,0,0:0:0:0:
142,35,80622,1,0,0:0:0:0:
97,199,80959,2,0,P|117:260|201:280,1,150,8|0,0:0|2:0,0:0:0:0:
256,225,81633,6,0,P|291:155|366:144,1,150,4|0,0:0|2:0,0:0:0:0:
441,139,82306,2,0,L|446:305,1,150,8|0,0:0|2:0,0:0:0:0:
449,374,82980,1,2,0:2:0:0:
319,262,83319,1,0,0:0:0:0:
162,328,83656,1,8,0:0:0:0:
262,190,83993,1,4,2:1:0:0:
111,268,84329,6,0,P|56:270|11:189,1,150,4|0,1:0|2:0,0:0:0:0:
38,115,85003,2,0,L|190:73,1,150,4|0,1:0|2:0,0:0:0:0:
256,192,85677,12,0,87036,0:0:0:0:
189,79,87373,6,0,L|204:180,1,100,2|8,2:0|0:0,0:0:0:0:
314,306,88047,2,0,L|299:205,1,100,2|0,2:0|0:0,0:0:0:0:
354,46,88721,1,2,0:0:0:0:
471,168,89058,1,10,0:0:0:0:
309,114,89395,2,0,L|258:96,1,50,2|0,2:0|2:0,0:0:0:0:
179,117,89732,6,0,P|127:137|83:124,1,100,10|0,0:0|2:0,0:0:0:0:
223,25,90407,1,10,0:0:0:0:
244,193,90743,1,2,2:0:0:0:
141,329,91081,2,0,L|35:345,1,100,0|0,0:0|0:0,0:0:0:0:
194,267,91755,1,10,0:0:0:0:
320,153,92092,2,0,L|327:101,1,50,2|0,2:0|2:0,0:0:0:0:
309,20,92429,5,6,0:0:0:0:
146,70,92766,2,0,P|139:109|178:176,1,100,2|10,2:0|0:0,0:0:0:0:
310,248,93440,2,0,P|327:203|315:143,1,100,2|10,2:0|0:0,0:0:0:0:
214,19,94114,1,2,0:0:0:0:
373,76,94451,1,10,0:0:0:0:
443,230,94788,2,0,L|452:286,1,50,2|0,2:0|2:0,0:0:0:0:
403,350,95125,6,0,P|334:354|292:286,1,150,6|0,0:0|2:0,0:0:0:0:
303,207,95800,1,10,0:0:0:0:
396,64,96137,2,0,P|425:46|494:59,1,100,2|10,2:0|0:0,0:0:0:0:
335,130,96811,1,8,0:0:0:0:
180,201,97148,2,0,L|164:263,2,50,8|8|8,0:0|0:0|0:0,0:0:0:0:
165,117,97653,1,8,0:0:0:0:
93,163,97822,6,0,B|79:212|79:212|50:251|50:251|42:300,1,150,4|0,0:0|2:0,0:0:0:0:
75,379,98497,1,10,0:0:0:0:
189,253,98834,2,0,P|213:211|269:190,1,100,2|0,2:0|0:0,0:0:0:0:
427,206,99508,1,2,0:0:0:0:
271,272,99844,1,10,0:0:0:0:
381,142,100182,2,0,L|393:80,1,50,2|0,2:0|2:0,0:0:0:0:
330,32,100519,6,0,P|275:21|213:94,1,150,10|0,0:0|2:0,0:0:0:0:
211,168,101194,1,10,0:0:0:0:
370,225,101530,1,2,2:0:0:0:
202,247,101868,2,0,P|149:268|105:255,1,100,0|0,0:0|0:0,0:0:0:0:
256,173,102541,1,10,0:0:0:0:
126,61,102879,2,0,L|62:51,1,50,2|0,2:0|2:0,0:0:0:0:
4,99,103216,5,6,0:0:0:0:
156,176,103553,2,0,L|265:172,1,100,2|10,2:0|0:0,0:0:0:0:
193,330,104227,2,0,L|305:362,1,100,2|10,2:0|0:0,0:0:0:0:
433,268,104901,1,2,0:0:0:0:
497,110,105238,2,0,B|507:70,2,33.3333333333333,10|0|0,0:0|0:0|0:0,0:0:0:0:
428,84,105560,2,0,B|421:39,2,33.3333333333333,0|0|0,0:0|0:0|0:0,0:0:0:0:
439,158,105897,6,0,P|370:162|328:94,1,150,6|0,0:0|2:0,0:0:0:0:
337,21,106587,1,10,0:0:0:0:
262,173,106924,2,0,L|248:283,1,100,2|10,2:0|0:0,0:0:0:0:
186,114,107598,1,8,0:0:0:0:
83,249,107934,2,0,B|70:228|82:206|82:206|69:190|69:190|89:153|77:109,1,150,10|0,0:0|2:0,0:0:0:0:
139,50,108609,6,0,P|203:36|264:102,1,150,4|0,0:0|2:0,0:0:0:0:
276,172,109282,2,0,P|316:223|401:213,1,150,8|0,0:0|2:0,0:0:0:0:
461,164,109956,1,2,0:2:0:0:
394,320,110293,1,0,0:0:0:0:
352,154,110630,1,8,0:0:0:0:
195,220,110967,1,4,2:1:0:0:
313,342,111304,6,0,B|258:358|258:358|218:352|218:352|158:365,1,150,4|0,0:0|2:0,0:0:0:0:
97,314,111978,2,0,B|60:323|60:323|-4:285|21:223,1,150,8|0,0:0|2:0,0:0:0:0:
46,149,112652,1,0,0:0:0:0:
202,80,112990,1,0,0:0:0:0:
118,227,113327,2,0,P|182:237|238:171,1,150,8|0,0:0|2:0,0:0:0:0:
313,142,114001,6,0,B|308:295,1,150,4|0,0:0|2:0,0:0:0:0:
389,264,114676,2,0,L|394:113,1,150,8|0,0:0|2:0,0:0:0:0:
434,39,115349,2,0,L|494:21,2,50,2|2|0,0:2|2:0|0:0,0:0:0:0:
264,54,116023,2,0,L|211:45,2,50,10|0|4,0:0|0:0|2:1,0:0:0:0:
304,219,116698,6,0,B|290:322|290:322|230:362,1,150,4|0,0:0|2:0,0:0:0:0:
211,272,117372,2,0,B|229:117,1,150,8|0,0:0|2:0,0:0:0:0:
240,38,118046,1,0,0:0:0:0:
78,71,118384,1,8,0:0:0:0:
78,71,118551,1,0,0:0:0:0:
78,71,118720,2,0,B|67:92|78:113|78:113|66:129|66:129|85:166|73:223,1,150,10|0,0:0|2:0,0:0:0:0:
36,280,119395,6,0,P|105:286|150:225,1,134.999995880127,4|0,0:0|2:0,0:0:0:0:
223,245,120068,2,0,P|271:285|347:258,1,134.999995880127,2|0,0:0|2:0,0:0:0:0:
398,223,120742,1,2,0:2:0:0:
430,73,121079,1,0,0:0:0:0:
475,219,121416,1,0,0:0:0:0:
363,114,121753,1,2,2:0:0:0:
335,265,122091,6,0,P|289:306|215:285,1,134.999995880127,2|0,0:0|2:0,0:0:0:0:
185,224,122765,2,0,B|186:186|186:186|133:133|86:164,1,134.999995880127,2|0,0:0|2:0,0:0:0:0:
35,198,123438,1,0,0:0:0:0:
91,340,123776,1,0,0:0:0:0:
233,285,124113,2,0,P|297:275|348:334,1,134.999995880127,2|0,0:0|2:0,0:0:0:0:
418,341,124787,6,0,B|424:294|424:294|398:257|398:257|402:201,1,134.999995880127,4|0,0:0|2:0,0:0:0:0:
334,176,125461,2,0,P|357:95|411:69,1,134.999995880127,2|0,0:0|2:0,0:0:0:0:
474,64,126136,1,2,0:2:0:0:
451,215,126473,1,0,0:0:0:0:
303,256,126810,1,0,0:0:0:0:
237,117,127147,1,2,2:0:0:0:
212,267,127484,6,0,P|145:255|117:194,1,134.999995880127,2|0,0:0|2:0,0:0:0:0:
47,166,128158,2,0,B|30:303,1,134.999995880127,2|0,0:0|2:0,0:0:0:0:
20,376,128832,1,0,0:0:0:0:
169,346,129168,1,0,0:0:0:0:
251,216,129506,1,2,0:0:0:0:
