osu file format v14

[General]
AudioFilename: Superfly 99.mp3
AudioLeadIn: 0
PreviewTime: 54442
Countdown: 0
SampleSet: None
StackLeniency: 0.7
Mode: 3
LetterboxInBreaks: 0
SpecialStyle: 0
WidescreenStoryboard: 1

[Editor]
DistanceSpacing: 1
BeatDivisor: 6
GridSize: 4
TimelineZoom: 1.7

[Metadata]
Title:99
TitleUnicode:99
Artist:Superfly
ArtistUnicode:Superfly
Creator:REUSE-ABLE
Version:HD
Source:Doctor X ~ Gekai Daimon Michiko
Tags:4th Season theme song warner music japan j-pop
BeatmapID:1203402
BeatmapSetID:567757

[Difficulty]
HPDrainRate:8
CircleSize:4
OverallDifficulty:7
ApproachRate:5
SliderMultiplier:1.4
SliderTickRate:1

[Events]
//Background and Video events
0,0,"066ab37502bab14e906364f9f01f6f18.jpg",0,0
//Break Periods
//Storyboard Layer 0 (Background)
//Storyboard Layer 1 (Fail)
//Storyboard Layer 2 (Pass)
//Storyboard Layer 3 (Foreground)
//Storyboard Sound Samples

[TimingPoints]
142,379.746835443038,4,3,1,35,1,0
6215,379.746835443038,4,3,1,25,1,0

[HitObjects]
192,192,15,5,0,0:0:0:0:
320,192,78,1,0,0:0:0:0:
64,192,142,5,0,0:0:0:0:
448,192,142,1,2,0:0:0:0:
192,192,142,1,0,0:0:0:0:
320,192,521,1,8,0:0:0:0:
448,192,521,1,8,0:0:0:0:
64,192,711,1,0,0:0:0:0:
192,192,901,1,8,0:0:0:0:
320,192,901,1,8,0:0:0:0:
448,192,1091,1,0,0:0:0:0:
64,192,1091,1,0,0:0:0:0:
192,192,1281,1,8,0:0:0:0:
320,192,1281,1,8,0:0:0:0:
64,192,1471,1,0,0:0:0:0:
448,192,1660,1,8,0:0:0:0:
192,192,1660,1,8,0:0:0:0:
64,192,1850,1,8,0:0:0:0:
320,192,1850,1,8,0:0:0:0:
192,192,2040,1,8,0:0:0:0:
448,192,2040,1,8,0:0:0:0:
320,192,2230,1,12,0:0:0:0:
192,192,2293,1,12,0:0:0:0:
320,192,2357,1,12,0:0:0:0:
64,192,2420,1,8,0:0:0:0:
192,192,2420,1,8,0:0:0:0:
320,192,2610,1,8,0:0:0:0:
448,192,2610,1,8,0:0:0:0:
192,192,2895,1,0,0:0:0:0:
320,192,2990,1,0,0:0:0:0:
64,192,3179,1,8,0:0:0:0:
192,192,3179,1,8,0:0:0:0:
448,192,3179,1,0,0:0:0:0:
64,192,3369,1,0,0:0:0:0:
448,192,3369,1,0,0:0:0:0:
448,192,3559,1,2,0:0:0:0:
64,192,3559,1,2,0:0:0:0:
192,192,3844,1,0,0:0:0:0:
64,192,3844,1,0,0:0:0:0:
320,192,3939,1,0,0:0:0:0:
448,192,3939,1,0,0:0:0:0:
192,192,4129,1,0,0:0:0:0:
320,192,4129,1,0,0:0:0:0:
448,192,4509,1,0,0:0:0:0:
64,192,4509,1,0,0:0:0:0:
192,192,4888,1,0,0:0:0:0:
320,192,4888,1,0,0:0:0:0:
64,192,5078,1,0,0:0:0:0:
192,192,5078,1,0,0:0:0:0:
448,192,5078,1,0,0:0:0:0:
64,192,5363,1,4,0:0:0:0:
448,192,5458,1,4,0:0:0:0:
64,192,5553,1,4,0:0:0:0:
448,192,5648,1,4,0:0:0:0:
64,192,5743,1,0,0:0:0:0:
192,192,5838,1,0,0:0:0:0:
320,192,5933,1,0,0:0:0:0:
192,192,6028,1,0,0:0:0:0:
320,192,6123,1,0,0:0:0:0:
448,192,6215,1,2,0:0:0:0:
192,192,6215,1,2,0:0:0:0:
64,192,6215,1,2,0:0:0:0:
320,192,6404,1,0,0:0:0:0:
320,192,6594,1,0,0:0:0:0:
448,192,6594,1,0,0:0:0:0:
64,192,6594,1,0,0:0:0:0:
448,192,6784,1,0,0:0:0:0:
192,192,6974,1,0,0:0:0:0:
320,192,6974,1,0,0:0:0:0:
192,192,7164,1,0,0:0:0:0:
320,192,7164,1,0,0:0:0:0:
64,192,7354,1,0,0:0:0:0:
320,192,7354,1,8,0:0:0:0:
448,192,7354,1,8,0:0:0:0:
192,192,7544,1,4,0:0:0:0:
320,192,7639,1,4,0:0:0:0:
64,192,7733,1,0,0:0:0:0:
448,192,7733,1,0,0:0:0:0:
320,192,7923,1,0,0:0:0:0:
64,192,8113,1,0,0:0:0:0:
448,192,8113,1,0,0:0:0:0:
192,192,8113,1,0,0:0:0:0:
320,192,8303,1,0,0:0:0:0:
64,192,8493,1,0,0:0:0:0:
192,192,8493,1,0,0:0:0:0:
64,192,8683,1,0,0:0:0:0:
192,192,8683,1,0,0:0:0:0:
192,192,8873,1,8,0:0:0:0:
320,192,8873,1,8,0:0:0:0:
448,192,8873,1,0,0:0:0:0:
64,192,9063,1,4,0:0:0:0:
320,192,9158,1,4,0:0:0:0:
192,192,9252,1,0,0:0:0:0:
448,192,9252,1,0,0:0:0:0:
320,192,9442,1,0,0:0:0:0:
64,192,9632,1,0,0:0:0:0:
192,192,9632,1,8,0:0:0:0:
448,192,9632,1,8,0:0:0:0:
320,192,9822,1,0,0:0:0:0:
64,192,10012,1,0,0:0:0:0:
448,192,10012,1,0,0:0:0:0:
64,192,10202,1,0,0:0:0:0:
320,192,10202,1,0,0:0:0:0:
64,192,10392,1,0,0:0:0:0:
192,192,10392,1,8,0:0:0:0:
320,192,10392,1,8,0:0:0:0:
448,192,10582,1,4,0:0:0:0:
64,192,10677,1,4,0:0:0:0:
192,192,10771,1,0,0:0:0:0:
320,192,10771,1,0,0:0:0:0:
448,192,10961,1,0,0:0:0:0:
64,192,11151,1,0,0:0:0:0:
192,192,11151,1,0,0:0:0:0:
448,192,11151,1,0,0:0:0:0:
192,192,11341,1,0,0:0:0:0:
320,192,11531,1,0,0:0:0:0:
448,192,11531,1,0,0:0:0:0:
192,192,11721,1,0,0:0:0:0:
64,192,11721,1,0,0:0:0:0:
320,192,11911,1,0,0:0:0:0:
448,192,11911,1,0,0:0:0:0:
192,192,11911,1,0,0:0:0:0:
320,192,12101,1,4,0:0:0:0:
192,192,12196,1,4,0:0:0:0:
448,192,12290,1,2,0:0:0:0:
320,192,12290,1,2,0:0:0:0:
64,192,12290,1,2,0:0:0:0:
192,192,12480,1,0,0:0:0:0:
192,192,12670,1,0,0:0:0:0:
64,192,12670,1,0,0:0:0:0:
448,192,12670,1,0,0:0:0:0:
64,192,12860,1,0,0:0:0:0:
192,192,13050,1,0,0:0:0:0:
320,192,13050,1,0,0:0:0:0:
320,192,13240,1,0,0:0:0:0:
192,192,13240,1,0,0:0:0:0:
448,192,13430,1,0,0:0:0:0:
64,192,13430,1,8,0:0:0:0:
192,192,13430,1,8,0:0:0:0:
320,192,13620,1,4,0:0:0:0:
192,192,13715,1,4,0:0:0:0:
448,192,13809,1,0,0:0:0:0:
64,192,13809,1,0,0:0:0:0:
192,192,13999,1,0,0:0:0:0:
64,192,14189,1,0,0:0:0:0:
320,192,14189,1,0,0:0:0:0:
448,192,14189,1,0,0:0:0:0:
192,192,14379,1,0,0:0:0:0:
320,192,14569,1,0,0:0:0:0:
448,192,14569,1,0,0:0:0:0:
320,192,14759,1,0,0:0:0:0:
448,192,14759,1,0,0:0:0:0:
320,192,14949,1,8,0:0:0:0:
64,192,14949,1,0,0:0:0:0:
192,192,14949,1,8,0:0:0:0:
448,192,15139,1,4,0:0:0:0:
192,192,15233,1,4,0:0:0:0:
64,192,15328,1,0,0:0:0:0:
320,192,15328,1,0,0:0:0:0:
192,192,15518,1,0,0:0:0:0:
320,192,15708,1,8,0:0:0:0:
64,192,15708,1,8,0:0:0:0:
448,192,15708,1,0,0:0:0:0:
192,192,15898,1,0,0:0:0:0:
64,192,16088,1,0,0:0:0:0:
448,192,16088,1,0,0:0:0:0:
192,192,16278,1,0,0:0:0:0:
448,192,16278,1,0,0:0:0:0:
192,192,16468,1,8,0:0:0:0:
448,192,16468,1,0,0:0:0:0:
320,192,16468,1,8,0:0:0:0:
64,192,16658,1,4,0:0:0:0:
448,192,16752,1,4,0:0:0:0:
320,192,16847,1,0,0:0:0:0:
192,192,16847,1,0,0:0:0:0:
64,192,17037,1,0,0:0:0:0:
448,192,17227,1,0,0:0:0:0:
64,192,17227,1,0,0:0:0:0:
320,192,17227,1,0,0:0:0:0:
320,192,17417,1,0,0:0:0:0:
64,192,17607,1,0,0:0:0:0:
192,192,17607,1,0,0:0:0:0:
320,192,17797,1,2,0:0:0:0:
448,192,17797,1,2,0:0:0:0:
192,192,17797,1,0,0:0:0:0:
448,192,17987,1,0,0:0:0:0:
64,192,17987,1,0,0:0:0:0:
192,192,18177,1,0,0:0:0:0:
320,192,18177,1,0,0:0:0:0:
320,192,18366,1,2,0:0:0:0:
448,192,18366,1,2,0:0:0:0:
64,192,18366,1,2,0:0:0:0:
64,192,18556,1,0,0:0:0:0:
64,192,18746,1,0,0:0:0:0:
320,192,18746,1,0,0:0:0:0:
448,192,18746,1,0,0:0:0:0:
64,192,18936,1,0,0:0:0:0:
64,192,19126,1,0,0:0:0:0:
192,192,19126,1,0,0:0:0:0:
320,192,19316,1,0,0:0:0:0:
64,192,19316,1,0,0:0:0:0:
448,192,19506,1,0,0:0:0:0:
192,192,19506,1,0,0:0:0:0:
64,192,19506,1,0,0:0:0:0:
64,192,19696,1,0,0:0:0:0:
320,192,19885,1,0,0:0:0:0:
192,192,19885,1,0,0:0:0:0:
320,192,20075,1,0,0:0:0:0:
64,192,20265,1,0,0:0:0:0:
320,192,20265,1,0,0:0:0:0:
448,192,20265,1,0,0:0:0:0:
320,192,20455,1,0,0:0:0:0:
320,192,20645,1,0,0:0:0:0:
192,192,20645,1,0,0:0:0:0:
320,192,20835,1,0,0:0:0:0:
64,192,20835,1,0,0:0:0:0:
192,192,21025,1,0,0:0:0:0:
448,192,21025,1,0,0:0:0:0:
320,192,21025,1,0,0:0:0:0:
320,192,21215,1,0,0:0:0:0:
64,192,21404,1,0,0:0:0:0:
192,192,21404,1,0,0:0:0:0:
192,192,21594,1,0,0:0:0:0:
448,192,21784,1,0,0:0:0:0:
192,192,21784,1,0,0:0:0:0:
320,192,21784,1,0,0:0:0:0:
192,192,21974,1,0,0:0:0:0:
192,192,22164,1,0,0:0:0:0:
64,192,22164,1,0,0:0:0:0:
192,192,22354,1,0,0:0:0:0:
320,192,22354,1,0,0:0:0:0:
448,192,22544,1,0,0:0:0:0:
64,192,22544,1,0,0:0:0:0:
192,192,22544,1,0,0:0:0:0:
192,192,22733,1,0,0:0:0:0:
320,192,22923,1,0,0:0:0:0:
448,192,22923,1,0,0:0:0:0:
448,192,23113,1,0,0:0:0:0:
448,192,23303,1,0,0:0:0:0:
192,192,23303,1,0,0:0:0:0:
64,192,23303,1,0,0:0:0:0:
448,192,23493,1,0,0:0:0:0:
192,192,23683,1,0,0:0:0:0:
448,192,23683,1,0,0:0:0:0:
320,192,23873,1,0,0:0:0:0:
448,192,23873,1,0,0:0:0:0:
448,192,24063,1,0,0:0:0:0:
192,192,24063,1,0,0:0:0:0:
64,192,24063,1,0,0:0:0:0:
448,192,24252,1,0,0:0:0:0:
64,192,24442,1,0,0:0:0:0:
192,192,24442,1,0,0:0:0:0:
320,192,24442,1,0,0:0:0:0:
320,192,24632,1,0,0:0:0:0:
320,192,24822,1,0,0:0:0:0:
192,192,24822,1,0,0:0:0:0:
64,192,24822,1,0,0:0:0:0:
320,192,25012,1,0,0:0:0:0:
192,192,25202,1,0,0:0:0:0:
320,192,25202,1,0,0:0:0:0:
448,192,25392,1,0,0:0:0:0:
320,192,25392,1,0,0:0:0:0:
192,192,25582,1,0,0:0:0:0:
320,192,25582,1,0,0:0:0:0:
64,192,25582,1,0,0:0:0:0:
320,192,25771,1,0,0:0:0:0:
192,192,25961,1,0,0:0:0:0:
448,192,25961,1,0,0:0:0:0:
192,192,26151,1,0,0:0:0:0:
192,192,26341,1,0,0:0:0:0:
448,192,26341,1,0,0:0:0:0:
64,192,26341,1,0,0:0:0:0:
192,192,26531,1,0,0:0:0:0:
192,192,26721,1,0,0:0:0:0:
320,192,26721,1,0,0:0:0:0:
448,192,26911,1,0,0:0:0:0:
192,192,26911,1,0,0:0:0:0:
320,192,27101,1,0,0:0:0:0:
192,192,27101,1,0,0:0:0:0:
64,192,27101,1,0,0:0:0:0:
192,192,27290,1,0,0:0:0:0:
320,192,27480,1,0,0:0:0:0:
448,192,27480,1,0,0:0:0:0:
320,192,27670,1,0,0:0:0:0:
320,192,27860,1,0,0:0:0:0:
192,192,27860,1,0,0:0:0:0:
64,192,27860,1,0,0:0:0:0:
320,192,28050,1,0,0:0:0:0:
448,192,28240,1,0,0:0:0:0:
320,192,28240,1,0,0:0:0:0:
320,192,28430,1,0,0:0:0:0:
192,192,28430,1,0,0:0:0:0:
448,192,28620,1,0,0:0:0:0:
320,192,28620,1,0,0:0:0:0:
64,192,28620,1,0,0:0:0:0:
320,192,28809,1,0,0:0:0:0:
192,192,28999,1,0,0:0:0:0:
64,192,28999,1,0,0:0:0:0:
64,192,29189,1,0,0:0:0:0:
320,192,29379,5,0,0:0:0:0:
64,192,29379,1,0,0:0:0:0:
448,192,29379,1,0,0:0:0:0:
64,192,29569,1,0,0:0:0:0:
320,192,29759,1,0,0:0:0:0:
64,192,29759,1,0,0:0:0:0:
192,192,29949,1,0,0:0:0:0:
64,192,29949,1,0,0:0:0:0:
448,192,30139,1,0,0:0:0:0:
64,192,30139,1,0,0:0:0:0:
320,192,30139,1,2,0:0:0:0:
64,192,30328,1,0,0:0:0:0:
192,192,30518,128,2,30708:0:0:0:0:
448,192,30518,1,2,0:0:0:0:
320,192,30708,128,0,30898:0:0:0:0:
448,192,30898,128,0,31088:0:0:0:0:
192,192,30898,1,0,0:0:0:0:
64,192,31088,128,0,31278:0:0:0:0:
192,192,31278,128,0,31468:0:0:0:0:
448,192,31278,1,0,0:0:0:0:
320,192,31468,128,0,31847:0:0:0:0:
64,192,31468,1,0,0:0:0:0:
448,192,31658,1,0,0:0:0:0:
64,192,31847,128,0,32037:0:0:0:0:
448,192,32037,128,0,32227:0:0:0:0:
192,192,32037,1,0,0:0:0:0:
320,192,32227,128,0,32417:0:0:0:0:
192,192,32417,128,0,32607:0:0:0:0:
64,192,32417,1,0,0:0:0:0:
448,192,32607,128,0,33556:0:0:0:0:
192,192,32797,1,0,0:0:0:0:
320,192,32987,1,0,0:0:0:0:
192,192,33177,1,0,0:0:0:0:
320,192,33556,128,0,33746:0:0:0:0:
64,192,33556,1,0,0:0:0:0:
192,192,33746,128,0,33936:0:0:0:0:
64,192,33936,128,0,34126:0:0:0:0:
320,192,33936,1,0,0:0:0:0:
448,192,34126,128,0,34316:0:0:0:0:
320,192,34316,128,0,34506:0:0:0:0:
64,192,34316,1,0,0:0:0:0:
192,192,34506,128,0,34885:0:0:0:0:
448,192,34506,1,0,0:0:0:0:
320,192,34696,1,0,0:0:0:0:
448,192,34885,128,0,35075:0:0:0:0:
64,192,35075,128,0,35265:0:0:0:0:
320,192,35075,1,0,0:0:0:0:
192,192,35265,128,0,35455:0:0:0:0:
320,192,35455,128,0,35645:0:0:0:0:
448,192,35455,1,0,0:0:0:0:
64,192,35645,128,0,36594:0:0:0:0:
192,192,35835,1,0,0:0:0:0:
448,192,36025,1,2,0:0:0:0:
320,192,36025,1,2,0:0:0:0:
192,192,36404,1,8,0:0:0:0:
320,192,36404,1,8,0:0:0:0:
320,192,36594,1,2,0:0:0:0:
448,192,36594,1,2,0:0:0:0:
192,192,36594,1,0,0:0:0:0:
448,192,36784,1,0,0:0:0:0:
448,192,36974,1,0,0:0:0:0:
64,192,36974,1,0,0:0:0:0:
192,192,36974,1,0,0:0:0:0:
448,192,37164,1,0,0:0:0:0:
448,192,37354,1,0,0:0:0:0:
320,192,37354,1,0,0:0:0:0:
448,192,37544,1,0,0:0:0:0:
192,192,37544,1,0,0:0:0:0:
448,192,37733,1,0,0:0:0:0:
64,192,37733,1,0,0:0:0:0:
320,192,37733,1,0,0:0:0:0:
448,192,37923,1,0,0:0:0:0:
192,192,38113,1,0,0:0:0:0:
320,192,38113,1,0,0:0:0:0:
192,192,38303,1,0,0:0:0:0:
192,192,38493,1,0,0:0:0:0:
448,192,38493,1,0,0:0:0:0:
64,192,38493,1,0,0:0:0:0:
192,192,38683,1,0,0:0:0:0:
192,192,38873,1,0,0:0:0:0:
320,192,38873,1,0,0:0:0:0:
192,192,39063,1,0,0:0:0:0:
448,192,39063,1,0,0:0:0:0:
192,192,39252,1,0,0:0:0:0:
320,192,39252,1,0,0:0:0:0:
64,192,39252,1,0,0:0:0:0:
192,192,39442,1,0,0:0:0:0:
320,192,39632,1,0,0:0:0:0:
448,192,39632,1,0,0:0:0:0:
320,192,39822,1,0,0:0:0:0:
320,192,40012,1,0,0:0:0:0:
192,192,40012,1,0,0:0:0:0:
64,192,40012,1,0,0:0:0:0:
320,192,40202,1,0,0:0:0:0:
320,192,40392,1,0,0:0:0:0:
448,192,40392,1,0,0:0:0:0:
320,192,40582,1,0,0:0:0:0:
192,192,40582,1,0,0:0:0:0:
320,192,40771,1,0,0:0:0:0:
64,192,40771,1,0,0:0:0:0:
448,192,40771,1,0,0:0:0:0:
320,192,40961,1,0,0:0:0:0:
64,192,41151,1,0,0:0:0:0:
192,192,41151,1,0,0:0:0:0:
64,192,41341,1,0,0:0:0:0:
64,192,41531,1,0,0:0:0:0:
448,192,41531,1,0,0:0:0:0:
320,192,41531,1,0,0:0:0:0:
64,192,41721,1,0,0:0:0:0:
64,192,41911,1,0,0:0:0:0:
320,192,41911,1,0,0:0:0:0:
64,192,42101,1,0,0:0:0:0:
192,192,42101,1,0,0:0:0:0:
64,192,42290,1,0,0:0:0:0:
320,192,42290,1,0,0:0:0:0:
448,192,42290,1,0,0:0:0:0:
64,192,42480,1,0,0:0:0:0:
192,192,42670,1,0,0:0:0:0:
320,192,42670,1,0,0:0:0:0:
192,192,42860,1,0,0:0:0:0:
192,192,43050,1,0,0:0:0:0:
64,192,43050,1,0,0:0:0:0:
320,192,43050,1,0,0:0:0:0:
192,192,43240,1,0,0:0:0:0:
192,192,43430,1,0,0:0:0:0:
448,192,43430,1,0,0:0:0:0:
192,192,43620,1,0,0:0:0:0:
320,192,43620,1,0,0:0:0:0:
192,192,43809,1,0,0:0:0:0:
64,192,43809,1,0,0:0:0:0:
448,192,43809,1,0,0:0:0:0:
192,192,43999,1,0,0:0:0:0:
448,192,44189,1,0,0:0:0:0:
320,192,44189,1,0,0:0:0:0:
448,192,44379,1,0,0:0:0:0:
448,192,44569,1,0,0:0:0:0:
64,192,44569,1,0,0:0:0:0:
448,192,44759,1,0,0:0:0:0:
448,192,44949,1,0,0:0:0:0:
192,192,44949,1,0,0:0:0:0:
448,192,45139,1,0,0:0:0:0:
320,192,45139,1,0,0:0:0:0:
448,192,45328,1,0,0:0:0:0:
64,192,45328,1,0,0:0:0:0:
192,192,45328,1,0,0:0:0:0:
448,192,45518,1,0,0:0:0:0:
320,192,45708,1,0,0:0:0:0:
192,192,45708,1,0,0:0:0:0:
320,192,45898,1,0,0:0:0:0:
320,192,46088,1,0,0:0:0:0:
448,192,46088,1,0,0:0:0:0:
64,192,46088,1,0,0:0:0:0:
320,192,46278,1,0,0:0:0:0:
320,192,46468,1,0,0:0:0:0:
192,192,46468,1,0,0:0:0:0:
320,192,46658,1,0,0:0:0:0:
448,192,46658,1,0,0:0:0:0:
320,192,46847,1,0,0:0:0:0:
192,192,46847,1,0,0:0:0:0:
64,192,46847,1,0,0:0:0:0:
320,192,47037,1,0,0:0:0:0:
64,192,47227,1,0,0:0:0:0:
448,192,47227,1,0,0:0:0:0:
64,192,47417,1,0,0:0:0:0:
64,192,47607,1,0,0:0:0:0:
320,192,47607,1,0,0:0:0:0:
192,192,47607,1,0,0:0:0:0:
64,192,47797,1,0,0:0:0:0:
64,192,47987,1,0,0:0:0:0:
448,192,47987,1,0,0:0:0:0:
64,192,48177,1,0,0:0:0:0:
192,192,48177,1,0,0:0:0:0:
64,192,48366,1,0,0:0:0:0:
320,192,48366,1,0,0:0:0:0:
448,192,48366,1,0,0:0:0:0:
64,192,48556,1,0,0:0:0:0:
64,192,48746,1,0,0:0:0:0:
192,192,48746,128,0,49316:0:0:0:0:
448,192,48746,128,0,48936:0:0:0:0:
64,192,48936,128,0,49126:0:0:0:0:
448,192,49126,128,0,49316:0:0:0:0:
320,192,49316,128,0,49506:0:0:0:0:
192,192,49506,128,0,50075:0:0:0:0:
64,192,49506,128,0,49696:0:0:0:0:
448,192,49696,128,0,50075:0:0:0:0:
320,192,50075,128,0,50265:0:0:0:0:
64,192,50075,128,0,50265:0:0:0:0:
448,192,50265,128,0,51404:0:0:0:0:
192,192,50265,128,0,50455:0:0:0:0:
320,192,50455,128,0,50645:0:0:0:0:
64,192,50645,128,0,50835:0:0:0:0:
192,192,50835,128,0,51594:0:0:0:0:
320,192,51025,1,0,0:0:0:0:
64,192,51215,1,0,0:0:0:0:
320,192,51404,1,4,0:0:0:0:
64,192,51404,1,4,0:0:0:0:
320,192,51594,128,0,51689:0:0:0:0:
448,192,51689,128,0,51784:0:0:0:0:
64,192,51784,128,0,52354:0:0:0:0:
192,192,51784,1,0,0:0:0:0:
320,192,52164,1,0,0:0:0:0:
448,192,52164,1,0,0:0:0:0:
192,192,52354,128,0,52544:0:0:0:0:
320,192,52544,128,0,53113:0:0:0:0:
64,192,52544,1,0,0:0:0:0:
448,192,52733,1,0,0:0:0:0:
192,192,52923,1,0,0:0:0:0:
64,192,52923,1,0,0:0:0:0:
448,192,53113,128,0,53303:0:0:0:0:
64,192,53303,5,0,0:0:0:0:
320,192,53303,1,0,0:0:0:0:
192,192,53493,1,0,0:0:0:0:
320,192,53588,1,0,0:0:0:0:
192,192,53683,5,0,0:0:0:0:
64,192,53683,1,0,0:0:0:0:
320,192,53778,1,0,0:0:0:0:
448,192,53778,1,0,0:0:0:0:
192,192,53873,1,0,0:0:0:0:
64,192,53873,1,0,0:0:0:0:
320,192,53968,1,0,0:0:0:0:
448,192,53968,1,0,0:0:0:0:
64,192,54063,1,0,0:0:0:0:
192,192,54063,128,0,54442:0:0:0:0:
64,192,54822,5,2,0:0:0:0:
192,192,54822,1,2,0:0:0:0:
448,192,54822,1,4,0:0:0:0:
320,192,55012,1,0,0:0:0:0:
320,192,55202,1,8,0:0:0:0:
192,192,55202,1,12,0:0:0:0:
448,192,55202,1,12,0:0:0:0:
64,192,55392,1,0,0:0:0:0:
64,192,55582,1,8,0:0:0:0:
192,192,55582,1,8,0:0:0:0:
448,192,55582,1,12,0:0:0:0:
192,192,55771,1,0,0:0:0:0:
320,192,55771,1,0,0:0:0:0:
320,192,55961,1,8,0:0:0:0:
64,192,55961,1,8,0:0:0:0:
448,192,55961,1,8,0:0:0:0:
64,192,56151,1,0,0:0:0:0:
448,192,56151,1,0,0:0:0:0:
192,192,56341,1,8,0:0:0:0:
320,192,56341,1,8,0:0:0:0:
448,192,56341,1,8,0:0:0:0:
64,192,56531,1,8,0:0:0:0:
64,192,56721,1,12,0:0:0:0:
192,192,56721,1,8,0:0:0:0:
320,192,56721,1,8,0:0:0:0:
448,192,56911,1,0,0:0:0:0:
320,192,57101,1,8,0:0:0:0:
64,192,57101,1,12,0:0:0:0:
448,192,57101,1,8,0:0:0:0:
320,192,57290,1,0,0:0:0:0:
192,192,57290,1,0,0:0:0:0:
64,192,57480,1,8,0:0:0:0:
448,192,57480,1,8,0:0:0:0:
192,192,57480,1,8,0:0:0:0:
64,192,57670,1,0,0:0:0:0:
448,192,57670,1,0,0:0:0:0:
64,192,57860,1,8,0:0:0:0:
320,192,57860,1,8,0:0:0:0:
192,192,57860,1,8,0:0:0:0:
448,192,58050,1,0,0:0:0:0:
448,192,58240,1,8,0:0:0:0:
192,192,58240,1,8,0:0:0:0:
64,192,58240,1,8,0:0:0:0:
320,192,58430,1,0,0:0:0:0:
192,192,58620,1,8,0:0:0:0:
64,192,58620,1,8,0:0:0:0:
448,192,58620,1,12,0:0:0:0:
448,192,58809,1,0,0:0:0:0:
320,192,58809,1,0,0:0:0:0:
320,192,58999,1,8,0:0:0:0:
64,192,58999,1,8,0:0:0:0:
192,192,58999,1,8,0:0:0:0:
448,192,59189,1,0,0:0:0:0:
192,192,59189,1,0,0:0:0:0:
320,192,59379,1,8,0:0:0:0:
448,192,59379,1,8,0:0:0:0:
64,192,59379,1,8,0:0:0:0:
192,192,59569,1,8,0:0:0:0:
448,192,59759,1,8,0:0:0:0:
192,192,59759,1,8,0:0:0:0:
64,192,59759,1,12,0:0:0:0:
320,192,59949,1,0,0:0:0:0:
64,192,60139,1,12,0:0:0:0:
448,192,60139,1,8,0:0:0:0:
192,192,60139,1,8,0:0:0:0:
448,192,60328,1,0,0:0:0:0:
320,192,60328,1,0,0:0:0:0:
320,192,60518,1,8,0:0:0:0:
192,192,60518,1,8,0:0:0:0:
64,192,60518,1,8,0:0:0:0:
448,192,60708,1,0,0:0:0:0:
64,192,60708,1,0,0:0:0:0:
64,192,60898,1,8,0:0:0:0:
192,192,60898,1,10,0:0:0:0:
320,192,60898,1,2,0:0:0:0:
448,192,61088,1,0,0:0:0:0:
192,192,61278,1,8,0:0:0:0:
320,192,61278,1,12,0:0:0:0:
64,192,61278,1,12,0:0:0:0:
448,192,61468,1,0,0:0:0:0:
320,192,61658,1,8,0:0:0:0:
64,192,61658,1,12,0:0:0:0:
448,192,61658,1,8,0:0:0:0:
192,192,61847,1,0,0:0:0:0:
320,192,61847,1,0,0:0:0:0:
448,192,62037,1,8,0:0:0:0:
192,192,62037,1,8,0:0:0:0:
64,192,62037,1,8,0:0:0:0:
448,192,62227,1,0,0:0:0:0:
64,192,62227,1,0,0:0:0:0:
448,192,62417,1,8,0:0:0:0:
320,192,62417,1,8,0:0:0:0:
192,192,62417,1,8,0:0:0:0:
64,192,62607,1,8,0:0:0:0:
320,192,62797,1,8,0:0:0:0:
192,192,62797,1,8,0:0:0:0:
64,192,62797,1,12,0:0:0:0:
448,192,62987,1,0,0:0:0:0:
448,192,63177,1,8,0:0:0:0:
320,192,63177,1,8,0:0:0:0:
64,192,63177,1,12,0:0:0:0:
64,192,63366,1,0,0:0:0:0:
192,192,63366,1,0,0:0:0:0:
448,192,63556,1,12,0:0:0:0:
192,192,63556,1,12,0:0:0:0:
320,192,63556,1,8,0:0:0:0:
64,192,63746,1,0,0:0:0:0:
64,192,63936,1,8,0:0:0:0:
448,192,63936,1,12,0:0:0:0:
192,192,63936,1,8,0:0:0:0:
320,192,64126,1,0,0:0:0:0:
448,192,64316,1,8,0:0:0:0:
320,192,64316,1,8,0:0:0:0:
64,192,64316,1,8,0:0:0:0:
64,192,64506,1,0,0:0:0:0:
448,192,64506,1,0,0:0:0:0:
192,192,64696,1,8,0:0:0:0:
320,192,64696,1,8,0:0:0:0:
448,192,64696,1,8,0:0:0:0:
64,192,64885,1,8,0:0:0:0:
192,192,64885,1,0,0:0:0:0:
64,192,65075,5,12,0:0:0:0:
320,192,65075,1,8,0:0:0:0:
448,192,65075,1,0,0:0:0:0:
192,192,65265,1,0,0:0:0:0:
64,192,65455,1,12,0:0:0:0:
320,192,65455,1,8,0:0:0:0:
448,192,65455,1,8,0:0:0:0:
192,192,65645,1,0,0:0:0:0:
320,192,65645,1,0,0:0:0:0:
448,192,65835,1,0,0:0:0:0:
64,192,65835,1,0,0:0:0:0:
192,192,65835,1,0,0:0:0:0:
192,192,66025,1,0,0:0:0:0:
448,192,66025,1,0,0:0:0:0:
64,192,66215,5,8,0:0:0:0:
320,192,66215,1,8,0:0:0:0:
192,192,66309,1,0,0:0:0:0:
320,192,66404,1,0,0:0:0:0:
64,192,66404,1,0,0:0:0:0:
448,192,66499,1,0,0:0:0:0:
64,192,66594,1,8,0:0:0:0:
192,192,66594,1,8,0:0:0:0:
448,192,66689,1,0,0:0:0:0:
320,192,66689,1,0,0:0:0:0:
64,192,66784,1,0,0:0:0:0:
192,192,66784,1,0,0:0:0:0:
320,192,66879,1,0,0:0:0:0:
448,192,66879,1,0,0:0:0:0:
192,192,66974,1,0,0:0:0:0:
64,192,66974,1,0,0:0:0:0:
448,192,66974,1,0,0:0:0:0:
320,192,67164,1,0,0:0:0:0:
192,192,67354,1,8,0:0:0:0:
448,192,67354,1,12,0:0:0:0:
64,192,67354,1,12,0:0:0:0:
320,192,67544,1,0,0:0:0:0:
448,192,67733,1,8,0:0:0:0:
192,192,67733,1,8,0:0:0:0:
64,192,67733,1,12,0:0:0:0:
320,192,67923,1,0,0:0:0:0:
64,192,67923,1,0,0:0:0:0:
192,192,68113,1,8,0:0:0:0:
320,192,68113,1,8,0:0:0:0:
448,192,68113,1,8,0:0:0:0:
64,192,68303,1,0,0:0:0:0:
448,192,68303,1,0,0:0:0:0:
320,192,68493,1,8,0:0:0:0:
64,192,68493,1,8,0:0:0:0:
192,192,68493,1,8,0:0:0:0:
448,192,68683,1,8,0:0:0:0:
192,192,68873,1,8,0:0:0:0:
448,192,68873,1,12,0:0:0:0:
320,192,68873,1,8,0:0:0:0:
64,192,69063,1,0,0:0:0:0:
448,192,69252,1,12,0:0:0:0:
192,192,69252,1,8,0:0:0:0:
64,192,69252,1,8,0:0:0:0:
320,192,69442,1,0,0:0:0:0:
192,192,69442,1,0,0:0:0:0:
64,192,69632,1,8,0:0:0:0:
448,192,69632,1,8,0:0:0:0:
320,192,69632,1,8,0:0:0:0:
64,192,69822,1,0,0:0:0:0:
448,192,69822,1,0,0:0:0:0:
448,192,70012,1,8,0:0:0:0:
320,192,70012,1,8,0:0:0:0:
192,192,70012,1,8,0:0:0:0:
64,192,70202,1,0,0:0:0:0:
192,192,70392,1,8,0:0:0:0:
64,192,70392,1,12,0:0:0:0:
448,192,70392,1,12,0:0:0:0:
320,192,70582,1,0,0:0:0:0:
320,192,70771,1,8,0:0:0:0:
64,192,70771,1,12,0:0:0:0:
192,192,70771,1,8,0:0:0:0:
192,192,70961,1,0,0:0:0:0:
448,192,70961,1,0,0:0:0:0:
320,192,71151,1,8,0:0:0:0:
192,192,71151,1,8,0:0:0:0:
64,192,71151,1,8,0:0:0:0:
64,192,71341,1,0,0:0:0:0:
448,192,71341,1,0,0:0:0:0:
64,192,71531,1,8,0:0:0:0:
192,192,71531,1,8,0:0:0:0:
320,192,71531,1,8,0:0:0:0:
448,192,71721,1,8,0:0:0:0:
192,192,71911,1,8,0:0:0:0:
320,192,71911,1,8,0:0:0:0:
448,192,71911,1,12,0:0:0:0:
64,192,72101,1,0,0:0:0:0:
64,192,72290,1,8,0:0:0:0:
448,192,72290,1,12,0:0:0:0:
192,192,72290,128,0,72670:0:0:0:0:
320,192,72670,128,0,73050:0:0:0:0:
64,192,72670,1,0,0:0:0:0:
64,192,73050,5,2,0:0:0:0:
448,192,73050,1,4,0:0:0:0:
192,192,73050,1,2,0:0:0:0:
320,192,73240,1,0,0:0:0:0:
64,192,73430,1,12,0:0:0:0:
320,192,73430,1,8,0:0:0:0:
448,192,73430,1,12,0:0:0:0:
192,192,73620,1,0,0:0:0:0:
320,192,73809,1,8,0:0:0:0:
448,192,73809,1,12,0:0:0:0:
64,192,73809,1,8,0:0:0:0:
448,192,73999,1,0,0:0:0:0:
192,192,73999,1,0,0:0:0:0:
64,192,74189,1,8,0:0:0:0:
320,192,74189,1,8,0:0:0:0:
192,192,74189,1,8,0:0:0:0:
448,192,74379,1,0,0:0:0:0:
64,192,74379,1,0,0:0:0:0:
64,192,74569,1,8,0:0:0:0:
192,192,74569,1,8,0:0:0:0:
448,192,74569,1,8,0:0:0:0:
320,192,74759,1,8,0:0:0:0:
64,192,74949,1,12,0:0:0:0:
448,192,74949,1,8,0:0:0:0:
192,192,74949,1,8,0:0:0:0:
320,192,75139,1,0,0:0:0:0:
448,192,75328,1,8,0:0:0:0:
64,192,75328,1,12,0:0:0:0:
192,192,75328,1,8,0:0:0:0:
320,192,75518,1,0,0:0:0:0:
448,192,75518,1,0,0:0:0:0:
192,192,75708,1,8,0:0:0:0:
320,192,75708,1,8,0:0:0:0:
64,192,75708,1,8,0:0:0:0:
320,192,75898,1,0,0:0:0:0:
448,192,75898,1,0,0:0:0:0:
448,192,76088,1,8,0:0:0:0:
64,192,76088,1,8,0:0:0:0:
192,192,76088,1,8,0:0:0:0:
320,192,76278,1,0,0:0:0:0:
64,192,76468,1,8,0:0:0:0:
448,192,76468,1,8,0:0:0:0:
192,192,76468,1,8,0:0:0:0:
320,192,76658,1,0,0:0:0:0:
448,192,76847,1,12,0:0:0:0:
192,192,76847,1,8,0:0:0:0:
64,192,76847,1,8,0:0:0:0:
448,192,77037,1,0,0:0:0:0:
320,192,77037,1,0,0:0:0:0:
320,192,77227,1,8,0:0:0:0:
192,192,77227,1,8,0:0:0:0:
64,192,77227,1,8,0:0:0:0:
448,192,77417,1,0,0:0:0:0:
192,192,77417,1,0,0:0:0:0:
320,192,77607,1,8,0:0:0:0:
64,192,77607,1,8,0:0:0:0:
448,192,77607,1,8,0:0:0:0:
192,192,77797,1,8,0:0:0:0:
64,192,77987,5,12,0:0:0:0:
192,192,77987,1,8,0:0:0:0:
448,192,77987,1,8,0:0:0:0:
64,192,78177,1,0,0:0:0:0:
192,192,78366,1,8,0:0:0:0:
320,192,78366,1,8,0:0:0:0:
448,192,78366,1,8,0:0:0:0:
192,192,78556,1,0,0:0:0:0:
64,192,78746,1,8,0:0:0:0:
320,192,78746,1,8,0:0:0:0:
448,192,78746,1,8,0:0:0:0:
192,192,78936,1,0,0:0:0:0:
64,192,79126,5,0,0:0:0:0:
192,192,79126,1,2,0:0:0:0:
320,192,79126,1,2,0:0:0:0:
64,192,79316,1,0,0:0:0:0:
64,192,79506,1,0,0:0:0:0:
320,192,79506,1,2,0:0:0:0:
448,192,79506,1,2,0:0:0:0:
64,192,79696,1,0,0:0:0:0:
64,192,79885,1,0,0:0:0:0:
192,192,79885,1,2,0:0:0:0:
448,192,79885,1,2,0:0:0:0:
64,192,80075,1,0,0:0:0:0:
64,192,80265,1,0,0:0:0:0:
320,192,80265,1,2,0:0:0:0:
192,192,80265,1,2,0:0:0:0:
64,192,80455,1,0,0:0:0:0:
320,192,80645,1,0,0:0:0:0:
192,192,80645,1,2,0:0:0:0:
448,192,80645,1,2,0:0:0:0:
320,192,80835,1,0,0:0:0:0:
320,192,81025,1,0,0:0:0:0:
64,192,81025,1,2,0:0:0:0:
448,192,81025,1,2,0:0:0:0:
320,192,81215,1,0,0:0:0:0:
320,192,81404,1,0,0:0:0:0:
192,192,81404,1,2,0:0:0:0:
64,192,81404,1,2,0:0:0:0:
320,192,81594,1,0,0:0:0:0:
320,192,81784,1,0,0:0:0:0:
64,192,81784,1,2,0:0:0:0:
448,192,81784,1,2,0:0:0:0:
320,192,81974,1,0,0:0:0:0:
192,192,82164,1,0,0:0:0:0:
448,192,82164,1,2,0:0:0:0:
64,192,82164,1,2,0:0:0:0:
192,192,82354,1,0,0:0:0:0:
192,192,82544,1,0,0:0:0:0:
64,192,82544,1,2,0:0:0:0:
320,192,82544,1,2,0:0:0:0:
192,192,82733,1,0,0:0:0:0:
192,192,82923,1,0,0:0:0:0:
320,192,82923,1,2,0:0:0:0:
448,192,82923,1,2,0:0:0:0:
192,192,83113,1,0,0:0:0:0:
192,192,83303,1,0,0:0:0:0:
64,192,83303,1,2,0:0:0:0:
320,192,83303,1,2,0:0:0:0:
192,192,83493,1,0,0:0:0:0:
320,192,83683,1,0,0:0:0:0:
448,192,83683,1,0,0:0:0:0:
64,192,83683,1,0,0:0:0:0:
192,192,83873,1,0,0:0:0:0:
64,192,83873,1,0,0:0:0:0:
192,192,84063,5,0,0:0:0:0:
320,192,84063,1,0,0:0:0:0:
448,192,84063,1,0,0:0:0:0:
320,192,84252,1,0,0:0:0:0:
448,192,84252,1,0,0:0:0:0:
192,192,84442,1,12,0:0:0:0:
64,192,84442,1,0,0:0:0:0:
448,192,84442,1,4,0:0:0:0:
320,192,84537,1,4,0:0:0:0:
64,192,84632,1,12,0:0:0:0:
448,192,84632,1,4,0:0:0:0:
192,192,84727,1,4,0:0:0:0:
320,192,84822,1,12,0:0:0:0:
448,192,84822,1,4,0:0:0:0:
64,192,84822,1,0,0:0:0:0:
192,192,84917,1,4,0:0:0:0:
64,192,85012,1,12,0:0:0:0:
448,192,85012,1,4,0:0:0:0:
320,192,85107,1,4,0:0:0:0:
448,192,85202,5,6,0:0:0:0:
192,192,85202,128,2,85392:0:0:0:0:
320,192,85392,128,0,85582:0:0:0:0:
192,192,85582,1,0,0:0:0:0:
448,192,85582,128,0,85771:0:0:0:0:
64,192,85771,128,0,85961:0:0:0:0:
192,192,85961,128,0,86151:0:0:0:0:
448,192,85961,1,0,0:0:0:0:
320,192,86151,128,0,86531:0:0:0:0:
64,192,86151,1,0,0:0:0:0:
448,192,86341,1,0,0:0:0:0:
64,192,86531,128,0,86721:0:0:0:0:
448,192,86721,128,0,86911:0:0:0:0:
192,192,86721,1,0,0:0:0:0:
320,192,86911,128,0,87101:0:0:0:0:
192,192,87101,128,0,87290:0:0:0:0:
448,192,87101,1,0,0:0:0:0:
64,192,87290,128,0,88240:0:0:0:0:
192,192,87480,1,0,0:0:0:0:
320,192,87670,1,0,0:0:0:0:
192,192,87860,1,0,0:0:0:0:
320,192,88240,128,0,88430:0:0:0:0:
448,192,88240,1,0,0:0:0:0:
192,192,88430,128,0,88620:0:0:0:0:
64,192,88620,128,0,88809:0:0:0:0:
320,192,88620,1,0,0:0:0:0:
448,192,88809,128,0,88999:0:0:0:0:
64,192,88999,1,0,0:0:0:0:
320,192,88999,128,0,89189:0:0:0:0:
192,192,89189,128,0,89569:0:0:0:0:
448,192,89189,1,0,0:0:0:0:
64,192,89379,1,0,0:0:0:0:
448,192,89569,128,0,89759:0:0:0:0:
64,192,89759,128,0,89949:0:0:0:0:
320,192,89759,1,0,0:0:0:0:
192,192,89949,128,0,90139:0:0:0:0:
320,192,90139,128,0,90328:0:0:0:0:
448,192,90139,1,0,0:0:0:0:
64,192,90328,128,0,91278:0:0:0:0:
320,192,90518,1,0,0:0:0:0:
192,192,90708,1,12,0:0:0:0:
448,192,90708,1,8,0:0:0:0:
192,192,91088,1,8,0:0:0:0:
320,192,91088,1,8,0:0:0:0:
320,192,91278,1,4,0:0:0:0:
448,192,91278,1,4,0:0:0:0:
192,192,91278,1,4,0:0:0:0:
64,192,91468,1,4,0:0:0:0:
320,192,91468,1,4,0:0:0:0:
448,192,91468,1,4,0:0:0:0:
192,192,91658,1,4,0:0:0:0:
448,192,91658,1,4,0:0:0:0:
320,192,91658,1,4,0:0:0:0:
64,192,91847,1,4,0:0:0:0:
192,192,91847,1,4,0:0:0:0:
320,192,92037,1,4,0:0:0:0:
448,192,92037,1,4,0:0:0:0:
64,192,92037,1,4,0:0:0:0:
192,192,92227,1,4,0:0:0:0:
64,192,92227,1,4,0:0:0:0:
320,192,92322,1,0,0:0:0:0:
448,192,92322,1,0,0:0:0:0:
192,192,92417,1,4,0:0:0:0:
64,192,92417,1,4,0:0:0:0:
64,192,92607,128,0,93556:0:0:0:0:
192,192,92607,128,2,93461:0:0:0:0:
320,192,92607,128,2,93366:0:0:0:0:
448,192,92607,128,0,93271:0:0:0:0:
