osu file format v12

[General]
AudioFilename: 123456788.mp3
AudioLeadIn: 0
PreviewTime: -1
Countdown: 1
SampleSet: Normal
StackLeniency: 0.7
Mode: 0
LetterboxInBreaks: 1
WidescreenStoryboard: 0

[Editor]
DistanceSpacing: 1
BeatDivisor: 4
GridSize: 16
TimelineZoom: 3.499999

[Metadata]
Title:kokuhaku
TitleUnicode:告白
Artist:Supercell
ArtistUnicode:Supercell
Creator:-shuko
Version:For BakaChing
Source:Guilty Crown
Tags:
BeatmapID:399007
BeatmapSetID:163803

[Difficulty]
HPDrainRate:7
CircleSize:4
OverallDifficulty:7
ApproachRate:9
SliderMultiplier:1.6
SliderTickRate:1

[Events]
//Background and Video events
0,0,"492816.jpg",0,0
//Break Periods
2,194820,202020
//Storyboard Layer 0 (Background)
//Storyboard Layer 1 (Fail)
//Storyboard Layer 2 (Pass)
//Storyboard Layer 3 (Foreground)
//Storyboard Sound Samples
//Background Colour Transformations
3,100,163,162,255

[TimingPoints]
6621,333.333333333333,4,1,0,100,1,0
123976,-200,4,1,0,100,0,0
129308,-100,4,1,0,100,0,0
165300,-200,4,1,0,51,0,0
167299,-100,4,1,0,51,0,0
250281,-200,4,1,0,51,0,0
271610,-100,4,1,0,51,0,0
287606,-200,4,1,0,51,0,0
291605,-100,4,1,0,51,0,0

[Colours]
Combo1 : 255,0,255
Combo2 : 0,255,255
Combo3 : 255,128,255
Combo4 : 255,255,0
Combo5 : 0,255,0
Combo6 : 128,128,255
Combo7 : 192,192,192
Combo8 : 240,240,240

[HitObjects]
256,192,627,12,0,6292,0:0:0:0:
112,96,6622,5,0,0:0:0:0:
176,240,6954,1,0,0:0:0:0:
320,176,7287,1,0,0:0:0:0:
216,56,7620,1,0,0:0:0:0:
128,192,7954,1,0,0:0:0:0:
272,264,8287,1,0,0:0:0:0:
240,104,8620,1,0,0:0:0:0:
232,264,8953,1,0,0:0:0:0:
360,168,9287,5,0,0:0:0:0:
488,72,9620,1,0,0:0:0:0:
328,64,9954,1,0,0:0:0:0:
192,152,10287,1,0,0:0:0:0:
352,136,10620,1,0,0:0:0:0:
272,272,10954,1,0,0:0:0:0:
424,216,11287,1,0,0:0:0:0:
288,136,11620,1,0,0:0:0:0:
128,104,11954,5,0,0:0:0:0:
176,256,12287,1,0,0:0:0:0:
24,200,12620,1,0,0:0:0:0:
184,184,12954,1,0,0:0:0:0:
336,120,13287,1,0,0:0:0:0:
304,280,13620,5,0,0:0:0:0:
176,184,13954,1,0,0:0:0:0:
376,208,14287,1,0,0:0:0:0:
280,136,14620,1,0,0:0:0:0:
440,168,14954,1,0,0:0:0:0:
304,80,15287,1,0,0:0:0:0:
192,200,15620,1,0,0:0:0:0:
344,256,15954,1,0,0:0:0:0:
312,96,16287,5,0,0:0:0:0:
216,224,16620,1,0,0:0:0:0:
240,64,16954,1,0,0:0:0:0:
216,224,17287,1,0,0:0:0:0:
240,64,17620,1,0,0:0:0:0:
360,168,17954,1,0,0:0:0:0:
200,152,18287,1,0,0:0:0:0:
360,168,18620,1,0,0:0:0:0:
200,152,18954,1,0,0:0:0:0:
264,296,19287,1,0,0:0:0:0:
296,136,19620,5,0,0:0:0:0:
456,168,19954,1,0,0:0:0:0:
296,136,20287,1,0,0:0:0:0:
456,168,20620,1,0,0:0:0:0:
392,24,20954,1,0,0:0:0:0:
368,184,21287,1,0,0:0:0:0:
472,64,21620,1,0,0:0:0:0:
320,112,21954,1,0,0:0:0:0:
208,224,22287,1,0,0:0:0:0:
168,72,22620,5,0,0:0:0:0:
280,192,22954,1,0,0:0:0:0:
280,32,23287,1,0,0:0:0:0:
184,160,23620,1,0,0:0:0:0:
168,320,23954,1,0,0:0:0:0:
312,256,24287,1,0,0:0:0:0:
256,104,24620,1,0,0:0:0:0:
216,256,24954,5,0,0:0:0:0:
344,160,25287,1,0,0:0:0:0:
192,120,25620,1,0,0:0:0:0:
256,192,25954,12,0,27620,0:0:0:0:
56,80,27954,6,0,L|152:80,2,80
48,160,28454,2,0,L|128:160,2,80
56,240,28954,2,0,L|152:224,4,80
64,320,29787,2,0,L|168:304,2,80
168,104,30620,6,0,L|264:96,2,80
88,112,31120,2,0,L|-8:120,2,80
128,184,31620,2,0,L|216:176,2,80
72,240,32120,2,0,L|-24:256,3,80
112,80,33287,2,0,L|168:80,30,40
192,96,35954,1,0,0:0:0:0:
96,160,36120,1,0,0:0:0:0:
336,160,36620,1,0,0:0:0:0:
416,152,36787,1,0,0:0:0:0:
488,80,37287,5,0,0:0:0:0:
488,80,37454,1,0,0:0:0:0:
312,248,37954,1,0,0:0:0:0:
312,248,38120,1,0,0:0:0:0:
88,152,38620,1,0,0:0:0:0:
168,144,38954,2,0,P|216:104|232:120,1,80
296,128,39287,1,0,0:0:0:0:
368,152,39454,1,0,0:0:0:0:
312,248,39620,2,0,P|248:256|240:224,2,80
304,168,40120,2,0,P|272:128|216:112,1,80
168,96,40454,1,0,0:0:0:0:
88,104,40620,1,0,0:0:0:0:
160,248,40954,5,0,0:0:0:0:
144,168,41120,2,0,P|208:160|216:176,1,80
248,232,41454,1,0,0:0:0:0:
264,312,41620,1,0,0:0:0:0:
336,272,41787,2,0,P|384:240|384:192,2,80
312,192,42287,1,0,0:0:0:0:
248,144,42454,2,0,P|192:104|152:104,1,80
112,144,42787,1,0,0:0:0:0:
72,216,42954,1,0,0:0:0:0:
144,256,43120,2,0,P|200:240|208:192,1,80
192,144,43454,1,0,0:0:0:0:
168,72,43620,5,0,0:0:0:0:
296,168,43954,1,0,0:0:0:0:
352,112,44120,1,0,0:0:0:0:
432,104,44287,1,0,0:0:0:0:
440,184,44454,1,0,0:0:0:0:
392,248,44620,1,0,0:0:0:0:
320,280,44787,1,0,0:0:0:0:
264,224,44954,1,0,0:0:0:0:
240,144,45120,1,0,0:0:0:0:
280,80,45287,1,0,0:0:0:0:
360,72,45454,1,0,0:0:0:0:
441,90,45620,1,0,0:0:0:0:
440,168,45787,1,0,0:0:0:0:
368,200,45954,1,0,0:0:0:0:
288,208,46120,1,0,0:0:0:0:
208,200,46287,1,0,0:0:0:0:
128,176,46454,1,0,0:0:0:0:
136,96,46620,6,0,L|312:96,1,160
360,144,47120,1,0,0:0:0:0:
328,216,47287,1,0,0:0:0:0:
176,264,47620,1,0,0:0:0:0:
199,189,47787,1,0,0:0:0:0:
224,112,47954,2,0,L|304:128,1,80
360,72,48287,1,0,0:0:0:0:
329,151,48454,1,0,0:0:0:0:
256,192,48620,12,0,49953,0:0:0:0:
160,72,50287,6,0,L|328:72,1,160
224,200,50954,1,0,0:0:0:0:
384,192,51287,1,0,0:0:0:0:
408,32,51620,1,0,0:0:0:0:
248,88,51954,1,0,0:0:0:0:
120,168,52287,1,0,0:0:0:0:
240,280,52620,1,0,0:0:0:0:
368,192,52954,1,0,0:0:0:0:
256,80,53287,1,0,0:0:0:0:
120,168,53620,5,0,0:0:0:0:
240,272,53954,1,0,0:0:0:0:
376,192,54287,1,0,0:0:0:0:
120,168,54620,1,0,0:0:0:0:
240,272,54954,1,0,0:0:0:0:
400,296,55287,1,0,0:0:0:0:
368,136,55620,1,0,0:0:0:0:
248,24,55954,1,0,0:0:0:0:
136,136,56287,1,0,0:0:0:0:
64,280,56620,1,0,0:0:0:0:
224,272,56954,5,0,0:0:0:0:
384,256,57287,1,0,0:0:0:0:
392,96,57620,1,0,0:0:0:0:
232,96,57954,1,0,0:0:0:0:
72,96,58287,1,0,0:0:0:0:
192,208,58620,1,0,0:0:0:0:
72,312,58954,1,0,0:0:0:0:
224,264,59287,1,0,0:0:0:0:
376,208,59620,1,0,0:0:0:0:
288,72,59954,1,0,0:0:0:0:
152,152,60287,5,0,0:0:0:0:
312,160,60620,1,0,0:0:0:0:
472,160,60954,1,0,0:0:0:0:
376,288,61287,1,0,0:0:0:0:
216,296,61620,1,0,0:0:0:0:
160,144,61954,1,0,0:0:0:0:
320,144,62287,1,0,0:0:0:0:
472,104,62620,1,0,0:0:0:0:
312,80,62954,1,0,0:0:0:0:
176,168,63287,1,0,0:0:0:0:
56,272,63620,5,0,0:0:0:0:
216,256,63954,1,0,0:0:0:0:
376,232,64287,1,0,0:0:0:0:
408,72,64620,1,0,0:0:0:0:
248,96,64954,1,0,0:0:0:0:
112,184,65287,1,0,0:0:0:0:
240,280,65620,1,0,0:0:0:0:
400,312,65954,1,0,0:0:0:0:
488,184,66287,1,0,0:0:0:0:
336,128,66620,1,0,0:0:0:0:
176,120,66954,6,0,L|256:120,2,80
72,240,67620,1,0,0:0:0:0:
232,264,67954,1,0,0:0:0:0:
392,248,68287,1,0,0:0:0:0:
328,96,68620,1,0,0:0:0:0:
168,104,68954,2,0,P|120:160|192:208,1,160
328,208,69620,1,0,0:0:0:0:
184,272,69954,5,0,0:0:0:0:
224,120,70287,1,0,0:0:0:0:
248,192,70620,1,0,0:0:0:0:
96,152,70954,1,0,0:0:0:0:
192,280,71287,1,0,0:0:0:0:
128,136,71620,1,0,0:0:0:0:
128,216,71787,1,0,0:0:0:0:
200,176,71954,1,0,0:0:0:0:
360,192,72287,2,0,P|360:128|328:112,1,80
280,96,72620,5,0,0:0:0:0:
200,80,72787,1,0,0:0:0:0:
120,88,72954,1,0,0:0:0:0:
96,248,73287,2,0,P|208:248|240:208,1,160
96,136,73954,1,0,0:0:0:0:
248,192,74287,1,0,0:0:0:0:
176,232,74454,1,0,0:0:0:0:
176,152,74620,1,0,0:0:0:0:
264,288,74954,2,0,L|328:360,1,80
368,280,75287,1,0,0:0:0:0:
416,128,75620,1,0,0:0:0:0:
336,112,75787,1,0,0:0:0:0:
168,104,76120,1,0,0:0:0:0:
112,160,76287,1,0,0:0:0:0:
264,208,76620,1,0,0:0:0:0:
104,216,76954,5,0,0:0:0:0:
152,152,77120,1,0,0:0:0:0:
192,216,77287,1,0,0:0:0:0:
240,152,77620,2,0,L|320:160,2,80
184,208,78120,2,0,P|184:152|152:128,1,80
96,104,78454,1,0,0:0:0:0:
96,184,78620,1,0,0:0:0:0:
176,232,78954,2,0,L|360:256,1,160
456,152,79620,6,0,P|432:112|392:104,1,80
320,88,79954,1,0,0:0:0:0:
168,144,80287,2,0,P|120:168|104:208,1,80
176,240,80620,1,0,0:0:0:0:
256,240,80787,1,0,0:0:0:0:
320,200,80954,2,0,P|280:160|240:136,1,80
224,72,81287,5,0,0:0:0:0:
144,80,81620,2,0,P|88:80|80:128,1,80
216,288,82287,1,0,0:0:0:0:
192,208,82454,1,0,0:0:0:0:
272,192,82620,1,0,0:0:0:0:
352,208,82787,1,0,0:0:0:0:
344,128,82954,1,0,0:0:0:0:
264,112,83120,1,0,0:0:0:0:
184,104,83287,1,0,0:0:0:0:
136,168,83454,1,0,0:0:0:0:
112,248,83620,2,0,P|216:256|216:240,1,160
288,216,84120,5,0,0:0:0:0:
352,176,84287,1,0,0:0:0:0:
352,96,84454,1,0,0:0:0:0:
272,80,84787,2,0,P|224:48|176:64,1,80
168,96,85120,1,0,0:0:0:0:
216,160,85287,2,0,L|376:216,1,160
448,72,85954,1,0,0:0:0:0:
392,128,86120,1,0,0:0:0:0:
320,96,86287,1,0,0:0:0:0:
240,80,86454,2,0,L|144:64,1,80
176,216,86787,2,0,L|240:296,1,80
304,272,87120,5,0,0:0:0:0:
360,208,87287,2,0,L|336:128,1,80
264,96,87620,1,0,0:0:0:0:
200,144,87787,1,0,0:0:0:0:
272,176,87954,2,0,L|360:240,2,80
200,208,88454,2,0,P|240:296|320:288,1,160
352,248,88954,1,0,0:0:0:0:
408,192,89120,1,0,0:0:0:0:
376,120,89287,2,0,P|288:80|224:120,1,160
168,144,89787,2,0,L|112:224,1,80
48,240,90120,5,0,0:0:0:0:
120,280,90287,1,0,0:0:0:0:
200,272,90454,2,0,L|296:264,1,80
352,240,90787,1,0,0:0:0:0:
376,208,90870,1,0,0:0:0:0:
376,168,90954,1,0,0:0:0:0:
368,128,91037,1,0,0:0:0:0:
352,88,91120,1,0,0:0:0:0:
328,56,91204,1,0,0:0:0:0:
288,56,91287,1,0,0:0:0:0:
248,56,91370,1,0,0:0:0:0:
208,56,91454,1,0,0:0:0:0:
168,56,91537,1,0,0:0:0:0:
128,56,91620,1,0,0:0:0:0:
88,56,91704,1,0,0:0:0:0:
48,56,91787,1,0,0:0:0:0:
24,88,91870,1,0,0:0:0:0:
32,128,91954,1,0,0:0:0:0:
24,168,92037,1,0,0:0:0:0:
32,208,92120,1,0,0:0:0:0:
40,248,92204,1,0,0:0:0:0:
80,264,92287,1,0,0:0:0:0:
120,272,92370,1,0,0:0:0:0:
160,288,92454,1,0,0:0:0:0:
200,272,92537,1,0,0:0:0:0:
264,224,92620,5,0,0:0:0:0:
232,248,92704,1,0,0:0:0:0:
304,224,92787,1,0,0:0:0:0:
336,208,92870,1,0,0:0:0:0:
360,176,92954,1,0,0:0:0:0:
368,136,93037,1,0,0:0:0:0:
376,96,93120,1,0,0:0:0:0:
304,56,93287,6,0,L|400:56,1,80
416,128,93787,2,0,L|320:128,1,80
432,256,94287,2,0,L|328:248,1,80
192,224,94787,2,0,L|192:128,1,80
352,160,95287,2,0,L|240:160,1,80
192,136,95620,5,0,0:0:0:0:
176,216,95787,1,0,0:0:0:0:
256,216,95954,2,0,B|296:208|304:160|368:88,1,160
416,248,96620,2,0,B|368:232|368:280|264:312,1,160
136,232,97287,2,0,B|192:232|152:176|240:96,2,160
288,176,98287,2,0,L|384:160,1,80
424,104,98620,1,0,0:0:0:0:
344,88,98954,1,0,0:0:0:0:
360,168,99120,1,0,0:0:0:0:
304,224,99287,2,0,B|280:192|256:264|152:288,2,160
264,152,100287,5,0,0:0:0:0:
216,88,100454,1,0,0:0:0:0:
184,160,100620,1,0,0:0:0:0:
80,280,100954,2,0,B|120:240|136:280|248:240,1,160
384,192,101620,2,0,B|384:152|352:176|248:232,1,160
120,144,102287,2,0,B|168:120|176:160|288:144,1,160
432,120,102954,6,0,B|384:88|368:128|256:128,1,160
176,256,103620,2,0,B|208:216|240:240|320:176,1,160
184,96,104287,2,0,B|232:144|176:168|304:184,1,160
301,183,104787,1,0,0:0:0:0:
456,232,104954,1,0,0:0:0:0:
296,208,105287,2,0,B|264:168|240:200|184:88,1,160
152,168,105954,5,0,0:0:0:0:
216,320,106287,2,0,B|216:256|264:264|296:160,1,160
192,48,106954,1,0,0:0:0:0:
80,208,107287,2,0,B|120:240|128:200|200:104,1,160
188,119,107787,1,0,0:0:0:0:
336,192,107954,1,0,0:0:0:0:
480,256,108287,2,0,B|416:224|480:224|472:96,1,160
472,113,108787,1,0,0:0:0:0:
320,96,108954,1,0,0:0:0:0:
208,208,109287,2,0,B|208:160|216:232|352:168,1,160
347,169,109787,1,0,0:0:0:0:
336,16,109954,1,0,0:0:0:0:
160,32,110287,6,0,B|144:96|160:112|296:88,1,160
408,168,110954,1,0,0:0:0:0:
248,168,111287,2,0,B|256:120|200:152|112:88,1,160
80,248,111954,2,0,L|176:232,2,80
72,336,112620,2,0,L|184:336,2,80
32,184,113287,2,0,B|88:168|80:216|208:160,1,160
336,104,113954,1,0,0:0:0:0:
336,264,114287,1,0,0:0:0:0:
192,192,114620,2,0,L|120:128,2,80
32,184,115287,2,0,P|72:264|144:232,1,160
152,96,115954,1,0,0:0:0:0:
160,256,116287,6,0,B|208:224|224:256|312:168,1,160
448,248,116954,1,0,0:0:0:0:
331,137,117287,1,0,0:0:0:0:
380,74,117454,1,0,0:0:0:0:
412,147,117620,1,0,0:0:0:0:
355,203,117787,1,0,0:0:0:0:
277,183,117954,1,0,0:0:0:0:
251,106,118120,1,0,0:0:0:0:
318,64,118287,1,0,0:0:0:0:
242,36,118454,1,0,0:0:0:0:
184,91,118620,1,0,0:0:0:0:
139,157,118787,6,0,L|212:196,1,80
209,194,119120,1,0,0:0:0:0:
280,231,119287,2,0,B|339:207|350:230|418:140,1,160
393,70,119787,1,0,0:0:0:0:
317,96,119954,2,0,B|278:125|305:150|158:168,1,160
131,236,120454,2,0,B|187:276|251:268|235:196|323:268|347:148|211:124|299:12|411:100|387:308|275:364|475:228|459:52|291:28|131:28|27:252,1,800
176,320,122454,5,0,0:0:0:0:
208,192,122620,2,0,B|248:168|272:216|352:128,1,160
360,272,123287,2,0,B|320:248|320:200|224:200,1,160
168,144,123787,1,0,0:0:0:0:
72,296,123954,2,0,L|120:288,1,40
80,192,124287,2,0,L|136:192,1,40
216,280,124620,2,0,P|264:264|264:224,1,80
280,152,125120,2,0,L|336:152,1,40
184,112,125454,1,0,0:0:0:0:
8,288,125620,6,0,B|24:272|24:248|72:272|72:232,1,80
184,216,126120,2,0,L|240:224,1,40
336,248,126454,2,0,L|336:208,1,40
264,136,126787,1,0,0:0:0:0:
88,232,126954,2,0,B|104:200|112:192|112:192|160:176,1,80
104,128,127620,2,0,B|120:88|136:96|152:64,1,80
151,64,128120,1,0,0:0:0:0:
239,60,128454,1,0,0:0:0:0:
310,117,128620,2,0,B|342:109|366:109|390:109,1,80
320,64,129120,1,0,0:0:0:0:
176,208,129620,6,0,B|176:256|224:240|208:336|304:272,1,160
336,208,130287,1,0,0:0:0:0:
336,128,130454,1,0,0:0:0:0:
256,144,130620,2,0,B|192:128|176:144|144:112|96:160,1,160
96,240,131120,1,0,0:0:0:0:
144,304,131287,2,0,B|176:336|208:288|272:304|240:256|240:224,1,160
304,176,131787,1,0,0:0:0:0:
224,160,131954,2,0,B|224:96|208:64|160:64|128:128,2,160
192,240,132787,5,0,0:0:0:0:
128,288,132954,1,0,0:0:0:0:
208,304,133120,2,0,L|288:336,2,80
240,240,133620,1,0,0:0:0:0:
288,176,133787,1,0,0:0:0:0:
336,112,133954,1,0,0:0:0:0:
192,176,134287,2,0,B|160:128|128:144|112:80|96:32,2,160
160,256,135120,1,0,0:0:0:0:
80,288,135287,1,0,0:0:0:0:
96,208,135454,1,0,0:0:0:0:
144,336,135620,1,0,0:0:0:0:
224,304,135787,1,0,0:0:0:0:
272,240,135954,6,0,B|272:176|304:176|224:160|224:96,1,160
304,80,136454,1,0,0:0:0:0:
352,144,136620,2,0,B|400:192|416:176|400:240|320:240,1,160
256,192,137120,1,0,0:0:0:0:
176,160,137287,2,0,B|144:128|112:144|112:64|16:96,1,160
32,176,137787,1,0,0:0:0:0:
80,240,137954,2,0,B|128:272|112:304|224:304,1,160
288,256,138454,2,0,L|352:208,1,80
368,128,138787,1,0,0:0:0:0:
288,112,138954,6,0,L|208:96,1,80
128,112,139287,1,0,0:0:0:0:
80,176,139454,2,0,L|160:208,1,80
224,240,139787,1,0,0:0:0:0:
288,288,139954,2,0,B|352:272|352:320|400:240|384:192,1,160
336,128,140454,1,0,0:0:0:0:
256,144,140620,2,0,B|256:96|224:96|160:64|96:112,1,160
80,160,141120,1,0,0:0:0:0:
112,224,141287,6,0,B|176:208|224:256|336:224|320:112|432:144|416:32|304:64|240:32|192:112|160:16|64:64|144:176|0:224|32:320|208:352|336:288|416:320|448:304|400:336|432:240|432:192|480:224|464:112|432:176|432:80|352:16|432:112|432:112,1,1040
336,64,143620,1,0,0:0:0:0:
256,32,143787,1,0,0:0:0:0:
240,112,143954,2,0,B|192:80|176:112|112:96|96:160,1,160
32,192,144454,1,0,0:0:0:0:
80,256,144620,1,0,0:0:0:0:
144,160,144787,1,0,0:0:0:0:
176,240,144954,2,0,B|224:224|208:288|304:256|288:192,1,160
288,112,145454,1,0,0:0:0:0:
208,112,145620,6,0,B|160:80|128:80|96:48|48:128,1,160
16,160,146120,1,0,0:0:0:0:
32,240,146287,1,0,0:0:0:0:
48,320,146454,1,0,0:0:0:0:
112,272,146620,2,0,B|144:240|176:288|224:224|160:176|224:176,1,160
272,240,147120,1,0,0:0:0:0:
352,256,147287,1,0,0:0:0:0:
368,176,147454,1,0,0:0:0:0:
288,160,147620,2,0,B|256:112|224:144|224:80|224:64|160:80,1,160
80,128,148120,1,0,0:0:0:0:
64,208,148287,6,0,B|96:240|96:288|144:288|208:272,1,160
256,208,148954,1,0,0:0:0:0:
336,240,149120,1,0,0:0:0:0:
336,160,149287,2,0,B|304:112|336:96|256:64|208:128,1,160
144,144,149787,1,0,0:0:0:0:
128,224,149954,1,0,0:0:0:0:
80,160,150120,1,0,0:0:0:0:
48,224,150287,1,0,0:0:0:0:
96,288,150454,1,0,0:0:0:0:
176,288,150620,2,0,B|224:256|240:288|224:224|288:224|304:304,1,160
384,304,151120,1,0,0:0:0:0:
384,224,151287,2,0,B|352:192|288:208|288:144|368:112,1,160
288,64,151787,1,0,0:0:0:0:
256,144,151954,5,0,0:0:0:0:
208,80,152120,1,0,0:0:0:0:
128,96,152287,2,0,B|80:48|48:64|32:16|-16:128,1,160
0,176,152787,2,0,L|48:256,1,80
128,240,153120,1,0,0:0:0:0:
208,224,153287,2,0,B|256:240|272:272|320:240|336:176,1,160
336,112,153787,1,0,0:0:0:0:
96,96,154287,5,0,0:0:0:0:
48,160,154454,1,0,0:0:0:0:
128,176,154620,2,0,B|192:176|144:224|256:256|272:160,1,160
224,112,155120,1,0,0:0:0:0:
208,272,155287,1,0,0:0:0:0:
352,208,155454,1,0,0:0:0:0:
352,128,155620,2,0,B|336:80|288:64|320:16|208:16,1,160
176,48,156120,2,0,L|96:64,1,80
48,128,156454,1,0,0:0:0:0:
240,272,156954,5,0,0:0:0:0:
448,80,157120,1,0,0:0:0:0:
256,144,157287,2,0,B|256:96|240:96|288:32|224:16|176:32,1,160
112,64,157787,2,0,L|32:80,1,80
64,144,158120,2,0,L|144:176,1,80
128,320,158454,1,0,0:0:0:0:
416,176,158620,1,0,0:0:0:0:
256,48,158787,1,0,0:0:0:0:
176,176,158954,2,0,L|272:176,1,80
240,256,159454,6,0,L|336:256,1,80
352,112,159787,2,0,L|272:112,1,80
192,64,160120,1,0,0:0:0:0:
96,240,160287,1,0,0:0:0:0:
256,192,160454,1,0,0:0:0:0:
336,288,160620,2,0,B|336:224|320:224|400:176|400:128,1,160
416,96,161120,1,0,0:0:0:0:
240,128,161287,2,0,L|160:128,1,80
80,192,161620,1,0,0:0:0:0:
160,272,161787,1,0,0:0:0:0:
256,272,161954,2,0,B|304:240|320:256|384:208|336:160,1,160
400,320,162454,6,0,L|432:224,1,80
384,192,162787,1,0,0:0:0:0:
352,176,162870,1,0,0:0:0:0:
320,160,162954,1,0,0:0:0:0:
288,144,163037,1,0,0:0:0:0:
256,128,163120,1,0,0:0:0:0:
224,112,163204,1,0,0:0:0:0:
192,96,163287,1,0,0:0:0:0:
160,80,163370,1,0,0:0:0:0:
128,64,163454,1,0,0:0:0:0:
96,48,163537,1,0,0:0:0:0:
64,32,163620,1,0,0:0:0:0:
32,32,163704,1,0,0:0:0:0:
32,64,163787,1,0,0:0:0:0:
32,96,163870,1,0,0:0:0:0:
32,128,163954,1,0,0:0:0:0:
32,160,164037,1,0,0:0:0:0:
32,208,164120,1,0,0:0:0:0:
32,240,164204,1,0,0:0:0:0:
32,272,164287,1,0,0:0:0:0:
64,288,164370,1,0,0:0:0:0:
96,288,164454,1,0,0:0:0:0:
128,288,164537,1,0,0:0:0:0:
160,288,164620,1,0,0:0:0:0:
192,288,164704,1,0,0:0:0:0:
224,288,164787,1,0,0:0:0:0:
256,288,164870,1,0,0:0:0:0:
288,288,164954,1,0,0:0:0:0:
320,288,165037,1,0,0:0:0:0:
352,288,165120,1,0,0:0:0:0:
384,288,165204,1,0,0:0:0:0:
416,288,165287,1,0,0:0:0:0:
416,208,165454,6,0,L|368:208,1,40
416,144,165787,2,0,L|368:144,1,40
416,80,166120,2,0,L|368:80,1,40
288,32,166454,2,0,L|288:80,1,40
208,80,166787,2,0,L|160:80,1,40
160,176,167120,2,0,L|208:176,1,40
176,304,167620,5,0,0:0:0:0:
240,224,167787,1,0,0:0:0:0:
272,304,167954,2,0,B|336:288|320:240|400:240|400:336,1,160
336,160,168620,2,0,B|320:112|368:96|336:32|256:32,1,160
208,48,169120,1,0,0:0:0:0:
224,128,169287,1,0,0:0:0:0:
144,112,169454,1,0,0:0:0:0:
160,192,169620,2,0,B|112:208|144:224|64:192|48:240|96:320,1,160
83,296,170120,1,0,0:0:0:0:
240,272,170287,5,0,0:0:0:0:
288,208,170454,1,0,0:0:0:0:
352,256,170620,2,0,B|400:256|368:208|416:192|384:160|448:128,1,160
368,80,171120,1,0,0:0:0:0:
288,96,171287,1,0,0:0:0:0:
208,80,171454,1,0,0:0:0:0:
192,160,171620,2,0,B|144:128|112:176|80:208|48:256,1,160
128,288,172120,1,0,0:0:0:0:
256,304,172287,1,0,0:0:0:0:
256,192,172454,1,0,0:0:0:0:
336,192,172620,6,0,B|384:224|416:208|384:128|480:144,1,160
400,96,173120,2,0,L|320:80,1,80
240,64,173454,1,0,0:0:0:0:
160,80,173620,2,0,P|80:96|128:128,1,160
48,176,174120,1,0,0:0:0:0:
192,176,174287,1,0,0:0:0:0:
128,272,174454,1,0,0:0:0:0:
208,272,174620,2,0,B|256:272|256:320|336:272|320:192,1,160
256,192,175120,1,0,0:0:0:0:
384,256,175287,1,0,0:0:0:0:
384,128,175454,1,0,0:0:0:0:
304,96,175620,6,0,B|240:80|224:48|160:80|192:144,1,160
112,160,176120,1,0,0:0:0:0:
48,208,176287,2,0,B|16:256|48:272|80:272|80:320|16:336,1,160
20,334,176787,1,0,0:0:0:0:
0,144,176954,2,0,B|16:128|16:80|64:144|48:176|128:160,1,160
176,112,177454,1,0,0:0:0:0:
176,240,177620,1,0,0:0:0:0:
256,192,177787,1,0,0:0:0:0:
256,272,177954,2,0,L|336:272,1,80
384,208,178287,6,0,B|400:144|368:128|464:96|400:32,1,160
336,64,178787,2,0,L|240:64,1,80
176,96,179120,1,0,0:0:0:0:
96,128,179287,2,0,B|32:144|16:176|64:224|-32:240,1,160
48,288,179787,1,0,0:0:0:0:
112,320,179954,2,0,B|160:320|192:352|208:288|288:304,1,160
288,224,180454,1,0,0:0:0:0:
400,144,180620,1,0,0:0:0:0:
272,96,180787,1,0,0:0:0:0:
352,64,180954,1,0,0:0:0:0:
368,224,181120,1,0,0:0:0:0:
224,160,181287,6,0,B|160:144|144:128|112:160|64:112,1,160
0,112,181787,1,0,0:0:0:0:
0,192,181954,2,0,B|0:240|-32:256|0:320|96:288,1,160
128,256,182454,1,0,0:0:0:0:
176,192,182620,2,0,B|224:224|208:240|256:240|272:176|352:192,1,160
336,112,183120,1,0,0:0:0:0:
256,96,183287,2,0,B|256:48|208:48|192:16|144:16|128:80,1,160
48,48,183787,1,0,0:0:0:0:
96,208,183954,1,0,0:0:0:0:
176,96,184120,1,0,0:0:0:0:
256,304,184454,5,0,0:0:0:0:
256,64,184620,1,0,0:0:0:0:
96,208,184787,1,0,0:0:0:0:
400,96,185120,1,0,0:0:0:0:
224,176,185287,1,0,0:0:0:0:
400,304,185454,1,0,0:0:0:0:
352,192,185620,1,0,0:0:0:0:
96,48,185954,1,0,0:0:0:0:
0,160,186120,1,0,0:0:0:0:
128,304,186287,1,0,0:0:0:0:
112,176,186454,1,0,0:0:0:0:
176,224,186620,2,0,B|208:176|224:224|256:128|272:80,1,160
224,32,187120,1,0,0:0:0:0:
288,80,187287,1,0,0:0:0:0:
368,64,187454,5,0,0:0:0:0:
352,144,187620,1,0,0:0:0:0:
304,208,187787,1,0,0:0:0:0:
336,272,187954,1,0,0:0:0:0:
256,288,188120,1,0,0:0:0:0:
208,224,188287,2,0,B|128:224|176:192|144:160|80:160|144:112,1,160
16,160,188787,1,0,0:0:0:0:
208,112,188954,1,0,0:0:0:0:
112,32,189120,1,0,0:0:0:0:
192,48,189287,5,0,0:0:0:0:
96,176,189454,1,0,0:0:0:0:
32,64,189620,1,0,0:0:0:0:
176,176,189787,1,0,0:0:0:0:
208,112,189954,1,0,0:0:0:0:
112,32,190120,1,0,0:0:0:0:
32,128,190287,1,0,0:0:0:0:
192,48,190454,1,0,0:0:0:0:
96,176,190620,1,0,0:0:0:0:
32,64,190787,1,0,0:0:0:0:
176,176,190954,5,0,0:0:0:0:
32,128,191120,1,0,0:0:0:0:
192,48,191287,1,0,0:0:0:0:
96,176,191454,1,0,0:0:0:0:
112,32,191620,1,0,0:0:0:0:
32,128,191787,1,0,0:0:0:0:
112,112,191954,2,0,B|144:112|160:176|224:144|256:80,1,160
256,192,192454,12,0,194620,0:0:0:0:
176,144,202620,6,0,L|256:144,1,80
320,208,202954,1,0,0:0:0:0:
288,288,203120,2,0,L|192:288,1,80
144,240,203454,1,0,0:0:0:0:
224,224,203620,1,0,0:0:0:0:
272,64,203954,2,0,B|320:112|288:128|384:112|368:32,1,160
320,16,204454,1,0,0:0:0:0:
352,144,204620,1,0,0:0:0:0:
128,160,204787,6,0,B|160:160|160:128|208:160|160:208|176:64|272:112,1,160
208,32,205287,1,0,0:0:0:0:
240,192,205454,1,0,0:0:0:0:
96,64,205620,1,0,0:0:0:0:
82,235,205787,2,0,L|98:315,2,80
32,48,206287,1,0,0:0:0:0:
90,138,206454,1,0,0:0:0:0:
183,92,206620,2,0,B|231:108|215:156|295:108|343:140,2,160
80,176,207454,1,0,0:0:0:0:
32,240,207620,2,0,B|-16:288|32:304|96:272|128:336,1,160
176,272,208120,1,0,0:0:0:0:
240,224,208287,2,0,B|240:160|192:160|192:112|128:112,1,160
208,64,208787,1,0,0:0:0:0:
112,192,208954,1,0,0:0:0:0:
304,176,209120,1,0,0:0:0:0:
192,160,209287,5,0,0:0:0:0:
96,272,209454,1,0,0:0:0:0:
176,272,209620,2,0,B|224:240|240:288|336:256,1,160
416,160,210287,1,0,0:0:0:0:
256,64,210454,1,0,0:0:0:0:
320,256,210620,1,0,0:0:0:0:
208,112,210787,1,0,0:0:0:0:
400,240,210954,1,0,0:0:0:0:
304,48,211120,1,0,0:0:0:0:
192,208,211287,1,0,0:0:0:0:
400,112,211454,1,0,0:0:0:0:
176,144,211620,1,0,0:0:0:0:
352,64,211787,1,0,0:0:0:0:
211,263,211954,1,0,0:0:0:0:
288,288,212120,1,0,0:0:0:0:
256,64,212287,1,0,0:0:0:0:
416,176,212454,1,0,0:0:0:0:
202,91,212620,1,0,0:0:0:0:
352,288,212787,1,0,0:0:0:0:
256,192,213401,12,0,220733,0:0:0:0:
256,192,223954,5,0,0:0:0:0:
336,192,224121,2,0,P|384:176|368:144,1,80
320,112,224454,1,0,0:0:0:0:
240,112,224621,2,0,P|208:80|176:80,2,80
160,144,225120,1,0,0:0:0:0:
160,224,225287,1,0,0:0:0:0:
240,256,225454,2,0,P|272:224|304:256,2,80
256,176,225953,1,0,0:0:0:0:
240,96,226120,1,0,0:0:0:0:
320,96,226286,1,0,0:0:0:0:
336,176,226454,1,0,0:0:0:0:
192,144,226620,1,0,0:0:0:0:
384,128,226787,1,0,0:0:0:0:
272,48,226954,1,0,0:0:0:0:
304,224,227120,1,0,0:0:0:0:
224,224,227287,6,0,P|176:224|160:192,2,80
224,144,227787,1,0,0:0:0:0:
288,96,227953,1,0,0:0:0:0:
336,160,228120,2,0,P|384:192|416:160,1,80
400,112,228454,1,0,0:0:0:0:
416,256,228621,1,0,0:0:0:0:
336,272,228787,2,0,P|304:224|272:224,1,80
208,224,229120,2,0,P|144:208|144:192,1,80
192,144,229453,1,0,0:0:0:0:
160,288,229620,1,0,0:0:0:0:
80,192,229787,1,0,0:0:0:0:
288,256,229953,1,0,0:0:0:0:
288,160,230120,1,0,0:0:0:0:
80,256,230286,5,0,0:0:0:0:
128,192,230453,2,0,P|128:144|160:144,2,80
150,140,230953,1,0,0:0:0:0:
224,112,231119,2,0,B|272:112|272:64|352:96|288:176|352:224|368:160|432:176,1,240
416,96,231787,1,0,0:0:0:0:
416,256,231953,1,0,0:0:0:0:
352,224,232120,2,0,P|304:176|288:192,1,80
240,192,232453,1,0,0:0:0:0:
240,192,232619,1,0,0:0:0:0:
160,192,232786,1,0,0:0:0:0:
160,192,232953,1,0,0:0:0:0:
112,128,233119,2,0,P|144:96|160:112,1,80
288,128,233787,6,0,P|352:128|352:144,1,80
336,208,234120,1,0,0:0:0:0:
384,64,234286,1,0,0:0:0:0:
448,176,234453,1,0,0:0:0:0:
304,64,234619,1,0,0:0:0:0:
240,112,234786,2,0,P|192:128|160:112,1,80
80,128,235119,1,0,0:0:0:0:
112,208,235286,1,0,0:0:0:0:
192,192,235452,1,0,0:0:0:0:
224,272,235619,1,0,0:0:0:0:
304,272,235786,2,0,P|352:256|336:224,1,80
288,176,236120,1,0,0:0:0:0:
432,288,236287,1,0,0:0:0:0:
432,208,236454,2,0,P|400:160|368:160,1,80
320,224,236787,5,0,0:0:0:0:
448,96,236954,1,0,0:0:0:0:
320,128,237120,1,0,0:0:0:0:
496,224,237287,1,0,0:0:0:0:
432,176,237453,2,0,P|384:160|352:192,1,80
336,96,237786,1,0,0:0:0:0:
352,224,237953,1,0,0:0:0:0:
256,192,238120,1,0,0:0:0:0:
416,160,238286,1,0,0:0:0:0:
448,96,238453,2,0,P|416:48|384:48,1,80
320,64,238786,1,0,0:0:0:0:
240,80,238954,1,0,0:0:0:0:
288,144,239120,2,0,P|288:192|304:224,1,80
301,220,239453,1,0,0:0:0:0:
224,224,239620,6,0,B|160:224|160:192|112:256|48:176,1,160
80,112,240120,1,0,0:0:0:0:
160,128,240286,2,0,B|208:144|224:128|256:192|256:272,1,160
176,256,240787,1,0,0:0:0:0:
240,320,240953,2,0,B|288:320|288:352|368:320|384:256,1,160
352,192,241453,1,0,0:0:0:0:
320,128,241620,2,0,B|320:80|288:80|288:48|352:32|384:96,1,160
448,160,242120,1,0,0:0:0:0:
400,224,242287,2,0,B|352:240|336:288|288:224|240:240,1,160
176,192,242787,1,0,0:0:0:0:
128,128,242954,6,0,B|192:96|192:96|224:144|272:112,1,160
336,160,243454,1,0,0:0:0:0:
304,240,243620,2,0,B|224:256|240:224|176:272|144:240,1,160
80,192,244120,1,0,0:0:0:0:
64,112,244287,2,0,B|112:112|112:144|160:112|176:160|224:112,1,160
304,128,244787,1,0,0:0:0:0:
384,160,244954,2,0,L|448:160,4,40
320,208,245454,1,0,0:0:0:0:
272,272,245620,2,0,L|320:272,4,40
208,224,246120,1,0,0:0:0:0:
160,160,246287,6,0,L|208:160,4,40
176,80,246787,1,0,0:0:0:0:
288,96,246954,1,0,0:0:0:0:
64,96,247120,1,0,0:0:0:0:
64,192,247287,1,0,0:0:0:0:
96,272,247454,2,0,P|144:224|176:240,1,80
208,192,247787,1,0,0:0:0:0:
288,208,247954,1,0,0:0:0:0:
368,224,248120,2,0,P|432:208|448:240,1,80
416,288,248454,1,0,0:0:0:0:
416,288,248620,1,0,0:0:0:0:
336,304,248787,2,0,P|288:272|240:272,1,80
192,272,249120,1,0,0:0:0:0:
272,176,249286,5,0,0:0:0:0:
448,64,249453,1,0,0:0:0:0:
96,64,249620,1,0,0:0:0:0:
256,352,249786,1,0,0:0:0:0:
432,256,249954,1,0,0:0:0:0:
416,176,250120,1,0,0:0:0:0:
224,112,250287,2,0,L|144:128,2,80
160,208,251120,2,0,L|288:192,1,120
368,176,251786,1,0,0:0:0:0:
400,160,251953,1,0,0:0:0:0:
352,128,252119,2,0,L|256:32,1,120
240,112,252954,2,0,B|208:128|192:112|176:176,1,80
208,192,253454,1,0,0:0:0:0:
144,208,253620,6,0,P|112:192|96:224,1,80
160,272,254120,2,0,L|208:272,1,40
272,272,254620,2,0,B|304:240|336:272|320:304,2,80
304,192,255620,2,0,B|272:192|272:176|240:208|224:176,2,80
288,128,256454,2,0,L|240:128,1,40
224,64,256787,2,0,L|272:64,1,40
368,64,257120,2,0,L|352:112,1,40
352,192,257454,2,0,L|304:192,1,40
240,256,257787,6,0,L|288:256,1,40
352,128,258287,2,0,P|304:128|304:96,2,80
256,48,259120,2,0,L|208:80,1,40
144,96,259620,2,0,B|144:128|128:144|160:160|160:176,1,80
144,256,260120,2,0,L|192:256,1,40
288,272,260454,2,0,B|320:256|336:240|368:256,1,80
432,240,260954,1,0,0:0:0:0:
384,160,261120,2,0,L|352:112,1,40
304,80,261454,1,0,0:0:0:0:
240,96,261620,2,0,B|224:80|192:96|176:48,1,80
96,96,262120,5,0,0:0:0:0:
128,176,262287,2,0,P|112:208|144:224,1,80
208,224,262787,2,0,L|256:224,1,40
336,224,263120,1,0,0:0:0:0:
416,208,263287,2,0,B|416:176|464:176|448:128,1,80
400,80,263787,2,0,L|352:80,1,40
304,80,264120,1,0,0:0:0:0:
208,80,264287,2,0,P|160:80|160:112,1,80
112,160,264787,2,0,L|112:208,1,40
112,200,265120,1,0,0:0:0:0:
96,272,265287,2,0,B|96:304|112:320|144:304|128:336,1,80
128,334,265787,5,0,0:0:0:0:
240,336,265954,2,0,P|288:336|288:304,1,80
224,256,266620,2,0,L|304:256,1,80
320,192,267287,2,0,L|240:192,1,80
240,128,267954,2,0,L|320:128,1,80
400,128,268620,1,0,0:0:0:0:
368,128,268954,1,0,0:0:0:0:
288,128,269287,2,0,P|272:80|240:80,1,80
248,77,269954,1,0,0:0:0:0:
160,112,270287,2,0,P|112:112|96:144,1,80
96,135,270954,1,0,0:0:0:0:
80,176,271287,1,0,0:0:0:0:
80,224,271454,1,0,0:0:0:0:
208,288,271787,5,0,0:0:0:0:
240,208,271954,1,0,0:0:0:0:
288,272,272120,2,0,B|384:272|384:224|464:288|544:224,1,240
400,144,272954,1,0,0:0:0:0:
336,96,273120,1,0,0:0:0:0:
256,96,273287,1,0,0:0:0:0:
176,112,273454,1,0,0:0:0:0:
224,176,273620,1,0,0:0:0:0:
272,240,273787,1,0,0:0:0:0:
304,176,273954,1,0,0:0:0:0:
352,240,274120,1,0,0:0:0:0:
304,304,274287,5,0,0:0:0:0:
224,288,274454,1,0,0:0:0:0:
160,240,274620,2,0,B|112:208|128:192|64:160|128:96,1,160
118,106,275120,1,0,0:0:0:0:
192,112,275287,2,0,B|256:128|240:160|304:128|336:96,1,160
335,96,275787,1,0,0:0:0:0:
352,176,275954,2,0,B|304:208|320:240|224:208|176:224,1,160
160,160,276454,1,0,0:0:0:0:
176,240,276620,1,0,0:0:0:0:
256,208,276787,1,0,0:0:0:0:
256,288,276954,2,0,B|304:304|304:336|384:320|384:240,1,160
381,260,277454,1,0,0:0:0:0:
368,176,277620,2,0,B|320:144|352:128|304:96|240:80,1,160
176,112,278287,6,0,B|128:96|128:128|80:112|64:176|112:192,1,160
112,192,278787,1,0,0:0:0:0:
176,240,278954,2,0,P|256:288|272:240,1,160
288,176,279454,1,0,0:0:0:0:
304,96,279620,2,0,B|272:64|224:64|160:64|144:112,2,160
224,112,280620,2,0,B|176:112|160:160|160:176|112:128|176:192|128:240,1,160
304,240,281287,2,0,B|256:256|240:224|192:288|208:176,1,160
208,175,281787,1,0,0:0:0:0:
128,160,281954,6,0,B|80:144|64:176|80:256|0:224,1,160
112,336,282620,2,0,B|176:288|208:320|240:240,1,160
304,192,283120,1,0,0:0:0:0:
352,128,283287,2,0,B|320:96|352:64|288:48|224:64,1,160
144,80,283787,1,0,0:0:0:0:
80,128,283954,2,0,B|48:176|96:176|64:240|32:240|64:288,1,160
144,288,284454,1,0,0:0:0:0:
224,272,284620,2,0,B|288:256|288:288|352:224|288:176,1,160
288,112,285120,1,0,0:0:0:0:
208,80,285287,2,0,B|144:64|144:112|80:80|144:16,1,160
224,32,285787,1,0,0:0:0:0:
192,176,285954,5,0,0:0:0:0:
352,48,286121,1,0,0:0:0:0:
400,112,286287,2,0,B|384:160|432:176|352:208|288:224,2,160
308,218,287120,1,0,0:0:0:0:
272,144,287287,2,4,B|208:128|224:96|144:80|176:16,1,160
112,80,287954,2,0,L|112:160,1,80
176,192,288620,2,0,L|176:96,1,80
256,80,289287,2,0,L|256:176,1,80
336,176,289954,2,0,L|336:128,2,40
336,256,290620,2,0,L|256:256,1,80
256,208,291120,2,0,L|256:160,2,40
256,128,291621,5,0,0:0:0:0:
192,80,291937,1,0,0:0:0:0:
112,96,291954,2,0,B|64:96|48:144|16:192|80:208,1,160
73,206,292454,1,0,0:0:0:0:
144,240,292620,2,0,B|144:288|208:272|224:336|304:304,1,160
256,192,293287,1,0,0:0:0:0:
256,64,293454,5,0,0:0:0:0:
368,192,293621,1,0,0:0:0:0:
144,192,293787,1,0,0:0:0:0:
256,288,293954,1,0,0:0:0:0:
352,80,294121,1,0,0:0:0:0:
176,80,294287,1,0,0:0:0:0:
256,192,294454,1,0,0:0:0:0:
256,112,294620,2,0,B|304:112|320:64|336:144|368:144|400:80,2,160
256,112,295454,1,0,0:0:0:0:
256,192,295954,5,0,0:0:0:0:
368,96,296120,1,0,0:0:0:0:
160,96,296287,1,0,0:0:0:0:
256,112,296453,1,0,0:0:0:0:
160,192,296620,1,0,0:0:0:0:
256,288,296787,1,0,0:0:0:0:
368,192,296954,1,0,0:0:0:0:
368,96,297120,1,0,0:0:0:0:
416,160,297454,2,0,B|416:208|384:240|464:256|432:320,1,160
416,160,297954,1,0,0:0:0:0:
432,80,298120,1,0,0:0:0:0:
352,96,298287,6,0,B|288:64|256:96|192:64,1,160
160,160,298787,1,0,0:0:0:0:
256,240,298954,1,0,0:0:0:0:
320,160,299121,1,0,0:0:0:0:
240,64,299287,1,0,0:0:0:0:
176,240,299454,1,0,0:0:0:0:
320,96,299621,1,0,0:0:0:0:
160,64,299787,1,0,0:0:0:0:
336,240,299954,1,0,0:0:0:0:
240,160,300120,1,0,0:0:0:0:
96,96,300287,1,0,0:0:0:0:
112,192,300453,1,0,0:0:0:0:
96,272,300620,2,0,B|128:320|176:320|208:272|224:336,2,160
352,112,301620,5,0,0:0:0:0:
352,112,301787,1,0,0:0:0:0:
352,112,301954,1,0,0:0:0:0:
352,112,302120,1,0,0:0:0:0:
352,112,302287,1,0,0:0:0:0:
352,112,302453,1,0,0:0:0:0:
352,112,302621,1,0,0:0:0:0:
352,112,302788,1,0,0:0:0:0:
352,112,302954,1,0,0:0:0:0:
352,112,303120,1,0,0:0:0:0:
352,112,303287,1,0,0:0:0:0:
352,112,303454,1,0,0:0:0:0:
352,112,303620,1,0,0:0:0:0:
352,112,303787,1,0,0:0:0:0:
352,112,303954,1,0,0:0:0:0:
192,128,304287,6,0,B|128:96|80:80|80:176,2,160
208,208,305120,1,0,0:0:0:0:
224,288,305287,2,0,B|288:272|288:224|352:288|336:336,2,160
160,240,306120,1,0,0:0:0:0:
160,160,306287,1,0,0:0:0:0:
240,160,306454,1,0,0:0:0:0:
288,224,306620,2,0,L|368:208,2,80
208,240,307120,1,0,0:0:0:0:
128,208,307287,6,0,P|96:160|128:144,2,80
144,288,307787,1,0,0:0:0:0:
224,304,307954,2,0,P|272:304|288:336,2,80
223,222,308454,1,0,0:0:0:0:
160,160,308620,1,0,0:0:0:0:
176,80,308787,2,0,L|256:80,1,80
304,144,309120,1,0,0:0:0:0:
320,224,309287,2,0,P|384:224|384:192,2,80
240,208,309787,1,0,0:0:0:0:
161,190,309954,6,0,B|129:158|81:174|81:110|161:94,1,160
157,96,310454,1,0,0:0:0:0:
240,96,310620,2,0,P|288:96|288:64,2,80
157,96,311120,1,0,0:0:0:0:
80,128,311287,2,0,B|64:176|80:208|32:240|32:288,1,160
112,288,311788,1,0,0:0:0:0:
256,288,311954,5,0,0:0:0:0:
400,176,312121,1,0,0:0:0:0:
272,64,312288,1,0,0:0:0:0:
160,176,312454,1,0,0:0:0:0:
320,256,312621,1,0,0:0:0:0:
320,112,312787,1,0,0:0:0:0:
208,128,312954,1,0,0:0:0:0:
208,224,313120,1,0,0:0:0:0:
368,160,313287,1,0,0:0:0:0:
256,96,313454,1,0,0:0:0:0:
272,240,313620,1,0,0:0:0:0:
320,112,313787,1,0,0:0:0:0:
352,224,313953,1,0,0:0:0:0:
160,176,314120,1,0,0:0:0:0:
160,176,314287,1,0,0:0:0:0:
368,160,314454,1,0,0:0:0:0:
416,224,314620,6,0,B|384:288|352:288|304:336,2,160
384,144,315454,1,0,0:0:0:0:
304,144,315620,2,0,P|256:128|224:128,2,80
240,192,316120,1,0,0:0:0:0:
240,112,316287,1,0,0:0:0:0:
304,160,316454,1,0,0:0:0:0:
192,160,316620,1,0,0:0:0:0:
176,80,316787,2,0,P|224:64|272:96,1,80
256,192,317287,12,0,322953,0:0:0:0:
