osu file format v9

[General]
AudioFilename: EGOIST - 02. .mp3
AudioLeadIn: 0
PreviewTime: -1
Countdown: 0
SampleSet: Normal
StackLeniency: 0.7
Mode: 0
LetterboxInBreaks: 1

[Editor]
DistanceSpacing: 1.5
BeatDivisor: 4
GridSize: 8

[Metadata]
Title:Euterpe
Artist:Supercell
Creator:fonchocolate
Version:Normal
Source:
Tags:guilty crown supercell inori

[Difficulty]
HPDrainRate:4
CircleSize:3
OverallDifficulty:5
ApproachRate:4
SliderMultiplier:1.4
SliderTickRate:1

[Events]
//Background and Video events
0,0,"1.jpg"
//Break Periods
2,123708,138195
//Storyboard Layer 0 (Background)
//Storyboard Layer 1 (Fail)
//Storyboard Layer 2 (Pass)
//Storyboard Layer 3 (Foreground)
//Storyboard Sound Samples
//Background Colour Transformations
3,100,163,162,255

[TimingPoints]
12125,666.966666666667,3,1,0,100,1,0
23129,-133.333333333333,3,2,0,35,0,0
25297,-133.333333333333,3,2,0,5,0,0
27298,-133.333333333333,3,2,0,35,0,0
29299,-133.333333333333,3,2,0,5,0,0
30966,-133.333333333333,3,2,0,35,0,0
33968,-133.333333333333,3,2,0,5,0,0
34301,-133.333333333333,3,2,0,35,0,0
37302,-133.333333333333,3,2,0,5,0,0
38303,-133.333333333333,3,2,0,35,0,0
41638,-133.333333333333,3,2,0,5,0,0
42305,-133.333333333333,3,2,0,35,0,0
45306,-133.333333333333,3,2,0,5,0,0
46640,-133.333333333333,3,2,0,35,0,0
51476,-133.333333333333,3,2,0,5,0,0
55311,-133.333333333333,3,2,0,35,0,0
57311,-133.333333333333,3,2,0,15,0,0
59312,-133.333333333333,3,2,0,35,0,0
61313,-133.333333333333,3,2,0,15,0,0
63314,-133.333333333333,3,2,0,35,0,0
73402,-133.333333333333,3,2,0,15,0,0
74319,-133.333333333333,3,2,0,35,0,0
83323,-133.333333333333,3,2,0,15,0,0
90326,-133.333333333333,3,2,0,55,0,1
90743,-133.333333333333,3,1,0,55,0,0
141349,-133.333333333333,3,1,0,25,0,0
143350,-133.333333333333,3,2,0,55,0,0
147352,-133.333333333333,3,1,0,55,0,0

[Colours]
Combo1 : 0,183,183
Combo2 : 0,60,60
Combo3 : 150,199,183
Combo4 : 40,32,43

[HitObjects]
96,56,23463,2,0,B|96:160|168:256|304:288,1,314.999990612269
400,280,26131,1,0
400,168,26798,1,0
296,112,27465,6,0,B|192:72|80:112,1,209.999993741512
88,168,29132,1,0
88,224,29466,1,0
192,280,30133,2,0,B|248:312|304:272,1,104.999996870756
344,176,31467,6,0,B|288:152|232:176,1,104.999996870756
152,96,32800,1,0
112,136,33134,2,0,B|112:176|136:184,2,52.4999984353781
56,136,34134,2,0,B|56:232|128:272,1,157.499995306134
184,272,35468,1,0
240,272,35802,1,0
296,272,36135,2,0,B|280:208|344:184,2,104.999996870756
352,272,37803,1,0
408,272,38136,1,0
432,120,38803,6,0,B|432:16,1,104.999996870756
320,16,40137,2,0,B|320:120,1,104.999996870756
264,112,41138,2,0,B|264:168,1,52.4999984353781
208,160,41805,2,0,B|208:216,1,52.4999984353781
256,104,42805,6,0,B|208:64|144:112,2,104.999996870756
288,152,44472,2,0,B|288:208,1,52.4999984353781
344,200,45139,2,0,B|344:272,1,52.4999984353781
344,256,46140,1,0
80,64,46807,5,0
56,112,47140,1,0
32,168,47474,2,0,B|40:288|184:312,1,209.999993741512
256,240,49475,2,0,B|232:128|96:104,1,209.999993741512
256,192,51642,12,0,54810
256,32,55477,5,4
256,88,55811,1,0
256,144,56144,2,0,B|256:248,2,104.999996870756
368,152,58145,1,0
320,104,58479,1,0
264,80,58812,1,0
208,96,59146,1,0
168,192,59479,6,0,B|256:80|352:208,1,209.999993741512
376,240,61147,1,0
376,240,61480,1,0
384,128,62147,6,0,B|336:88|280:128,1,104.999996870756
168,120,63481,2,0,B|112:80|48:128,2,104.999996870756
192,176,65148,1,0
232,216,65482,2,0,B|256:264|336:288,2,104.999996870756
264,168,67149,1,0
304,120,67483,2,0,B|336:64|456:56,1,157.499995306134
480,104,68817,1,0
480,160,69150,2,0,B|480:232,1,52.4999984353781
392,288,70151,5,0
336,288,70484,2,0,B|272:288,2,52.4999984353781
368,240,71485,2,0,B|312:160|160:176,1,209.999993741512
120,160,73152,1,0
120,128,73319,1,0
136,104,73485,1,0
184,72,73819,2,0,B|248:72,1,52.4999984353781
120,72,74819,5,0
176,72,75153,2,0,B|240:72,2,52.4999984353781
152,128,76153,2,0,B|152:224|304:256,1,209.999993741512
352,256,77821,1,0
376,248,77987,1,0
400,232,78154,1,0
424,176,78488,2,0,B|352:176,1,52.4999984353781
312,176,79155,1,0
256,176,79488,6,0,B|208:160|208:104|160:112,1,104.999996870756
80,48,80822,1,0
192,56,81489,2,0,B|264:56|256:128|344:96,1,157.499995306134
392,88,82823,1,0
256,192,83490,12,0,90160
256,32,90827,5,0
256,88,91160,2,0,B|256:160,1,52.4999984353781
208,168,91827,2,0,B|176:192|216:216,1,52.4999984353781
264,208,92494,1,0
264,240,92661,1,0
264,272,92827,1,0
320,280,93161,2,0,B|392:280,2,52.4999984353781
264,280,94161,2,0,B|184:264|192:192|144:160,1,157.499995306134
128,120,95495,6,0,B|168:80|240:96,1,104.999996870756
280,104,96496,1,0
336,120,96829,2,0,B|328:168|368:168,1,52.4999984353781
408,144,97496,2,0,B|448:160|448:184,1,52.4999984353781
408,224,98163,2,0,B|368:264,1,52.4999984353781
320,240,98830,5,0
264,240,99164,1,0
264,240,99330,1,0
232,240,99497,2,0,B|176:208|152:144|80:136|152:72,1,209.999993741512
88,64,101165,5,0
64,120,101498,2,0,B|24:176|72:232,2,104.999996870756
112,88,103165,1,0
168,64,103499,2,0,B|248:24|456:80|464:160,1,314.999990612269
432,248,106167,1,0
408,288,106500,2,0,B|376:352|304:344,1,104.999996870756
88,64,107501,6,0,B|32:104|112:144,1,104.999996870756
160,176,108501,2,0,B|224:208,1,52.4999984353781
264,224,109168,1,0
264,224,109335,1,0
264,224,109502,1,0
320,248,109835,2,0,B|384:280,1,52.4999984353781
416,296,110502,1,0
472,72,111503,6,0,B|464:144|360:184,1,157.499995306134
312,200,112836,1,0
256,224,113170,2,0,B|200:248|200:240,1,52.4999984353781
152,240,113837,2,0,B|104:208,1,52.4999984353781
72,160,114504,1,0
72,128,114671,1,0
88,104,114837,1,0
192,64,115504,6,0,B|368:16|488:160,1,314.999990612269
448,200,117839,1,0
408,240,118172,2,0,B|360:272|288:240,2,104.999996870756
256,192,119840,12,0,123508
112,88,139515,6,0,B|272:216|416:72,1,314.999990612269
456,192,142183,2,0,B|456:304,1,104.999996870756
344,272,143517,2,0,B|256:184|136:280,1,209.999993741512
96,272,145184,1,0
96,216,145518,2,0,B|96:160,1,52.4999984353781
96,104,146185,2,0,B|168:48|256:112,1,157.499995306134
288,136,147519,6,0,B|368:192|448:128,1,157.499995306134
432,80,148853,2,0,B|432:144,1,52.4999984353781
432,192,149520,1,0
376,192,149853,2,0,B|320:200,1,52.4999984353781
144,232,150520,6,0,B|112:208|144:176,2,52.4999984353781
200,232,151521,2,0,B|160:144|216:80,1,157.499995306134
272,96,152854,2,0,B|312:136|232:152|288:200,2,104.999996870756
168,48,154855,5,0
168,104,155189,2,0,B|168:176,1,52.4999984353781,0|4
128,200,155856,2,0,B|96:216,2,26.2499992176891
144,224,156356,1,0
176,248,156523,1,0
264,288,156856,6,0,B|288:320,2,26.2499992176891
304,288,157356,1,0
344,288,157523,1,0
408,248,157857,6,0,B|432:232|400:200,2,52.4999984353781
384,176,158857,1,0
336,112,159191,2,0,B|352:64|384:56,1,52.4999984353781
440,48,159858,2,0,B|392:48,3,26.2499992176891
360,48,160525,2,0,B|360:104|288:128,1,104.999996870756
224,160,161525,1,0
