osu file format v9

[General]
AudioFilename: EGOIST - 02. .mp3
AudioLeadIn: 0
PreviewTime: -1
Countdown: 0
SampleSet: Normal
StackLeniency: 0.7
Mode: 0
LetterboxInBreaks: 1

[Editor]
DistanceSpacing: 1.6
BeatDivisor: 4
GridSize: 8

[Metadata]
Title:Euterpe
Artist:Supercell
Creator:fonchocolate
Version:Hard
Source:
Tags:guilty crown supercell inori egoist

[Difficulty]
HPDrainRate:9
CircleSize:4
OverallDifficulty:8
ApproachRate:7
SliderMultiplier:1.4
SliderTickRate:1

[Events]
//Background and Video events
0,0,"1.jpg"
//Break Periods
2,123709,138615
//Storyboard Layer 0 (Background)
//Storyboard Layer 1 (Fail)
//Storyboard Layer 2 (Pass)
//Storyboard Layer 3 (Foreground)
//Storyboard Sound Samples
//Background Colour Transformations
3,100,163,162,255

[TimingPoints]
12125,666.966666666667,3,1,0,100,1,0
23159,-133.333333333333,3,2,0,35,0,0
25333,-133.333333333333,3,2,0,15,0,0
27339,-133.333333333333,3,2,0,35,0,0
28008,-133.333333333333,3,2,0,35,0,0
31017,-133.333333333333,3,2,0,35,0,0
32689,-133.333333333333,3,2,0,15,0,0
33358,-133.333333333333,3,2,0,35,0,0
35699,-133.333333333333,3,2,0,15,0,0
36367,-133.333333333333,3,2,0,35,0,0
38039,-133.333333333333,3,2,0,15,0,0
38374,-133.333333333333,3,2,0,35,0,0
39377,-133.333333333333,3,2,0,15,0,0
39711,-133.333333333333,3,2,0,35,0,0
42721,-133.333333333333,3,2,0,15,0,0
43389,-133.333333333333,3,2,0,35,0,0
45396,-133.333333333333,3,2,0,15,0,0
47402,-133.333333333333,3,1,0,20,0,0
48071,-133.333333333333,3,1,0,25,0,0
49074,-133.333333333333,3,1,0,30,0,0
52083,-133.333333333333,3,1,0,15,0,0
52418,-133.333333333333,3,1,0,20,0,0
52752,-133.333333333333,3,1,0,25,0,0
53086,-133.333333333333,3,1,0,30,0,0
53421,-133.333333333333,3,1,0,35,0,0
57339,-133.333333333333,3,2,0,15,0,0
59425,-133.333333333333,3,1,0,35,0,0
61343,-133.333333333333,3,2,0,15,0,0
63345,-133.333333333333,3,1,0,35,0,0
82699,-133.333333333333,3,1,0,15,0,0
90373,-133.333333333333,3,1,0,35,0,1
90707,-100,3,1,0,55,0,0
139348,-133.333333333333,3,1,0,35,0,0
141349,-133.333333333333,3,1,0,15,0,0
143350,-133.333333333333,3,1,0,35,0,0
145351,-133.333333333333,3,1,0,15,0,0
147352,-133.333333333333,3,1,0,35,0,0
163359,-100,3,1,0,35,0,0
171029,-100,3,1,0,15,0,0
174698,-50,3,1,0,55,0,1
206379,-50,3,1,0,15,0,0
206712,-50,3,1,0,35,0,0
207046,-50,3,1,0,15,0,0

[Colours]
Combo1 : 0,183,183
Combo2 : 0,60,60
Combo3 : 150,199,183
Combo4 : 40,32,43

[HitObjects]
88,72,23463,2,0,B|96:256|304:288,1,314.999990612269,0|0
400,288,26131,2,0,B|464:256|432:184,1,104.999996870756
408,208,27131,1,0
360,208,27465,2,0,B|320:152|376:104,1,104.999996870756
424,112,28465,2,0,B|488:112,2,52.4999984353781
368,112,29466,2,0,B|288:176|328:328,1,209.999993741512,2|0
208,320,31467,6,0,B|152:304|224:216|112:256|96:144,1,209.999993741512,2|0
120,64,33134,1,0
208,80,33467,2,0,B|296:96|224:200|344:120|368:224,1,209.999993741512,2|0
448,224,35135,1,0
448,152,35468,6,0,B|408:112|368:176|336:128,1,104.999996870756,2|0
264,128,36469,2,0,B|264:192,1,52.4999984353781
264,248,37136,1,0
192,240,37469,2,2,B|192:176|120:144,1,104.999996870756,2|0
368,312,38803,6,0,B|440:344|464:272,1,104.999996870756,0|0
472,224,40137,2,0,B|472:152|400:144,1,104.999996870756,0|0
384,152,41138,2,0,B|344:152|328:192,2,52.4999984353781
408,136,42138,2,0,B|408:72|336:64,1,104.999996870756,2|0
288,72,43138,1,0
248,112,43472,2,0,B|176:144|112:72|48:168,1,209.999993741512,0|0
88,208,45139,1,0
136,240,45473,1,2
472,40,46140,5,0
424,104,46473,2,0,B|376:160,1,52.4999984353781,0|0
288,152,47140,1,0
328,216,47474,2,0,B|360:264,1,52.4999984353781,0|0
384,328,48141,2,0,B|416:344|432:328,2,52.4999984353781,0|0|8
288,288,49141,2,0,B|256:304|224:280,2,52.4999984353781,0|0|8
344,200,50142,1,0
344,96,50475,1,0
224,32,50809,6,0,B|176:120|280:144|176:224,1,209.999993741512
232,224,52476,1,0
232,336,52809,1,0
232,224,53143,1,0
232,136,53476,2,0,B|280:80|344:128,1,104.999996870756
408,168,54477,1,0
256,168,54810,1,4
256,48,55477,5,0
168,104,55811,2,0,B|120:152|136:200,1,104.999996870756
152,248,56645,1,0
184,288,56811,1,0
280,328,57145,1,0
376,288,57478,2,0,B|432:256|456:208,1,104.999996870756,4|0
464,104,58479,6,0,B|416:104,2,26.2499992176891,0|0|8
368,152,59146,2,0,B|320:152,1,26.2499992176891,0|0
304,192,59479,2,0,B|272:280|184:280,1,157.499995306134
88,248,60813,1,0
40,152,61147,1,0
144,152,61480,2,0,B|192:104|208:176|256:136,1,104.999996870756
240,144,62480,1,0
240,144,62814,1,4
440,88,63481,6,0,B|472:144|432:184,1,104.999996870756
328,192,64481,1,0
224,192,64815,2,0,B|192:232|232:288,2,104.999996870756,0|0|0
264,96,66482,2,0,B|248:64|200:96,2,52.4999984353781
160,80,67483,2,0,B|80:56|64:128,1,104.999996870756
96,208,68483,1,0
128,248,68650,1,0
176,240,68817,1,8
280,240,69150,2,0,B|352:240,1,52.4999984353781
432,320,70151,6,0,B|472:256|448:216,1,104.999996870756,0|0
240,208,71485,2,0,B|200:184|168:224|120:200,2,104.999996870756
312,136,73152,1,0
288,88,73319,1,0
240,80,73485,1,0
96,56,73819,6,0,B|56:40|32:80,2,52.4999984353781
128,96,74653,1,0
160,136,74819,2,0,B|208:192,1,52.4999984353781
264,248,75486,2,0,B|328:304|376:288|416:240,1,157.499995306134
440,152,76820,1,0
360,80,77154,2,0,B|296:80,1,52.4999984353781
208,120,77821,1,0
48,280,78154,6,0,B|56:320|96:336,1,52.4999984353781
120,280,78821,2,0,B|160:232|184:304|224:248,2,104.999996870756
80,272,80489,1,0
64,224,80822,2,0,B|32:160|88:112,1,104.999996870756
112,96,81823,1,0
168,80,82156,2,0,B|224:48|272:128,1,104.999996870756
256,192,83490,12,0,90162
104,56,90827,6,0,B|56:96|96:144,1,70
208,64,91494,2,0,B|264:48|296:128|360:72,1,140,4|0
480,56,92494,1,0
480,128,92661,1,0
480,200,92827,1,8
344,192,93161,2,0,B|304:152|264:192,2,70
480,200,94161,2,0,B|448:96|384:88,1,140,8|0
256,104,95162,1,0
120,136,95495,6,0,B|160:176|104:216|168:272,1,140,8|0
160,264,96496,1,0
256,64,96829,1,8
160,264,97163,1,0
400,168,97496,1,8
400,168,97830,1,0
400,168,98163,2,0,B|464:120|352:56,1,140,8|0
48,48,99164,6,0,B|48:112,2,35
160,136,99831,2,0,B|160:192,2,35
272,208,100498,1,0
272,248,100664,1,0
272,296,100831,2,0,B|296:344|376:320|408:264,1,140
456,160,101832,2,0,B|448:80|352:104,2,140
456,160,103499,1,0
344,72,103832,5,0
272,72,103999,1,0
208,104,104166,1,8
80,168,104499,1,0
200,240,104833,2,0,B|352:264,2,140
64,216,106500,1,4
120,88,106834,1,0
184,64,107001,1,0
256,56,107167,1,0
328,72,107334,1,0
352,136,107501,6,0,B|392:96|424:152|488:128,1,140,4|0
360,192,108501,1,0
416,232,108668,1,0
448,296,108835,1,8
336,216,109168,1,0
368,280,109335,1,0
352,352,109502,1,8
272,232,109835,1,0
296,296,110002,1,0
248,344,110169,1,8
144,248,110502,5,0
56,144,110836,1,0
144,248,111169,1,0
120,112,111503,2,0,B|152:56|176:160|232:72|272:128,1,140,4|0
384,72,112503,5,0
496,152,112836,1,8
408,264,113170,1,0
280,208,113503,1,8
408,144,113837,1,0
480,264,114170,1,8
352,328,114504,1,0
248,232,114837,1,8
192,192,115004,1,0
128,216,115171,1,8
56,96,115504,6,0,B|88:48|200:48,1,140,4|0
312,96,116505,1,8
448,64,116838,1,0
496,192,117172,1,8
360,224,117505,2,0,B|312:184|200:208,1,140,4|0
88,176,118506,1,8
24,304,118839,1,8
160,328,119173,1,4
256,192,119506,12,0,123509
88,72,139515,5,4
192,72,139849,1,0
296,72,140182,2,0,B|344:72|352:112,1,52.4999984353781
400,176,140849,2,0,B|400:248|328:240,1,104.999996870756
232,232,141850,1,0
128,224,142183,2,0,B|80:248|88:320,2,104.999996870756,0|0|4
112,120,143850,5,0
200,72,144184,1,0
304,64,144517,1,0
408,56,144851,2,0,B|464:24|512:40,2,104.999996870756
368,152,146518,2,0,B|384:216|320:240,1,104.999996870756
224,256,147519,1,4
128,304,147852,6,0,B|96:272|128:256,2,52.4999984353781
232,304,148853,2,0,B|256:280|232:256,2,52.4999984353781
168,224,149853,5,0
168,168,150020,1,0
168,112,150187,1,0
264,64,150520,2,0,B|304:88,1,26.2499992176891
336,96,150854,1,0
376,128,151020,1,0
336,160,151187,1,0
376,200,151354,1,0
416,232,151521,1,0
392,336,151854,5,0
344,312,152021,2,0,B|304:224|232:224,1,131.249996088445
200,208,153021,1,0
152,192,153188,2,0,B|152:144|112:136,1,52.4999984353781
32,104,153855,2,0,B|64:80|96:88,2,52.4999984353781
80,296,154855,5,0
136,296,155022,2,0,B|184:296,1,26.2499992176891
216,296,155356,1,0
272,296,155522,2,0,B|328:288|328:248|368:224,1,104.999996870756
400,216,156356,1,0
440,184,156523,1,0
472,144,156690,1,0
440,104,156856,1,0
400,72,157023,1,0
352,56,157190,2,0,B|320:32|288:56,3,52.4999984353781
248,56,158357,5,0
200,72,158524,1,0
96,248,158857,5,0
152,248,159024,2,0,B|192:248,1,26.2499992176891
232,248,159357,1,0
288,248,159524,2,0,B|344:256|352:304|392:296,1,104.999996870756
448,304,160358,1,0
448,304,160441,1,0
448,304,160525,1,0
448,224,160858,2,0,B|480:160|416:120,1,104.999996870756
376,120,161692,6,0,B|336:96,1,26.2499992176891
312,176,162026,2,0,B|280:192,1,26.2499992176891
248,120,162359,2,0,B|216:104,1,26.2499992176891
176,176,162693,2,0,B|144:192,1,26.2499992176891
112,200,163026,1,0
112,200,163110,1,0
112,200,163193,1,0
192,88,163526,6,0,B|264:40|352:104,1,140
440,168,164526,1,0
328,256,164860,2,0,B|256:296|184:256,1,140
88,168,165860,1,0
232,168,166194,1,0
232,168,166277,1,0
232,168,166361,1,0
304,168,166527,1,0
448,168,166861,1,0
256,192,167528,12,0,171196
256,192,171530,12,0,173530
80,64,174864,5,0
184,72,175198,2,0,B|136:136|184:216,1,140
320,208,175865,2,0,B|352:176|312:152,2,70
248,248,176365,1,0
168,256,176532,1,0
88,224,176699,1,0
48,152,176865,1,0
72,72,177032,1,0
72,72,177115,1,0
72,72,177199,1,0
192,88,177365,5,0
336,112,177532,1,0
288,272,177699,1,0
128,248,177865,1,0
264,96,178032,1,0
416,128,178199,1,0
424,152,178283,1,0
432,184,178366,2,0,B|472:248|360:272,1,140
280,256,178866,1,0
208,296,179033,6,0,B|168:256|216:224,2,70
120,296,179533,2,0,B|64:224|128:144,1,140
160,96,180033,1,0
216,32,180200,2,0,B|304:16|376:128,1,140
416,120,180700,1,0
416,120,180784,1,0
416,120,180867,1,0
416,208,181034,2,0,B|328:296,1,70
304,200,181367,2,0,B|200:208,1,70
256,128,181701,2,0,B|176:96,1,70
112,80,182034,5,0
72,104,182118,1,0
40,128,182201,2,0,B|8:200|96:280,1,140
152,248,182701,2,0,B|136:160|240:112,1,140
280,88,183201,1,0
416,328,183535,6,0,B|480:272|432:192,1,140
384,136,184035,1,0
328,200,184202,2,0,B|272:280|160:208,1,140
128,192,184702,1,0
24,96,184869,1,0
128,192,185036,1,0
136,56,185202,1,0
272,48,185369,1,0
392,112,185536,1,0
488,208,185703,5,0
408,288,185869,1,0
320,224,186036,1,0
368,120,186203,1,0
480,152,186370,1,0
408,240,186536,1,0
296,216,186703,1,0
264,168,186786,1,0
224,128,186870,1,0
136,64,187037,5,0
64,152,187203,1,0
104,256,187370,1,0
192,320,187537,2,0,B|320:336|408:248|400:104,1,280
408,136,188370,1,0
416,88,188537,2,0,B|392:48|296:80,1,70
280,72,188871,6,0,B|192:88,1,70
248,152,189204,2,0,B|160:184,1,70
112,192,189538,2,0,B|72:312|272:352,1,210
312,320,190205,1,0
472,208,190538,1,0
64,56,191539,6,0,B|80:64|80:64|56:64|56:64|80:72|80:72|56:72|56:72|80:80|80:80|56:80|56:80|80:88|80:88|56:88|56:88|80:96|80:96|56:96|56:96|80:104|80:104|56:128,1,280
64,216,192372,1,0
152,256,192539,2,0,B|192:184|280:216,1,140
368,232,193039,1,0
416,216,193123,1,0
432,168,193206,1,0
392,80,193373,2,0,B|296:80,3,70
240,80,194040,1,0
240,80,194206,2,0,B|232:184|88:168,1,140
48,176,194707,1,0
32,272,194873,5,0
64,304,194957,1,0
112,320,195040,1,0
208,352,195207,1,0
256,352,195290,1,0
304,336,195374,1,0
400,328,195540,6,0,B|496:320|520:216,1,140
432,168,196041,2,0,B|432:248,2,70
320,168,196542,2,0,B|320:96,2,70
208,168,197041,1,0
208,224,197124,1,0
208,280,197208,1,0
80,240,197541,6,0,B|8:184|88:128,2,140
288,328,198542,1,0
480,208,198875,2,0,B|480:96,2,70
120,112,199542,6,0,B|256:32|408:120,2,280
120,184,201210,1,0
120,256,201543,2,0,B|256:328|400:256,2,280
120,184,203210,1,0
256,192,203544,12,0,206545
256,112,206879,5,0
256,256,207546,1,0
