osu file format v5

[General]
AudioFilename: Superbus_Radio song(1).mp3
AudioLeadIn: 0
PreviewTime: -1
Countdown: 1
SampleSet: Normal
StackLeniency: 0.7
Mode: 0
LetterboxInBreaks: 1
EditorBookmarks: 129789

[Metadata]
Title:Radio Song
Artist:Superbus
Creator:Rolled
Version:Hard
Source:
Tags:

[Difficulty]
HPDrainRate:7
CircleSize:5
OverallDifficulty:7
SliderMultiplier:1.5
SliderTickRate:2

[Events]
//Background and Video events
1,-3593,"asdasd.avi"
//Break Periods
2,50242,55407
2,104356,110091
//Storyboard Layer 0 (Background)
//Storyboard Layer 1 (Failing)
//Storyboard Layer 2 (Passing)
//Storyboard Layer 3 (Foreground)
//Storyboard Sound Samples
//Background Colour Transformations
3,100,0,0,0

[TimingPoints]
13780,379.746835443038,4,1,0,70,1

[Colours]
Combo1 : 220,90,3
Combo2 : 7,177,46
Combo3 : 206,0,0
Combo4 : 243,214,0
Combo5 : 4,9,162

[HitObjects]
112,112,13779,1,0
176,152,13969,1,0
248,152,14159,1,12
320,152,14349,1,0
392,152,14539,2,0,B|392:240|280:248,1,150,0|12
224,248,15109,1,0
152,248,15298,2,0,B|64:248|40:144,1,150,0|12
120,152,15868,1,0
192,152,16058,2,0,B|192:72,3,75,0|0|12|12
264,80,16817,5,0
328,120,17007,1,0
368,184,17197,1,12
360,256,17387,1,0
296,296,17577,2,0,B|216:352|136:288,1,150,0|12
120,232,18147,1,0
192,232,18336,2,0,B|312:96,1,150,0|12
440,152,19096,5,8
440,80,19286,1,8
440,152,19476,1,8
384,288,19855,5,4
312,312,20045,1,0
240,280,20235,1,8
168,296,20425,1,0
136,224,20615,1,0
192,176,20805,1,0
264,200,20995,1,8
328,160,21185,1,0
392,120,21374,2,0,B|368:48|232:72,1,150,0|8
192,88,21944,1,0
128,128,22134,2,0,B|40:128,1,75
56,200,22514,2,0,B|136:200,1,75,8|0
200,224,22893,5,0
240,280,23083,1,0
312,272,23273,1,8
328,200,23463,1,0
400,200,23653,2,0,B|456:136|400:56,1,150,0|12
328,64,24223,1,0
264,96,24412,2,4,B|216:168|112:112,3,150
80,264,25931,5,0
80,264,26121,1,0
192,264,26311,2,0,B|352:264,2,150,6|0|6
192,112,27450,1,0
192,112,27640,1,0
304,112,27830,2,0,B|464:112,2,150,6|0|6
376,240,28969,5,0
328,296,29159,1,0
280,240,29349,1,6
232,296,29539,1,0
184,240,29729,2,0,B|96:240|112:112,2,150,0|6|0
208,168,30678,1,0
264,120,30868,1,6
336,120,31058,1,0
408,120,31248,2,0,B|408:288,1,150,0|6
256,296,32007,5,0
176,296,32197,1,0
96,296,32387,2,0,B|104:192|224:192,2,150,6|0|6
32,248,33336,1,0
32,176,33526,1,0
88,128,33716,1,0
160,128,33906,2,0,B|248:112|240:16,2,150,6|0|6
376,192,35235,5,0
368,264,35425,1,6
296,288,35615,1,0
264,224,35805,1,0
312,168,35995,1,0
368,120,36185,1,6
256,192,36564,12,4,37704
128,56,38463,6,0,B|296:56,1,150
360,176,39223,1,0
256,288,39602,2,0,B|144:320|80:120,1,225
240,120,40552,1,0
240,120,40742,1,0
240,120,40931,5,0
312,96,41121,2,4,B|408:96|440:224,1,150
368,232,41691,1,0
424,280,41881,2,4,B|376:344|232:304,1,150
208,312,42450,1,0
136,280,42640,2,4,B|136:200,1,75
56,208,43020,1,4
112,72,43400,2,0,B|315:21|392:232,1,300,0|4
168,288,44539,5,0
344,288,44919,1,0
168,192,45298,1,0
344,192,45678,1,0
256,72,46058,1,4
256,72,46248,1,0
256,240,46628,1,4
256,240,46817,1,0
256,240,47007,1,0
256,240,47197,6,4,B|152:192|168:88,1,150
104,168,47767,1,0
48,224,47957,2,4,B|72:320|184:344,1,150
216,336,48526,1,0
288,336,48716,2,4,B|392:336|424:216,2,150
256,264,49666,1,0
256,192,49855,1,0
256,120,50045,1,0
152,40,56311,5,0
224,40,56501,1,0
296,40,56691,1,6
368,40,56881,1,0
440,40,57071,1,0
256,160,57450,1,6
360,344,57830,5,0
288,344,58020,1,0
216,344,58210,1,6
144,344,58400,1,0
72,344,58590,1,0
256,224,58969,1,6
56,120,59539,5,0
96,56,59729,1,6
168,56,59919,1,0
224,104,60109,2,0,B|280:168|232:280,2,150,0|6|0
288,72,61058,1,0
360,88,61248,1,6
400,152,61438,1,0
400,224,61628,2,4,B|368:256|416:304,2,75,14|0|14
256,264,62387,5,0
184,264,62577,1,0
152,192,62767,1,6
216,152,62957,1,0
216,72,63147,2,0,B|120:56|80:136,2,150,0|6|0
280,104,64096,1,0
344,144,64286,1,6
352,216,64476,1,0
344,288,64666,2,0,B|256:352|176:272,1,150,0|6
56,128,65615,5,0
88,192,65805,1,6
160,176,65995,1,0
192,112,66185,2,0,B|248:104|264:160,2,75,8|0|8
256,192,66944,12,4,68083
152,72,68843,5,0
360,72,69223,1,0
256,192,69602,1,0
168,312,69982,2,4,B|80:320|64:184,1,150
64,144,70552,1,4
216,144,70931,1,0
272,96,71121,1,4
344,104,71311,5,0
392,160,71501,1,0
376,232,71691,1,0
312,272,71881,2,0,B|240:320|160:272,2,150
256,216,72830,1,0
288,152,73020,1,0
240,96,73210,1,0
160,96,73400,2,4,B|80:144|120:264,2,150
96,56,74349,5,0
96,56,74539,1,0
256,24,74919,1,0
416,56,75298,2,0,B|416:144|296:216,1,150
272,184,75868,1,0
200,184,76058,2,0,B|176:280|344:224|320:360,2,225
128,200,77387,5,0
72,152,77577,1,0
104,88,77767,1,0
176,88,77957,2,4,B|256:88|248:168|328:168,1,150
424,80,78716,1,0
432,152,78906,1,0
400,216,79096,1,0
344,264,79286,1,0
272,280,79476,2,4,B|184:304|112:216,1,150
256,64,80615,5,0
256,64,80805,1,0
256,64,80995,1,0
256,64,81185,1,0
256,64,81374,1,0
256,64,81564,1,0
256,64,81754,2,4,B|256:160|152:216,1,150
120,168,82324,1,0
48,192,82514,2,4,B|24:280|144:320,1,150
176,264,83083,1,0
232,312,83273,2,4,B|328:312|400:200,1,150
384,176,83843,5,0
384,96,84033,2,4,B|320:28|248:96,1,150
256,240,84792,1,0
256,312,84982,1,0
192,352,85172,1,0
120,320,85362,1,0
120,248,85552,2,4,B|48:192|120:112,1,150
368,104,86691,5,0
400,168,86881,1,0
400,240,87071,2,4,B|488:240,2,75
336,288,87640,1,0
264,312,87830,2,0,B|208:384,2,75
216,248,88400,1,0
216,168,88590,2,4,B|320:168,2,75
144,136,89159,1,0
80,168,89349,2,0,B|80:256,1,75
144,280,89729,6,4,B|192:344|280:288,2,150
168,208,90678,1,0
224,160,90868,1,0
288,128,91058,1,0
360,136,91248,2,0,B|360:296,1,150,4|0
456,168,92007,5,0
456,96,92197,1,0
400,48,92387,1,0
88,192,92767,5,6
200,192,92957,1,6
312,192,93147,1,6
424,192,93336,1,6
256,24,94286,5,6
256,136,94476,1,6
256,248,94666,1,6
256,360,94855,1,6
424,192,95805,5,6
312,192,95995,1,6
200,192,96185,1,6
88,192,96374,1,6
256,192,97324,12,4,98463
368,56,98843,5,6
296,144,99033,1,6
224,232,99223,1,6
152,320,99412,1,6
144,56,100362,5,6
216,144,100552,1,6
288,232,100742,1,6
360,320,100931,1,6
144,304,101881,5,6
192,200,102071,1,6
320,200,102261,1,6
368,304,102450,1,6
256,192,103400,12,4,104159
119,308,110995,5,0
119,228,111185,1,0
119,156,111374,1,0
120,80,111564,1,0
256,80,111754,5,2
255,156,111944,1,0
255,228,112134,1,0
255,308,112324,1,0
393,308,112514,5,2
393,228,112704,1,0
393,156,112893,1,0
392,80,113083,1,0
256,80,113273,6,0,B|256:256,1,150,2|0
176,88,114033,5,0
240,48,114223,1,0
312,48,114412,1,0
368,96,114602,1,0
376,168,114792,1,0
360,240,114982,1,0
296,280,115172,1,0
224,272,115362,1,0
256,192,115552,12,4,116691
376,88,117450,6,0,B|464:128|408:280,1,150
288,288,118210,1,0
136,280,118590,2,4,B|63:152|168:56,2,225
200,240,119919,1,0
264,208,120109,1,0
336,208,120298,1,0
400,240,120488,2,4,B|408:320|304:352,1,150
384,72,121248,5,0
328,24,121438,1,0
272,72,121628,2,4,B|272:160,2,75
208,32,122197,1,0
144,72,122387,2,4,B|59:124|58:259|152:368,1,300
416,320,123526,6,0,B|304:200,1,150
384,192,124096,1,0
448,160,124286,2,0,B|344:48,1,150
208,120,125045,1,0
208,120,125235,1,0
88,208,125615,1,0
88,208,125805,1,0
128,272,125995,5,0
200,280,126185,1,0
264,248,126374,1,0
264,176,126564,2,4,B|360:184|336:288,2,150
192,144,127514,1,0
232,80,127704,1,0
304,72,127893,1,0
376,96,128083,2,4,B|440:168|368:248,2,150
88,104,129223,5,0
88,176,129412,1,0
104,248,129602,1,4
152,304,129792,1,0
224,304,129982,1,0
288,272,130172,1,0
320,208,130362,1,4
288,136,130552,5,0
288,136,130647,1,0
288,136,130742,1,0
344,88,130931,6,0,B|384:88|400:144,1,75,0|4
408,208,131311,2,0,B|408:288,1,75
352,328,131691,2,0,B|312:368|256:336,2,75,0|4|0
304,264,132261,1,0
240,216,132450,1,0
168,232,132640,1,4
104,272,132830,1,0
56,216,133020,5,0
72,144,133210,1,0
128,88,133400,1,4
200,64,133590,1,0
264,104,133779,2,0,B|440:104,1,150,0|4
376,168,134349,1,0
416,232,134539,2,0,B|240:232,1,150,0|4
192,232,135109,5,0
192,232,135298,1,0
192,232,135488,1,0
120,200,135678,1,4
112,128,135868,1,0
168,80,136058,1,0
232,112,136248,1,0
304,88,136438,1,4
376,104,136628,5,0
376,104,136723,1,0
376,104,136817,1,0
376,176,137007,5,0
376,248,137197,2,0,B|464:288,2,75,4|0|0
296,248,137767,1,0
256,312,137957,1,4
184,288,138147,1,0
112,264,138336,2,0,B|72:176|176:120,1,150,0|4
208,184,138906,1,0
280,168,139096,2,4,B|336:112|272:32,1,150,0|4
200,56,139666,5,0
256,192,139855,12,0,140995
256,96,141374,5,6
352,192,141564,5,6
256,288,141754,5,6
160,192,141944,5,6
