osu file format v5

[General]
AudioFilename: Superbus_Radio song(1).mp3
AudioLeadIn: 0
PreviewTime: 94473
Countdown: 1
SampleSet: Normal
StackLeniency: 0.7
Mode: 0
LetterboxInBreaks: 1
EditorBookmarks: 129789

[Metadata]
Title:Radio Song
Artist:Superbus
Creator:Rolled
Version:Easy
Source:
Tags:

[Difficulty]
HPDrainRate:3
CircleSize:4
OverallDifficulty:4
SliderMultiplier:1.2
SliderTickRate:2

[Events]
//Background and Video events
1,-3593,"asdasd.avi"
//Break Periods
2,49671,55107
2,105119,112713
//Storyboard Layer 0 (Background)
//Storyboard Layer 1 (Failing)
//Storyboard Layer 2 (Passing)
//Storyboard Layer 3 (Foreground)
//Storyboard Sound Samples
//Background Colour Transformations
3,100,0,0,0

[TimingPoints]
13780,379.746835443038,4,1,0,70,1

[Colours]
Combo1 : 243,214,0
Combo2 : 7,177,46
Combo3 : 206,0,0

[HitObjects]
112,88,13779,1,8
328,88,14539,1,0
416,288,15298,1,8
192,288,16058,2,12,B|80:272|96:160,1,180,4|4
96,96,16817,5,8
336,96,17577,1,0
256,320,18336,6,4,B|256:192,1,120,12|4
256,80,19096,2,4,B|128:80,1,120,0|0
64,176,19855,1,8
256,320,20615,5,0
352,240,20995,1,0
336,112,21374,1,8
112,192,22134,5,0
112,304,22514,1,0
224,304,22893,2,12,B|368:288|416:144,1,240,12|0
304,96,24033,1,0
192,128,24412,6,0,B|64:192,3,120,8|0|0|0
144,288,25931,5,0
144,288,26311,1,6
144,288,26691,1,0
384,288,27450,5,0
384,288,27830,1,6
384,288,28210,1,0
256,80,28969,5,0
256,192,29349,2,0,B|112:192,1,120,6|0
144,304,30109,1,6
256,304,30488,5,0
352,240,30868,1,6
400,128,31248,1,0
160,112,32007,5,0
160,112,32387,2,0,B|77:108|96:224,1,120,6|0
201,241,33147,1,6
313,241,33526,5,0
416,176,33906,2,0,B|352:164|392:100|320:96,1,120,6|0
208,64,34666,1,6
144,304,35425,5,6
256,304,35805,1,0
368,304,36185,1,6
256,192,36564,12,4,37704
144,96,38463,5,0
144,208,38843,1,0
256,272,39223,1,0
352,208,39602,2,4,B|432:144|352:32,2,180
377,325,41121,5,0
137,325,41881,1,0
256,112,42640,1,4
256,112,43020,1,0
256,112,43400,1,4
80,192,44539,5,0
152,288,44919,1,0
256,352,45298,1,0
352,288,45678,2,4,B|424:50|96:96,1,360
232,216,47197,5,0
232,216,47577,1,0
232,216,47957,1,0
416,56,48716,5,0
416,56,49096,1,0
416,56,49476,1,4
256,32,56311,5,0
256,32,56691,1,6
256,32,57071,2,0,B|256:176,1,120,0|6
256,272,57830,5,0
256,272,58210,1,6
195,375,58590,2,0,B|347:375,1,120,0|6
440,168,59729,5,6
256,16,60488,1,6
80,184,61248,1,6
128,296,61628,1,0
240,328,62007,1,6
200,216,62387,6,4,B|400:40,2,240
152,104,64286,1,6
80,184,64666,2,0,B|128:296,1,120,0|6
256,192,65805,12,4,68083
96,192,68843,6,0,B|137:2|416:32,1,360
424,264,70742,1,0
192,320,71501,5,0
88,248,71881,1,0
192,192,72261,1,0
320,64,73020,5,0
424,136,73400,1,0
320,192,73780,1,0
80,192,74919,6,0,B|80:112|176:48,2,120
160,280,76058,1,0
400,280,76817,1,0
264,80,77577,5,0
336,176,77957,1,0
216,176,78336,2,0,B|96:240,1,120
40,128,79096,5,0
112,32,79476,1,0
224,72,79855,2,0,B|384:96,1,120
352,208,80615,6,0,B|232:344|88:152,3,240
160,96,83273,1,0
256,24,83653,2,0,B|339:41|344:142|448:176,1,240
256,360,85172,2,0,B|173:343|168:242|64:208,1,240
256,56,87071,5,0
256,328,87830,1,0
120,192,88590,1,0
392,192,89349,1,0
256,192,89729,5,0
256,192,90109,1,0
256,192,90488,1,0
64,336,91248,5,0
64,336,91628,1,0
64,336,92007,1,0
256,192,92767,12,0,96564
136,80,97324,5,6
256,80,97704,1,6
376,80,98083,1,6
256,192,98463,5,0
136,288,98843,6,0,B|432:288,4,240
144,168,102261,5,0
224,80,102640,1,0
344,80,103020,1,0
256,192,103400,12,4,104919
256,192,114033,12,4,115552
104,80,117450,5,0
224,80,117830,1,0
344,80,118210,1,0
464,288,118969,5,0
344,288,119349,1,0
224,288,119729,1,0
136,200,120109,6,4,B|368:64,1,240
224,288,121628,6,4,B|432:167,1,240,4|4
256,40,123526,5,0
144,88,123906,1,0
88,192,124286,1,0
256,40,125045,5,0
368,88,125425,1,0
424,192,125805,1,0
376,304,126185,6,4,B|104:304,2,240
256,232,128083,5,0
256,112,128463,1,0
104,296,129223,5,0
224,296,129602,1,0
344,296,129982,2,0,B|440:200,1,120
328,136,130742,5,0
208,136,131121,1,0
88,136,131501,2,0,B|32:80|96:16,1,120
208,24,132261,5,0
328,24,132640,1,0
448,24,133020,2,0,B|448:272,1,240
328,248,134159,1,0
256,336,134539,2,0,B|176:352|112:264|8:336,1,240
72,216,135678,5,0
128,112,136058,1,0
184,216,136438,1,0
240,112,136818,1,0
296,216,137197,5,0
352,112,137577,1,0
408,216,137957,1,0
256,192,138336,12,0,140615
256,48,141374,5,6
256,48,141564,5,6
256,48,141754,5,6
256,48,141944,5,6
