osu file format v4

[General]
AudioFilename: Radio Song - Super Bus.mp3
AudioLeadIn: 0
AudioHash: ea028b8e1c1398ecc35d4ab18a1c3eca
PreviewTime: -1
SampleSet: Normal
EditorBookmarks: 15379

[Metadata]
Title:Radio Song
Artist:Superbus
Creator:RadioShadow
Version:Easy

[Difficulty]
HPDrainRate:2
CircleSize:3
OverallDifficulty:4
SliderMultiplier: 0.9
SliderTickRate: 2

[Events]
2,41978,47422
2,84495,96170
3,0,163,162,255

[TimingPoints]
18321,367.698159509202,4,1,0

[HitObjects]
352,80,18321,1,0,
176,80,19056,1,4,
176,304,19791,5,0,
352,304,20527,1,4,
416,192,21262,6,4,B|416:192|96:192,1,315
160,304,24388,5,0,
336,304,25123,1,4,
336,80,25858,5,0,
160,80,26594,1,4,
256,128,27697,5,0,
256,256,28616,1,4,
464,48,30822,6,0,B|464:48|32:48,1,405
48,144,33580,1,0,
176,144,34315,1,0,
304,144,35051,1,0,
432,144,35786,1,4,
48,240,36889,6,0,B|48:240|496:240,1,405
464,336,39647,1,0,
336,336,40382,1,0,
208,336,41118,1,0,
80,336,41853,1,4,
96,64,48656,5,0,
192,128,49391,1,0,
320,128,50310,1,0,
416,64,51046,1,4,
470,192,51965,6,4,B|470:192|374:288|154:320|89:201|22:192,1,450
256,32,54723,5,0,
256,128,55458,1,0,
256,128,55826,1,0,
256,224,56377,1,0,
256,320,57113,1,0,
256,320,57480,1,4,
192,192,58032,5,0,
96,128,58951,1,0,
64,224,60422,1,4,
48,336,61157,6,0,B|48:336|480:336,1,405
464,240,63915,1,0,
336,240,64650,1,0,
208,240,65386,1,0,
80,240,66121,1,4,
48,144,67224,6,0,B|48:144|496:144,1,405
464,48,69982,1,0,
336,48,70717,1,0,
208,48,71453,1,0,
80,48,72188,1,4,
64,160,73291,6,0,B|64:160|512:160,1,405
448,256,76049,1,0,
320,256,76785,1,0,
192,256,77520,1,0,
64,256,78255,1,4,
128,160,79358,5,0,
224,96,79910,1,0,
352,64,80645,1,0,
448,128,81932,1,0,
416,256,82852,1,0,
320,320,83587,1,0,
192,320,84322,1,4,
368,288,97376,5,0,
368,112,98111,1,4,
144,112,98846,5,0,
144,288,99582,1,4,
256,352,100317,6,4,B|256:352|256:32,1,315
144,96,103443,5,0,
144,272,104178,1,4,
368,272,104913,5,0,
368,96,105649,1,4,
320,192,106568,5,0,
192,192,107487,1,4,
464,48,109693,6,0,B|464:48|32:48,1,405
48,144,112451,1,0,
176,144,113187,1,0,
304,144,113922,1,0,
432,144,114657,1,4,
48,240,115761,6,0,B|48:240|496:240,1,405
464,336,118518,1,0,
336,336,119254,1,0,
208,336,119989,1,0,
80,336,120724,1,4,
256,192,122195,12,4,127711
