osu file format v12

[General]
AudioFilename: SuperEd86 - My Pee Pee (Dubstep Remix).mp3
AudioLeadIn: 0
PreviewTime: -1
Countdown: 0
SampleSet: None
StackLeniency: 0.2
Mode: 0
LetterboxInBreaks: 1
EpilepsyWarning: 1

[Editor]
Bookmarks: 46220,76940
DistanceSpacing: 1
BeatDivisor: 4
GridSize: 4

[Metadata]
Title:My Pee Pee
TitleUnicode:My Pee Pee
Artist:SuperEd86
ArtistUnicode:SuperEd86
Creator:RobotoRaccoon
Version:Normal
Source:
Tags:pp
BeatmapID:244677
BeatmapSetID:90090

[Difficulty]
HPDrainRate:6
CircleSize:5
OverallDifficulty:6
ApproachRate:9
SliderMultiplier:3.2
SliderTickRate:1

[Events]
//Background and Video events
Video,0,"MY PEE PEE - DUBSTEP REMIX.FLV"
0,0,"pp.jpg",0,0
//Break Periods
//Storyboard Layer 0 (Background)
//Storyboard Layer 1 (Fail)
//Storyboard Layer 2 (Pass)
//Storyboard Layer 3 (Foreground)
//Storyboard Sound Samples
//Background Colour Transformations
3,100,0,0,0

[TimingPoints]
7840.04374976079,480,4,2,0,100,1,0
30855,480,4,2,0,100,1,0
32055,-50,4,2,0,100,0,0
32295,-100,4,2,0,100,0,0
33975,-50,4,2,0,100,0,0
34215,-100,4,2,0,100,0,0
36615,-50,4,2,0,100,0,0
38055,-100,4,2,0,100,0,0
46210,-66.6666666666667,4,2,0,100,0,1
56055,-50,4,2,0,100,0,1
57735,-66.6666666666667,4,2,0,100,0,1
75974,-66.6666666666667,4,2,0,100,0,0
75975,-66.6666666666667,4,2,0,100,0,1
76454,-66.6666666666667,4,2,0,100,0,0
76455,-66.6666666666667,4,2,0,100,0,1
76934,-66.6666666666667,4,2,0,100,0,0
76935,-66.6666666666667,4,2,0,100,0,1
76936,-66.6666666666667,4,2,0,100,0,0

[Colours]
Combo1 : 255,128,0
Combo2 : 0,200,0
Combo3 : 5,5,240
Combo4 : 240,5,5
Combo5 : 120,0,240
Combo6 : 230,230,0

[HitObjects]
40,152,7840,1,0,0:0:0:0:
188,212,8080,1,0,0:0:0:0:
40,276,8320,1,0,0:0:0:0:
188,336,8560,1,0,0:0:0:0:
256,72,8800,5,8,0:0:0:0:
256,72,9280,1,0,0:0:0:0:
472,152,9760,5,0,0:0:0:0:
324,212,10000,1,0,0:0:0:0:
472,276,10240,1,0,0:0:0:0:
324,336,10480,1,0,0:0:0:0:
256,72,10720,5,8,0:0:0:0:
256,72,11200,1,0,0:0:0:0:
40,308,11680,6,0,L|40:148,1,160
120,288,12160,2,0,L|120:128,1,160
200,268,12640,2,0,L|200:108,3,160,8|0|0|0,0:0|0:0|0:0|0:0,0:0:0:0:
472,308,13600,6,0,L|472:148,1,160
392,288,14080,2,0,L|392:128,1,160
312,268,14560,2,0,L|312:108,3,160,8|0|0|0,0:0|0:0|0:0|0:0,0:0:0:0:
40,192,15520,5,0,0:0:0:0:
136,144,16000,1,0,0:0:0:0:
472,192,16480,1,8,0:0:0:0:
376,144,16960,1,0,0:0:0:0:
40,192,17440,6,0,P|140:272|136:144,1,320
472,192,18400,2,0,P|372:272|376:144,1,320,8|0,0:0|0:0,0:0:0:0:
256,32,19360,5,0,0:0:0:0:
256,352,19840,1,0,0:0:0:0:
256,100,20320,1,8,0:0:0:0:
256,284,20800,1,0,0:0:0:0:
32,192,21280,5,0,0:0:0:0:
480,192,21760,1,0,0:0:0:0:
32,264,22240,1,8,0:0:0:0:
480,120,22720,1,0,0:0:0:0:
40,36,23200,6,0,P|76:104|152:112,1,160
472,36,23680,2,0,P|436:104|360:112,1,160
32,304,24160,2,0,P|108:293|141:224,1,160,8|0,0:0|0:0,0:0:0:0:
480,304,24640,2,0,P|403:293|370:224,1,160,0|0,0:0|0:0,0:0:0:0:
112,200,25120,6,0,L|192:200,1,80
179,66,25360,2,0,L|219:135,1,80,0|0,0:3|0:3,0:0:0:0:
332,66,25600,2,0,L|292:135,1,80
400,200,25840,2,0,L|320:200,1,80
256,192,26080,1,8,0:0:0:0:
256,192,26560,1,0,0:0:0:0:
32,352,27040,6,0,L|32:192,1,160
480,352,27520,2,0,L|480:192,1,160
96,144,28000,1,8,0:0:0:0:
156,292,28240,1,0,0:0:0:0:
416,144,28480,1,0,0:0:0:0:
356,292,28720,1,0,0:0:0:0:
96,144,28960,5,0,0:0:0:0:
416,144,29200,1,0,0:0:0:0:
256,36,29440,5,0,0:0:0:0:
256,68,29560,5,0,0:0:0:0:
256,100,29680,5,0,0:0:0:0:
256,132,29800,5,0,0:0:0:0:
256,164,29920,5,0,0:0:0:0:
464,288,30855,5,0,0:0:0:0:
404,108,31095,1,0,0:0:0:0:
256,228,31335,1,0,0:0:0:0:
108,108,31575,2,0,L|108:268,1,160
48,32,32055,6,0,L|48:352,1,320,8|8,0:0|0:0,0:0:0:0:
48,288,32775,5,0,0:0:0:0:
108,108,33015,1,0,0:0:0:0:
256,228,33255,1,0,0:0:0:0:
404,108,33495,2,0,L|404:268,1,160
464,32,33975,6,0,L|464:352,1,320,8|8,0:0|0:0,0:0:0:0:
32,352,34695,6,0,L|256:192,1,160
256,48,35175,1,0,0:0:0:0:
480,352,35415,2,0,L|256:192,1,160
32,160,35895,5,8,0:0:0:0:
480,160,36135,1,8,0:0:0:0:
224,288,36615,6,0,P|256:68|288:288,1,640
288,288,37575,2,0,P|256:68|224:288,1,640
36,36,38535,5,0,0:0:0:0:
148,192,38775,1,0,0:0:0:0:
476,36,39015,1,0,0:0:0:0:
364,192,39255,2,0,L|256:72,1,160
480,352,39735,5,8,0:0:0:0:
32,352,39975,1,8,0:0:0:0:
32,352,40455,6,0,L|192:352,1,160
480,352,40935,2,0,L|320:352,1,160
256,32,41415,1,0,0:0:0:0:
92,192,41655,6,0,B|92:184|92:184|92:192|92:192|92:184|92:184|92:192|92:192|92:184|92:184|92:192|92:192|92:184|92:184|92:192|92:192|92:184|92:184|92:192|92:192|92:184|92:184|92:112,1,160,8|8,0:0|0:0,0:0:0:0:
480,352,42375,6,0,L|320:352,1,160
32,352,42855,2,0,L|192:352,1,160
256,32,43335,1,0,0:0:0:0:
420,192,43575,6,0,B|420:184|420:184|420:192|420:192|420:184|420:184|420:192|420:192|420:184|420:184|420:192|420:192|420:184|420:184|420:192|420:192|420:184|420:184|420:192|420:192|420:184|420:184|420:112,1,160,8|8,0:0|0:0,0:0:0:0:
100,232,44295,6,0,L|156:288,1,80
168,168,44535,6,0,L|92:140,1,80
256,144,44775,5,0,0:0:0:0:
420,140,44895,70,0,L|344:168,1,80
356,288,45135,70,0,L|412:232,1,80
112,88,46215,2,0,B|144:96|144:96|160:72|160:72|192:88|192:88|220:64|220:64|256:80|256:80|256:212|256:80|256:80|292:64|292:64|320:88|320:88|352:72|352:72|368:96|368:96|400:88,2,480.000018310548
256,144,47415,6,0,B|256:264,1,120.000004577637,8|0,0:0|0:0,0:0:0:0:
316,332,47655,2,0,B|400:244,1,120.000004577637,8|0,0:0|0:0,0:0:0:0:
196,332,47895,2,0,B|112:244,1,120.000004577637,8|0,0:0|0:0,0:0:0:0:
448,192,48375,6,0,P|208:76|64:192,1,480.000018310548,2|2,0:0|0:0,0:0:0:0:
256,68,48615,1,0,0:0:0:0:
288,328,49335,6,0,P|256:160|224:328,1,480.000018310548,2|2,0:0|0:0,0:0:0:0:
256,160,49575,1,0,0:0:0:0:
104,64,50055,6,0,B|112:72|112:72|144:72|144:72|160:92|160:92|176:72|176:72|192:92|192:92|240:92|240:92|256:72|256:72|256:-20|256:72|256:72|272:92|272:92|320:92|320:92|336:72|336:72|352:92|352:92|368:72|368:72|400:72|400:72|408:64,2,480.000018310548,4|0|0,0:0|0:0|0:0,0:0:0:0:
28,292,51255,6,0,B|96:192,1,120.000004577637,8|0,0:0|0:0,0:0:0:0:
256,28,51495,2,0,B|256:148,1,120.000004577637,8|0,0:0|0:0,0:0:0:0:
484,292,51734,2,0,B|416:192,1,120.000004577637,8|0,0:0|0:0,0:0:0:0:
476,36,51975,5,2,0:0:0:0:
36,348,52455,1,0,0:0:0:0:
476,348,52935,1,2,0:0:0:0:
36,36,53415,1,0,0:0:0:0:
408,192,53895,6,0,B|400:184|400:184|384:204|384:204|368:184|368:184|352:204|352:204|336:184|336:184|320:164|320:164|304:184|304:184|288:164|288:164|272:144|272:144|256:164|256:164|240:144|240:144|224:164|224:164|208:184|208:184|192:164|192:164|176:184|176:184|160:204|160:204|144:184|144:184|128:204|128:204|112:184|112:184|104:192,2,480.000018310548
32,320,55095,6,0,B|152:320,1,120.000004577637,8|0,0:0|0:0,0:0:0:0:
480,320,55335,2,0,B|360:320,1,120.000004577637,8|0,0:0|0:0,0:0:0:0:
32,320,55575,2,0,B|152:320,1,120.000004577637,8|0,0:0|0:0,0:0:0:0:
120,120,56055,6,0,P|256:48|392:120,1,320
392,120,56295,2,0,P|256:192|120:120,1,320
392,264,57015,2,0,P|256:336|120:264,1,320
120,264,57255,2,0,P|256:192|392:264,1,320
408,120,57735,6,0,B|400:112|400:112|384:132|384:132|368:112|368:112|352:132|352:132|336:112|336:112|320:92|320:92|304:112|304:112|288:92|288:92|256:52|256:52|224:92|224:92|208:112|208:112|192:92|192:92|176:112|176:112|160:132|160:132|144:112|144:112|128:132|128:132|112:112|112:112|104:120,2,480.000018310548
256,352,58935,5,8,0:0:0:0:
60,48,59175,1,8,0:0:0:0:
452,48,59415,1,8,0:0:0:0:
116,352,59655,5,2,0:0:0:0:
32,128,59895,1,2,0:0:0:0:
256,216,60135,1,2,0:0:0:0:
480,128,60375,1,2,0:0:0:0:
396,352,60615,1,2,0:0:0:0:
32,128,60855,5,8,0:0:0:0:
480,128,61095,1,8,0:0:0:0:
176,272,61575,6,0,B|200:272|200:272|208:264|208:264|216:280|216:280|224:256|224:256|232:288|232:288|240:248|240:248|248:296|248:296|256:256|256:256|264:296|264:296|272:248|272:248|280:288|280:288|288:256|288:256|296:280|296:280|304:264|304:264|312:272|312:272|336:272,1,480.000018310548,0|8,0:0|0:0,0:0:0:0:
256,96,62295,1,2,0:0:0:0:
332,272,62535,2,0,P|352:240|176:272,1,480.000018310548
256,96,62775,1,0,0:0:0:0:
256,316,63255,1,2,0:0:0:0:
36,64,63495,5,0,0:0:0:0:
256,196,63735,1,0,0:0:0:0:
476,64,63975,1,0,0:0:0:0:
364,256,64215,5,2,0:0:0:0:
148,256,64455,2,0,P|172:120|364:256,1,480.000018310548
256,84,64695,1,0,0:0:0:0:
364,255,65175,1,0,0:0:0:0:
48,36,65415,5,0,0:0:0:0:
48,96,65535,1,0,0:0:0:0:
48,156,65655,1,0,0:0:0:0:
364,256,65895,1,8,0:0:0:0:
464,36,66375,5,0,0:0:0:0:
464,96,66495,1,0,0:0:0:0:
464,156,66615,1,0,0:0:0:0:
148,256,66855,1,8,0:0:0:0:
256,32,67335,5,2,0:0:0:0:
256,352,67815,1,0,0:0:0:0:
32,32,68295,1,2,0:0:0:0:
256,192,68535,1,0,0:0:0:0:
472,32,68775,1,0,0:0:0:0:
104,272,69255,6,0,B|128:284|128:284|160:284|160:284|192:244|192:244|180:220|180:220|208:176|208:176|256:192|256:192|304:176|304:176|332:220|332:220|320:244|320:244|352:284|352:284|384:284|384:284|408:272,1,480.000018310548
408,272,70215,2,0,B|384:284|384:284|352:284|352:284|320:244|320:244|332:220|332:220|304:176|304:176|256:192|256:192|208:176|208:176|180:220|180:220|192:244|192:244|160:284|160:284|128:284|128:284|104:272,1,480.000018310548
32,192,71175,5,2,0:0:0:0:
480,192,71655,1,2,0:0:0:0:
96,264,72135,5,2,0:0:0:0:
416,120,72375,1,8,0:0:0:0:
96,120,72615,1,8,0:0:0:0:
416,264,72855,1,8,0:0:0:0:
256,192,73095,12,0,74775,0:0:0:0:
256,192,73815,5,8,0:0:0:0:
256,348,75015,5,0,0:0:0:0:
72,192,75255,1,0,0:0:0:0:
256,36,75495,1,0,0:0:0:0:
440,192,75735,1,0,0:0:0:0:
256,192,75975,5,4,0:0:0:0:
132,72,76215,1,0,0:0:0:0:
256,192,76455,1,4,0:0:0:0:
380,72,76695,1,0,0:0:0:0:
256,192,76935,1,4,0:0:0:0:
