osu file format v14

[General]
AudioFilename: Super Star MITSURI - Thank You For Playing ~.mp3
AudioLeadIn: 0
PreviewTime: -1
Countdown: 0
SampleSet: Soft
StackLeniency: 0.7
Mode: 3
LetterboxInBreaks: 0
SpecialStyle: 1
WidescreenStoryboard: 1

[Editor]
DistanceSpacing: 1.1
BeatDivisor: 2
GridSize: 8
TimelineZoom: 2.199999

[Metadata]
Title:Thank You For Playing ~
TitleUnicode:Thank You For Playing ~
Artist:Super Star MITSURU
ArtistUnicode:Super Star MITSURU
Creator:Steins
Version:pux's 4K ~ Thank You For Playing ~
Source:BeatmapIIDX
Tags:Steins Xeostyle __M A S__ Eternalie redfire099 [-Seiryuu-] DrawdeX Resuner YunoFanatic TheZiemniax LordRaika ALEFY
BeatmapID:776111
BeatmapSetID:317414

[Difficulty]
HPDrainRate:7.5
CircleSize:4
OverallDifficulty:7.5
ApproachRate:5
SliderMultiplier:1.6
SliderTickRate:2

[Events]
//Background and Video events
0,0,"piano-no-mori-9.png",0,0
//Break Periods
//Storyboard Layer 0 (Background)
//Storyboard Layer 1 (Fail)
//Storyboard Layer 2 (Pass)
//Storyboard Layer 3 (Foreground)
//Storyboard Sound Samples

[TimingPoints]
576,352.941176470588,4,2,0,10,1,0
14693,-100,4,2,0,10,0,1
37281,-100,4,2,0,10,0,0
62693,-100,4,2,0,10,0,1
85281,-100,4,2,0,10,0,0
93752,375,4,2,0,10,1,0
93752,-94.3396226415094,4,2,0,10,0,0
94502,413.793103448276,4,2,0,10,1,0
94502,-85.4700854700855,4,2,0,10,0,0
94915,428.571428571429,4,2,0,10,1,0
94915,-82.6446280991736,4,2,0,10,0,0
95343,468.75,4,2,0,10,1,0
95343,-75.7575757575758,4,2,0,10,0,0
95811,512.820512820513,4,2,0,10,1,0
95811,-68.9655172413793,4,2,0,10,0,0
96323,606.060606060606,4,2,0,10,1,0
96323,-58.4795321637427,4,2,0,10,0,0
96929,1333.33333333333,4,2,0,10,1,0
96929,-26.4550264550265,4,2,0,10,0,0
98262,413.793103448276,4,2,0,10,1,0
98262,-85.4700854700855,4,2,0,10,0,0

[HitObjects]
64,192,576,5,0,0:0:0:0:
448,192,576,128,0,2693:0:0:0:0:
192,192,752,1,0,0:0:0:0:
320,192,928,1,0,0:0:0:0:
64,192,1105,1,0,0:0:0:0:
192,192,1458,1,0,0:0:0:0:
320,192,1634,1,0,0:0:0:0:
64,192,1811,1,0,0:0:0:0:
192,192,1987,1,0,0:0:0:0:
320,192,2164,1,0,0:0:0:0:
192,192,2340,1,0,0:0:0:0:
64,192,2517,1,0,0:0:0:0:
192,192,2693,128,0,3399:0:0:0:0:
320,192,2693,1,0,0:0:0:0:
448,192,2870,1,0,0:0:0:0:
64,192,3046,1,0,0:0:0:0:
448,192,3223,1,0,0:0:0:0:
320,192,3399,128,0,5517:0:0:0:0:
64,192,3399,1,0,0:0:0:0:
448,192,3575,1,0,0:0:0:0:
192,192,3752,1,0,0:0:0:0:
64,192,3928,1,0,0:0:0:0:
448,192,4281,1,0,0:0:0:0:
192,192,4458,1,0,0:0:0:0:
448,192,4634,1,0,0:0:0:0:
64,192,4811,1,0,0:0:0:0:
192,192,4987,1,0,0:0:0:0:
448,192,5164,1,0,0:0:0:0:
192,192,5340,1,0,0:0:0:0:
64,192,5517,128,0,6223:0:0:0:0:
448,192,5517,1,0,0:0:0:0:
320,192,5693,1,0,0:0:0:0:
192,192,5870,1,0,0:0:0:0:
320,192,6046,1,0,0:0:0:0:
448,192,6223,128,0,8340:0:0:0:0:
192,192,6223,1,0,0:0:0:0:
320,192,6399,1,0,0:0:0:0:
64,192,6575,1,0,0:0:0:0:
192,192,6752,1,0,0:0:0:0:
64,192,7105,1,0,0:0:0:0:
320,192,7281,1,0,0:0:0:0:
192,192,7458,1,0,0:0:0:0:
64,192,7634,1,0,0:0:0:0:
320,192,7811,1,0,0:0:0:0:
64,192,7987,1,0,0:0:0:0:
320,192,8164,1,0,0:0:0:0:
192,192,8340,128,0,9046:0:0:0:0:
64,192,8340,1,0,0:0:0:0:
448,192,8517,1,0,0:0:0:0:
320,192,8693,1,0,0:0:0:0:
64,192,8870,1,0,0:0:0:0:
320,192,9046,128,0,9575:0:0:0:0:
448,192,9046,1,0,0:0:0:0:
192,192,9223,1,0,0:0:0:0:
448,192,9399,1,0,0:0:0:0:
64,192,9575,128,0,10105:0:0:0:0:
192,192,9575,1,0,0:0:0:0:
320,192,9928,1,0,0:0:0:0:
448,192,10105,128,0,10458:0:0:0:0:
192,192,10105,1,0,0:0:0:0:
320,192,10281,1,0,0:0:0:0:
192,192,10458,128,0,11164:0:0:0:0:
64,192,10458,1,0,0:0:0:0:
320,192,10634,1,0,0:0:0:0:
64,192,10811,1,0,0:0:0:0:
448,192,10987,1,0,0:0:0:0:
320,192,11075,1,0,0:0:0:0:
64,192,11164,1,0,0:0:0:0:
448,192,11870,1,0,0:0:0:0:
320,192,11958,1,0,0:0:0:0:
64,192,12105,1,0,0:0:0:0:
192,192,12164,1,0,0:0:0:0:
64,192,14693,1,0,0:0:0:0:
448,192,14693,1,0,0:0:0:0:
320,192,14870,1,0,0:0:0:0:
192,192,15046,1,0,0:0:0:0:
448,192,15223,1,0,0:0:0:0:
64,192,15399,1,0,0:0:0:0:
320,192,15575,1,0,0:0:0:0:
192,192,15752,1,0,0:0:0:0:
448,192,15928,1,0,0:0:0:0:
64,192,16105,1,0,0:0:0:0:
192,192,16281,1,0,0:0:0:0:
448,192,16458,1,0,0:0:0:0:
192,192,16634,1,0,0:0:0:0:
320,192,16811,1,0,0:0:0:0:
64,192,16811,1,0,0:0:0:0:
448,192,16987,1,0,0:0:0:0:
192,192,17164,1,0,0:0:0:0:
320,192,17340,1,0,0:0:0:0:
64,192,17517,1,0,0:0:0:0:
192,192,17517,1,0,0:0:0:0:
448,192,17693,1,0,0:0:0:0:
192,192,17870,1,0,0:0:0:0:
320,192,18046,1,0,0:0:0:0:
448,192,18223,1,0,0:0:0:0:
64,192,18399,1,0,0:0:0:0:
320,192,18575,1,0,0:0:0:0:
192,192,18752,1,0,0:0:0:0:
448,192,18928,1,0,0:0:0:0:
320,192,19105,1,0,0:0:0:0:
64,192,19281,1,0,0:0:0:0:
448,192,19458,1,0,0:0:0:0:
64,192,19634,1,0,0:0:0:0:
320,192,19634,1,0,0:0:0:0:
192,192,19811,1,0,0:0:0:0:
320,192,19987,1,0,0:0:0:0:
64,192,20164,1,0,0:0:0:0:
192,192,20340,1,0,0:0:0:0:
320,192,20340,1,0,0:0:0:0:
448,192,20517,1,0,0:0:0:0:
64,192,20693,1,0,0:0:0:0:
320,192,20870,1,0,0:0:0:0:
64,192,21046,1,0,0:0:0:0:
192,192,21223,1,0,0:0:0:0:
448,192,21399,1,0,0:0:0:0:
192,192,21575,1,0,0:0:0:0:
320,192,21752,1,0,0:0:0:0:
64,192,21928,1,0,0:0:0:0:
192,192,22105,1,0,0:0:0:0:
448,192,22281,1,0,0:0:0:0:
320,192,22458,1,0,0:0:0:0:
64,192,22458,1,0,0:0:0:0:
192,192,22634,1,0,0:0:0:0:
448,192,22811,1,0,0:0:0:0:
64,192,22987,1,0,0:0:0:0:
320,192,23164,1,0,0:0:0:0:
448,192,23164,128,0,25987:0:0:0:0:
64,192,23340,1,0,0:0:0:0:
192,192,23517,1,0,0:0:0:0:
320,192,23693,1,0,0:0:0:0:
64,192,23870,1,0,0:0:0:0:
192,192,24046,1,0,0:0:0:0:
320,192,24223,1,0,0:0:0:0:
192,192,24399,1,0,0:0:0:0:
320,192,24575,1,0,0:0:0:0:
64,192,24752,128,0,24928:0:0:0:0:
192,192,24928,1,0,0:0:0:0:
320,192,25105,128,0,25281:0:0:0:0:
192,192,25281,1,0,0:0:0:0:
64,192,25458,1,0,0:0:0:0:
192,192,25634,1,0,0:0:0:0:
320,192,25811,1,0,0:0:0:0:
192,192,25987,1,0,0:0:0:0:
64,192,25987,1,0,0:0:0:0:
320,192,26164,1,0,0:0:0:0:
448,192,26340,1,0,0:0:0:0:
64,192,26517,1,0,0:0:0:0:
448,192,26693,1,0,0:0:0:0:
192,192,26870,1,0,0:0:0:0:
320,192,27046,1,0,0:0:0:0:
64,192,27223,1,0,0:0:0:0:
448,192,27399,1,0,0:0:0:0:
320,192,27575,1,0,0:0:0:0:
64,192,27752,1,0,0:0:0:0:
320,192,27928,1,0,0:0:0:0:
192,192,28105,1,0,0:0:0:0:
448,192,28105,1,0,0:0:0:0:
64,192,28281,1,0,0:0:0:0:
320,192,28458,1,0,0:0:0:0:
192,192,28634,1,0,0:0:0:0:
320,192,28811,1,0,0:0:0:0:
448,192,28811,1,0,0:0:0:0:
64,192,28987,1,0,0:0:0:0:
320,192,29164,1,0,0:0:0:0:
192,192,29340,1,0,0:0:0:0:
64,192,29517,1,0,0:0:0:0:
448,192,29693,1,0,0:0:0:0:
192,192,29870,1,0,0:0:0:0:
320,192,30046,1,0,0:0:0:0:
64,192,30223,1,0,0:0:0:0:
192,192,30399,1,0,0:0:0:0:
448,192,30575,1,0,0:0:0:0:
64,192,30752,1,0,0:0:0:0:
448,192,30928,1,0,0:0:0:0:
192,192,30928,1,0,0:0:0:0:
320,192,31105,1,0,0:0:0:0:
192,192,31281,1,0,0:0:0:0:
448,192,31458,1,0,0:0:0:0:
320,192,31634,1,0,0:0:0:0:
192,192,31634,1,0,0:0:0:0:
64,192,31811,1,0,0:0:0:0:
448,192,31987,1,0,0:0:0:0:
192,192,32164,1,0,0:0:0:0:
448,192,32340,1,0,0:0:0:0:
320,192,32517,1,0,0:0:0:0:
64,192,32693,1,0,0:0:0:0:
320,192,32870,1,0,0:0:0:0:
192,192,33046,1,0,0:0:0:0:
448,192,33223,1,0,0:0:0:0:
320,192,33399,1,0,0:0:0:0:
64,192,33575,1,0,0:0:0:0:
448,192,33752,1,0,0:0:0:0:
192,192,33752,1,0,0:0:0:0:
320,192,33928,1,0,0:0:0:0:
64,192,34105,1,0,0:0:0:0:
448,192,34281,1,0,0:0:0:0:
192,192,34458,1,0,0:0:0:0:
64,192,34458,128,0,37281:0:0:0:0:
448,192,34634,1,0,0:0:0:0:
320,192,34811,1,0,0:0:0:0:
192,192,34987,1,0,0:0:0:0:
448,192,35164,1,0,0:0:0:0:
320,192,35340,1,0,0:0:0:0:
192,192,35517,1,0,0:0:0:0:
320,192,35693,1,0,0:0:0:0:
192,192,35870,1,0,0:0:0:0:
448,192,36046,128,0,36223:0:0:0:0:
320,192,36223,1,0,0:0:0:0:
192,192,36399,128,0,36575:0:0:0:0:
320,192,36575,1,0,0:0:0:0:
448,192,36752,1,0,0:0:0:0:
320,192,36928,1,0,0:0:0:0:
192,192,37105,1,0,0:0:0:0:
320,192,37281,1,0,0:0:0:0:
448,192,37281,1,0,0:0:0:0:
192,192,37458,1,0,0:0:0:0:
64,192,37634,1,0,0:0:0:0:
448,192,37811,1,0,0:0:0:0:
320,192,37987,1,0,0:0:0:0:
64,192,38164,1,0,0:0:0:0:
192,192,38340,1,0,0:0:0:0:
320,192,38517,1,0,0:0:0:0:
448,192,38517,1,0,0:0:0:0:
64,192,38693,1,0,0:0:0:0:
192,192,38870,1,0,0:0:0:0:
448,192,39046,1,0,0:0:0:0:
192,192,39223,1,0,0:0:0:0:
320,192,39399,1,0,0:0:0:0:
64,192,39575,1,0,0:0:0:0:
448,192,39752,1,0,0:0:0:0:
192,192,39928,1,0,0:0:0:0:
320,192,40017,1,0,0:0:0:0:
448,192,40105,1,0,0:0:0:0:
64,192,40105,1,0,0:0:0:0:
192,192,40281,1,0,0:0:0:0:
320,192,40458,1,0,0:0:0:0:
64,192,40634,1,0,0:0:0:0:
448,192,40811,1,0,0:0:0:0:
192,192,40987,1,0,0:0:0:0:
320,192,41164,1,0,0:0:0:0:
64,192,41340,1,0,0:0:0:0:
192,192,41428,1,0,0:0:0:0:
64,192,41517,1,0,0:0:0:0:
320,192,41517,1,0,0:0:0:0:
448,192,41693,1,0,0:0:0:0:
320,192,41870,1,0,0:0:0:0:
64,192,42046,1,0,0:0:0:0:
192,192,42223,1,0,0:0:0:0:
448,192,42399,1,0,0:0:0:0:
192,192,42575,1,0,0:0:0:0:
320,192,42752,1,0,0:0:0:0:
448,192,42840,1,0,0:0:0:0:
192,192,42928,1,0,0:0:0:0:
64,192,42928,1,0,0:0:0:0:
320,192,43105,1,0,0:0:0:0:
192,192,43281,1,0,0:0:0:0:
448,192,43458,1,0,0:0:0:0:
64,192,43634,1,0,0:0:0:0:
320,192,43811,1,0,0:0:0:0:
192,192,43987,1,0,0:0:0:0:
448,192,44164,1,0,0:0:0:0:
320,192,44252,1,0,0:0:0:0:
192,192,44340,1,0,0:0:0:0:
64,192,44340,1,0,0:0:0:0:
448,192,44517,1,0,0:0:0:0:
64,192,44693,1,0,0:0:0:0:
192,192,44870,1,0,0:0:0:0:
320,192,45046,1,0,0:0:0:0:
64,192,45223,1,0,0:0:0:0:
448,192,45399,1,0,0:0:0:0:
192,192,45575,1,0,0:0:0:0:
64,192,45752,128,0,48575:0:0:0:0:
320,192,45752,1,0,0:0:0:0:
448,192,45928,1,0,0:0:0:0:
320,192,46105,1,0,0:0:0:0:
192,192,46281,1,0,0:0:0:0:
448,192,46281,1,0,0:0:0:0:
320,192,46458,1,0,0:0:0:0:
192,192,46634,1,0,0:0:0:0:
448,192,46811,1,0,0:0:0:0:
192,192,46987,1,0,0:0:0:0:
320,192,47164,1,0,0:0:0:0:
448,192,47164,1,0,0:0:0:0:
320,192,47517,1,0,0:0:0:0:
192,192,47517,1,0,0:0:0:0:
320,192,47870,1,0,0:0:0:0:
448,192,47870,1,0,0:0:0:0:
192,192,48134,1,0,0:0:0:0:
448,192,48134,1,0,0:0:0:0:
320,192,48399,1,0,0:0:0:0:
192,192,48487,1,0,0:0:0:0:
320,192,48575,1,0,0:0:0:0:
448,192,48575,1,0,0:0:0:0:
192,192,48752,1,0,0:0:0:0:
64,192,48928,1,0,0:0:0:0:
448,192,49105,1,0,0:0:0:0:
192,192,49281,1,0,0:0:0:0:
320,192,49458,1,0,0:0:0:0:
192,192,49634,1,0,0:0:0:0:
448,192,49634,1,0,0:0:0:0:
64,192,49811,1,0,0:0:0:0:
320,192,49811,1,0,0:0:0:0:
192,192,49987,1,0,0:0:0:0:
64,192,50164,1,0,0:0:0:0:
192,192,50340,1,0,0:0:0:0:
448,192,50517,1,0,0:0:0:0:
64,192,50693,1,0,0:0:0:0:
192,192,50693,1,0,0:0:0:0:
320,192,50870,1,0,0:0:0:0:
448,192,51046,1,0,0:0:0:0:
192,192,51046,1,0,0:0:0:0:
64,192,51223,1,0,0:0:0:0:
320,192,51399,1,0,0:0:0:0:
448,192,51399,1,0,0:0:0:0:
192,192,51575,1,0,0:0:0:0:
64,192,51752,1,0,0:0:0:0:
192,192,51928,1,0,0:0:0:0:
320,192,51928,1,0,0:0:0:0:
448,192,52105,1,0,0:0:0:0:
64,192,52281,1,0,0:0:0:0:
192,192,52458,1,0,0:0:0:0:
320,192,52634,1,0,0:0:0:0:
192,192,52723,1,0,0:0:0:0:
64,192,52811,1,0,0:0:0:0:
448,192,52811,1,0,0:0:0:0:
320,192,52987,1,0,0:0:0:0:
192,192,53164,1,0,0:0:0:0:
448,192,53340,1,0,0:0:0:0:
64,192,53517,1,0,0:0:0:0:
192,192,53693,1,0,0:0:0:0:
448,192,53870,1,0,0:0:0:0:
192,192,54046,1,0,0:0:0:0:
320,192,54223,1,0,0:0:0:0:
64,192,54223,1,0,0:0:0:0:
448,192,54399,1,0,0:0:0:0:
192,192,54575,1,0,0:0:0:0:
320,192,54752,1,0,0:0:0:0:
64,192,54928,1,0,0:0:0:0:
320,192,55105,1,0,0:0:0:0:
192,192,55281,1,0,0:0:0:0:
448,192,55458,1,0,0:0:0:0:
64,192,55458,1,0,0:0:0:0:
192,192,55634,1,0,0:0:0:0:
320,192,55634,1,0,0:0:0:0:
448,192,55811,1,0,0:0:0:0:
192,192,55987,1,0,0:0:0:0:
320,192,56164,1,0,0:0:0:0:
64,192,56164,1,0,0:0:0:0:
192,192,56340,1,0,0:0:0:0:
448,192,56340,1,0,0:0:0:0:
64,192,56517,1,0,0:0:0:0:
320,192,56693,1,0,0:0:0:0:
192,192,56870,1,0,0:0:0:0:
64,192,57046,1,0,0:0:0:0:
320,192,57046,128,0,61281:0:0:0:0:
448,192,57223,1,0,0:0:0:0:
192,192,57399,1,0,0:0:0:0:
448,192,57575,1,0,0:0:0:0:
64,192,57752,1,0,0:0:0:0:
192,192,57928,1,0,0:0:0:0:
448,192,58105,1,0,0:0:0:0:
192,192,58281,1,0,0:0:0:0:
64,192,58458,1,0,0:0:0:0:
448,192,58458,1,0,0:0:0:0:
192,192,58634,1,0,0:0:0:0:
448,192,58811,1,0,0:0:0:0:
192,192,58987,1,0,0:0:0:0:
64,192,59164,1,0,0:0:0:0:
448,192,59340,1,0,0:0:0:0:
192,192,59517,1,0,0:0:0:0:
448,192,59693,1,0,0:0:0:0:
64,192,59870,1,0,0:0:0:0:
192,192,59870,1,0,0:0:0:0:
448,192,60046,1,0,0:0:0:0:
192,192,60223,1,0,0:0:0:0:
64,192,60399,1,0,0:0:0:0:
192,192,60575,1,0,0:0:0:0:
448,192,60575,128,0,61281:0:0:0:0:
64,192,60752,1,0,0:0:0:0:
192,192,60928,1,0,0:0:0:0:
64,192,61105,1,0,0:0:0:0:
320,192,61370,1,0,0:0:0:0:
64,192,61546,1,0,0:0:0:0:
448,192,61634,1,0,0:0:0:0:
192,192,61811,1,0,0:0:0:0:
320,192,61899,1,0,0:0:0:0:
64,192,62075,1,0,0:0:0:0:
448,192,62164,1,0,0:0:0:0:
192,192,62340,1,0,0:0:0:0:
320,192,62340,1,0,0:0:0:0:
448,192,62693,1,0,0:0:0:0:
64,192,62693,1,0,0:0:0:0:
192,192,62870,1,0,0:0:0:0:
320,192,63046,1,0,0:0:0:0:
64,192,63223,1,0,0:0:0:0:
448,192,63399,1,0,0:0:0:0:
192,192,63575,1,0,0:0:0:0:
320,192,63752,1,0,0:0:0:0:
64,192,63928,1,0,0:0:0:0:
448,192,64105,1,0,0:0:0:0:
320,192,64281,1,0,0:0:0:0:
64,192,64458,1,0,0:0:0:0:
320,192,64634,1,0,0:0:0:0:
192,192,64811,1,0,0:0:0:0:
448,192,64811,1,0,0:0:0:0:
64,192,64987,1,0,0:0:0:0:
320,192,65164,1,0,0:0:0:0:
192,192,65340,1,0,0:0:0:0:
320,192,65517,1,0,0:0:0:0:
448,192,65517,1,0,0:0:0:0:
64,192,65693,1,0,0:0:0:0:
320,192,65870,1,0,0:0:0:0:
192,192,66046,1,0,0:0:0:0:
64,192,66223,1,0,0:0:0:0:
448,192,66399,1,0,0:0:0:0:
192,192,66575,1,0,0:0:0:0:
320,192,66752,1,0,0:0:0:0:
64,192,66928,1,0,0:0:0:0:
192,192,67105,1,0,0:0:0:0:
448,192,67281,1,0,0:0:0:0:
64,192,67458,1,0,0:0:0:0:
192,192,67634,1,0,0:0:0:0:
448,192,67634,1,0,0:0:0:0:
320,192,67811,1,0,0:0:0:0:
192,192,67987,1,0,0:0:0:0:
448,192,68164,1,0,0:0:0:0:
320,192,68340,1,0,0:0:0:0:
192,192,68340,1,0,0:0:0:0:
64,192,68517,1,0,0:0:0:0:
448,192,68693,1,0,0:0:0:0:
192,192,68870,1,0,0:0:0:0:
448,192,69046,1,0,0:0:0:0:
320,192,69223,1,0,0:0:0:0:
64,192,69399,1,0,0:0:0:0:
320,192,69575,1,0,0:0:0:0:
192,192,69752,1,0,0:0:0:0:
448,192,69928,1,0,0:0:0:0:
320,192,70105,1,0,0:0:0:0:
64,192,70281,1,0,0:0:0:0:
448,192,70458,1,0,0:0:0:0:
192,192,70458,1,0,0:0:0:0:
320,192,70634,1,0,0:0:0:0:
64,192,70811,1,0,0:0:0:0:
448,192,70987,1,0,0:0:0:0:
192,192,71164,1,0,0:0:0:0:
64,192,71164,128,0,73987:0:0:0:0:
448,192,71340,1,0,0:0:0:0:
320,192,71517,1,0,0:0:0:0:
192,192,71693,1,0,0:0:0:0:
448,192,71870,1,0,0:0:0:0:
320,192,72046,1,0,0:0:0:0:
192,192,72223,1,0,0:0:0:0:
320,192,72399,1,0,0:0:0:0:
192,192,72575,1,0,0:0:0:0:
448,192,72752,128,0,72928:0:0:0:0:
320,192,72928,1,0,0:0:0:0:
192,192,73105,128,0,73281:0:0:0:0:
320,192,73281,1,0,0:0:0:0:
448,192,73458,1,0,0:0:0:0:
320,192,73634,1,0,0:0:0:0:
192,192,73811,1,0,0:0:0:0:
320,192,73987,1,0,0:0:0:0:
448,192,73987,1,0,0:0:0:0:
192,192,74164,1,0,0:0:0:0:
64,192,74340,1,0,0:0:0:0:
448,192,74517,1,0,0:0:0:0:
192,192,74517,1,0,0:0:0:0:
64,192,74693,1,0,0:0:0:0:
320,192,74870,1,0,0:0:0:0:
192,192,75046,1,0,0:0:0:0:
448,192,75223,1,0,0:0:0:0:
320,192,75311,1,0,0:0:0:0:
64,192,75399,1,0,0:0:0:0:
192,192,75575,1,0,0:0:0:0:
320,192,75664,1,0,0:0:0:0:
448,192,75752,1,0,0:0:0:0:
64,192,75928,1,0,0:0:0:0:
192,192,76017,1,0,0:0:0:0:
320,192,76105,1,0,0:0:0:0:
448,192,76281,1,0,0:0:0:0:
64,192,76370,1,0,0:0:0:0:
192,192,76458,1,0,0:0:0:0:
320,192,76634,1,0,0:0:0:0:
64,192,76811,1,0,0:0:0:0:
448,192,77075,1,0,0:0:0:0:
192,192,77340,1,0,0:0:0:0:
448,192,77517,1,0,0:0:0:0:
64,192,77693,1,0,0:0:0:0:
320,192,77870,1,0,0:0:0:0:
192,192,78046,1,0,0:0:0:0:
64,192,78134,1,0,0:0:0:0:
448,192,78223,1,0,0:0:0:0:
320,192,78399,1,0,0:0:0:0:
64,192,78575,1,0,0:0:0:0:
448,192,78752,1,0,0:0:0:0:
320,192,78928,1,0,0:0:0:0:
64,192,78928,1,0,0:0:0:0:
192,192,79105,1,0,0:0:0:0:
320,192,79281,1,0,0:0:0:0:
64,192,79458,1,0,0:0:0:0:
320,192,79634,1,0,0:0:0:0:
192,192,79634,1,0,0:0:0:0:
448,192,79811,1,0,0:0:0:0:
64,192,79987,1,0,0:0:0:0:
320,192,80164,1,0,0:0:0:0:
64,192,80340,1,0,0:0:0:0:
448,192,80340,1,0,0:0:0:0:
192,192,80517,1,0,0:0:0:0:
448,192,80693,1,0,0:0:0:0:
192,192,80870,1,0,0:0:0:0:
320,192,81046,1,0,0:0:0:0:
448,192,81046,1,0,0:0:0:0:
64,192,81223,1,0,0:0:0:0:
192,192,81399,1,0,0:0:0:0:
448,192,81575,1,0,0:0:0:0:
320,192,81752,1,0,0:0:0:0:
64,192,81752,1,0,0:0:0:0:
192,192,81928,1,0,0:0:0:0:
448,192,82105,1,0,0:0:0:0:
64,192,82281,1,0,0:0:0:0:
448,192,82458,128,0,85281:0:0:0:0:
320,192,82458,1,0,0:0:0:0:
64,192,82634,1,0,0:0:0:0:
192,192,82811,1,0,0:0:0:0:
320,192,82987,1,0,0:0:0:0:
64,192,83164,1,0,0:0:0:0:
192,192,83340,1,0,0:0:0:0:
320,192,83517,1,0,0:0:0:0:
192,192,83693,1,0,0:0:0:0:
320,192,83870,128,0,85281:0:0:0:0:
64,192,84046,1,0,0:0:0:0:
192,192,84223,1,0,0:0:0:0:
64,192,84399,1,0,0:0:0:0:
192,192,84575,1,0,0:0:0:0:
64,192,84752,1,0,0:0:0:0:
192,192,84928,1,0,0:0:0:0:
64,192,85105,1,0,0:0:0:0:
192,192,85281,5,0,0:0:0:0:
64,192,85281,128,0,87399:0:0:0:0:
448,192,85458,1,0,0:0:0:0:
192,192,85634,1,0,0:0:0:0:
448,192,85811,1,0,0:0:0:0:
320,192,86164,1,0,0:0:0:0:
192,192,86340,1,0,0:0:0:0:
448,192,86517,1,0,0:0:0:0:
320,192,86693,1,0,0:0:0:0:
192,192,86870,1,0,0:0:0:0:
320,192,87046,1,0,0:0:0:0:
448,192,87223,1,0,0:0:0:0:
320,192,87399,128,0,88105:0:0:0:0:
192,192,87399,1,0,0:0:0:0:
64,192,87575,1,0,0:0:0:0:
448,192,87752,1,0,0:0:0:0:
64,192,87928,1,0,0:0:0:0:
448,192,88105,1,0,0:0:0:0:
192,192,88105,128,0,90223:0:0:0:0:
64,192,88281,1,0,0:0:0:0:
320,192,88458,1,0,0:0:0:0:
448,192,88634,1,0,0:0:0:0:
64,192,88987,1,0,0:0:0:0:
320,192,89164,1,0,0:0:0:0:
64,192,89340,1,0,0:0:0:0:
448,192,89517,1,0,0:0:0:0:
320,192,89693,1,0,0:0:0:0:
64,192,89870,1,0,0:0:0:0:
320,192,90046,1,0,0:0:0:0:
64,192,90223,1,0,0:0:0:0:
448,192,90223,128,0,90928:0:0:0:0:
192,192,90399,1,0,0:0:0:0:
320,192,90575,1,0,0:0:0:0:
192,192,90752,1,0,0:0:0:0:
64,192,90928,128,0,93046:0:0:0:0:
320,192,90928,1,0,0:0:0:0:
192,192,91105,1,0,0:0:0:0:
448,192,91281,1,0,0:0:0:0:
320,192,91458,1,0,0:0:0:0:
448,192,91811,1,0,0:0:0:0:
192,192,91987,1,0,0:0:0:0:
320,192,92164,1,0,0:0:0:0:
448,192,92340,1,0,0:0:0:0:
192,192,92517,1,0,0:0:0:0:
448,192,92693,1,0,0:0:0:0:
192,192,92870,1,0,0:0:0:0:
448,192,93046,1,0,0:0:0:0:
320,192,93046,128,0,93752:0:0:0:0:
64,192,93223,1,0,0:0:0:0:
192,192,93399,1,0,0:0:0:0:
448,192,93575,1,0,0:0:0:0:
64,192,93752,1,0,0:0:0:0:
192,192,93752,128,0,94314:0:0:0:0:
320,192,93939,1,0,0:0:0:0:
64,192,94127,1,0,0:0:0:0:
320,192,94314,1,0,0:0:0:0:
448,192,94314,128,0,94915:0:0:0:0:
192,192,94708,1,0,0:0:0:0:
64,192,94915,128,0,95343:0:0:0:0:
320,192,94915,1,0,0:0:0:0:
448,192,95129,1,0,0:0:0:0:
192,192,95343,1,0,0:0:0:0:
320,192,95343,128,0,96323:0:0:0:0:
448,192,95577,1,0,0:0:0:0:
192,192,95811,1,0,0:0:0:0:
64,192,96067,1,0,0:0:0:0:
448,192,96323,128,0,98262:0:0:0:0:
192,192,96323,1,0,0:0:0:0:
64,192,96626,1,0,0:0:0:0:
320,192,96929,1,0,0:0:0:0:
192,192,97262,1,0,0:0:0:0:
64,192,98262,1,0,0:0:0:0:
448,192,98399,1,0,0:0:0:0:
320,192,98468,1,0,0:0:0:0:
64,192,98537,1,0,0:0:0:0:
192,192,98606,1,0,0:0:0:0:
