osu file format v14

[General]
AudioFilename: Super Star MITSURI - Thank You For Playing ~.mp3
AudioLeadIn: 0
PreviewTime: -1
Countdown: 0
SampleSet: Soft
StackLeniency: 0.7
Mode: 3
LetterboxInBreaks: 0
SpecialStyle: 0
WidescreenStoryboard: 1

[Editor]
Bookmarks: 576,14693,23164,25987,37281,62693,73987
DistanceSpacing: 1.1
BeatDivisor: 4
GridSize: 8
TimelineZoom: 1.8

[Metadata]
Title:Thank You For Playing ~
TitleUnicode:Thank You For Playing ~
Artist:Super Star MITSURU
ArtistUnicode:Super Star MITSURU
Creator:Steins
Version:Raika's 7K ~ Thank You For Playing~
Source:BeatmapIIDX
Tags:Steins Xeostyle __M A S__ Eternalie redfire099 [-Seiryuu-] DrawdeX Resuner YunoFanatic TheZiemniax LordRaika ALEFY
BeatmapID:731260
BeatmapSetID:317414

[Difficulty]
HPDrainRate:7
CircleSize:7
OverallDifficulty:7.5
ApproachRate:5
SliderMultiplier:1.4
SliderTickRate:1

[Events]
//Background and Video events
0,0,"piano-no-mori-9.png",0,0
//Break Periods
//Storyboard Layer 0 (Background)
//Storyboard Layer 1 (Fail)
//Storyboard Layer 2 (Pass)
//Storyboard Layer 3 (Foreground)
//Storyboard Sound Samples

[TimingPoints]
576,352.941176470588,4,2,0,5,1,0
30947,-100,4,2,0,5,0,0
31634,-100,4,2,0,5,0,0
61458,-100,4,2,0,5,0,0
61546,-100,4,2,0,5,0,0
61723,-100,4,2,0,5,0,0
61811,-100,4,2,0,5,0,0
61987,-100,4,2,0,5,0,0
62075,-100,4,2,0,5,0,0
62252,-100,4,2,0,5,0,0
62340,-100,4,2,0,5,0,0
62605,-100,4,2,0,5,0,0
62693,-100,4,2,0,5,0,0
85370,-100,4,2,0,5,0,0
93778,-100,4,2,0,5,0,0
94333,-100,4,2,0,5,0,0
94899,-100,4,2,0,5,0,0
95350,-100,4,2,0,5,0,0
96311,-100,4,2,0,5,0,0

[HitObjects]
36,192,576,5,0,0:0:0:0:
182,192,576,1,0,0:0:0:0:
256,192,576,1,0,0:0:0:0:
402,192,576,1,0,0:0:0:0:
475,192,576,1,0,0:0:0:0:
329,192,752,1,0,0:0:0:0:
36,192,928,1,0,0:0:0:0:
329,192,1105,128,0,1193:0:0:0:0:
109,192,1458,1,0,0:0:0:0:
402,192,1634,1,0,0:0:0:0:
109,192,1811,1,0,0:0:0:0:
475,192,1987,128,0,2075:0:0:0:0:
109,192,2164,1,0,0:0:0:0:
402,192,2340,128,0,2428:0:0:0:0:
109,192,2517,1,0,0:0:0:0:
329,192,2693,128,0,2781:0:0:0:0:
475,192,2693,128,0,2781:0:0:0:0:
36,192,2693,128,0,2781:0:0:0:0:
182,192,2870,1,0,0:0:0:0:
402,192,3046,128,0,3134:0:0:0:0:
256,192,3223,1,0,0:0:0:0:
182,192,3399,128,0,3487:0:0:0:0:
36,192,3399,128,0,3487:0:0:0:0:
475,192,3399,128,0,3487:0:0:0:0:
329,192,3575,1,0,0:0:0:0:
109,192,3752,1,0,0:0:0:0:
402,192,3928,128,0,4017:0:0:0:0:
109,192,4281,1,0,0:0:0:0:
329,192,4458,1,0,0:0:0:0:
109,192,4634,1,0,0:0:0:0:
402,192,4811,128,0,4899:0:0:0:0:
109,192,4987,1,0,0:0:0:0:
329,192,5164,128,0,5252:0:0:0:0:
109,192,5340,1,0,0:0:0:0:
475,192,5517,128,0,5605:0:0:0:0:
256,192,5517,128,0,5605:0:0:0:0:
36,192,5517,128,0,5605:0:0:0:0:
182,192,5693,1,0,0:0:0:0:
329,192,5870,1,0,0:0:0:0:
182,192,6046,1,0,0:0:0:0:
109,192,6223,128,0,6311:0:0:0:0:
256,192,6223,128,0,6311:0:0:0:0:
402,192,6223,128,0,6311:0:0:0:0:
36,192,6399,1,0,0:0:0:0:
182,192,6575,1,0,0:0:0:0:
329,192,6752,128,0,6840:0:0:0:0:
182,192,7105,1,0,0:0:0:0:
36,192,7281,1,0,0:0:0:0:
182,192,7458,1,0,0:0:0:0:
109,192,7634,1,0,0:0:0:0:
329,192,7634,1,0,0:0:0:0:
36,192,7634,1,0,0:0:0:0:
475,192,7634,1,0,0:0:0:0:
182,192,7811,1,0,0:0:0:0:
256,192,7987,1,0,0:0:0:0:
329,192,8164,1,0,0:0:0:0:
475,192,8340,128,0,8428:0:0:0:0:
402,192,8340,128,0,8428:0:0:0:0:
36,192,8340,1,0,0:0:0:0:
109,192,8517,1,0,0:0:0:0:
182,192,8693,1,0,0:0:0:0:
256,192,8870,1,0,0:0:0:0:
329,192,9046,128,0,9134:0:0:0:0:
402,192,9046,128,0,9134:0:0:0:0:
36,192,9046,1,0,0:0:0:0:
109,192,9223,1,0,0:0:0:0:
182,192,9399,1,0,0:0:0:0:
256,192,9575,128,0,9664:0:0:0:0:
329,192,9575,128,0,9664:0:0:0:0:
36,192,9575,1,0,0:0:0:0:
109,192,9928,1,0,0:0:0:0:
182,192,10105,128,0,10193:0:0:0:0:
256,192,10105,128,0,10193:0:0:0:0:
109,192,10281,1,0,0:0:0:0:
402,192,10458,128,0,10546:0:0:0:0:
475,192,10458,128,0,10546:0:0:0:0:
36,192,10458,1,0,0:0:0:0:
109,192,10634,1,0,0:0:0:0:
182,192,10811,1,0,0:0:0:0:
402,192,10987,1,0,0:0:0:0:
36,192,10987,1,0,0:0:0:0:
329,192,11075,1,0,0:0:0:0:
402,192,11164,128,0,11252:0:0:0:0:
109,192,11164,1,0,0:0:0:0:
182,192,11340,1,0,0:0:0:0:
256,192,11517,1,0,0:0:0:0:
329,192,11693,1,0,0:0:0:0:
36,192,11870,128,0,13458:0:0:0:0:
109,192,11928,128,0,13634:0:0:0:0:
182,192,11987,128,0,13811:0:0:0:0:
256,192,12046,128,0,13987:0:0:0:0:
329,192,12105,128,0,14164:0:0:0:0:
402,192,12164,128,0,14340:0:0:0:0:
36,192,14693,1,0,0:0:0:0:
329,192,14693,1,0,0:0:0:0:
402,192,14693,1,0,0:0:0:0:
182,192,14693,1,0,0:0:0:0:
256,192,14693,1,0,0:0:0:0:
109,192,14781,1,0,0:0:0:0:
182,192,14870,1,0,0:0:0:0:
256,192,14958,1,0,0:0:0:0:
36,192,15046,1,0,0:0:0:0:
329,192,15046,1,0,0:0:0:0:
475,192,15046,1,0,0:0:0:0:
109,192,15134,1,0,0:0:0:0:
182,192,15223,1,0,0:0:0:0:
256,192,15311,1,0,0:0:0:0:
475,192,15399,1,0,0:0:0:0:
109,192,15399,1,0,0:0:0:0:
329,192,15487,1,0,0:0:0:0:
36,192,15575,1,0,0:0:0:0:
256,192,15664,1,0,0:0:0:0:
329,192,15752,1,0,0:0:0:0:
402,192,15752,1,0,0:0:0:0:
475,192,15752,1,0,0:0:0:0:
182,192,15840,1,0,0:0:0:0:
36,192,15928,1,0,0:0:0:0:
256,192,16017,1,0,0:0:0:0:
109,192,16105,1,0,0:0:0:0:
402,192,16105,1,0,0:0:0:0:
475,192,16193,1,0,0:0:0:0:
182,192,16281,1,0,0:0:0:0:
329,192,16370,1,0,0:0:0:0:
109,192,16458,1,0,0:0:0:0:
36,192,16458,1,0,0:0:0:0:
402,192,16458,1,0,0:0:0:0:
182,192,16546,1,0,0:0:0:0:
256,192,16634,1,0,0:0:0:0:
329,192,16723,1,0,0:0:0:0:
475,192,16811,128,0,16899:0:0:0:0:
402,192,16811,128,0,16899:0:0:0:0:
36,192,16899,1,0,0:0:0:0:
329,192,16987,1,0,0:0:0:0:
109,192,17075,1,0,0:0:0:0:
182,192,17164,1,0,0:0:0:0:
329,192,17164,1,0,0:0:0:0:
256,192,17164,1,0,0:0:0:0:
182,192,17340,1,0,0:0:0:0:
329,192,17340,1,0,0:0:0:0:
256,192,17340,1,0,0:0:0:0:
109,192,17517,128,0,17605:0:0:0:0:
36,192,17517,128,0,17605:0:0:0:0:
475,192,17517,1,0,0:0:0:0:
402,192,17605,1,0,0:0:0:0:
329,192,17693,1,0,0:0:0:0:
256,192,17781,1,0,0:0:0:0:
475,192,17870,1,0,0:0:0:0:
182,192,17870,1,0,0:0:0:0:
109,192,17870,1,0,0:0:0:0:
402,192,17958,1,0,0:0:0:0:
329,192,18046,1,0,0:0:0:0:
256,192,18134,1,0,0:0:0:0:
109,192,18223,1,0,0:0:0:0:
402,192,18223,1,0,0:0:0:0:
329,192,18311,1,0,0:0:0:0:
36,192,18399,1,0,0:0:0:0:
256,192,18487,1,0,0:0:0:0:
109,192,18575,1,0,0:0:0:0:
402,192,18575,1,0,0:0:0:0:
329,192,18575,1,0,0:0:0:0:
475,192,18664,1,0,0:0:0:0:
182,192,18752,1,0,0:0:0:0:
402,192,18840,1,0,0:0:0:0:
36,192,18928,1,0,0:0:0:0:
256,192,18928,1,0,0:0:0:0:
182,192,19017,1,0,0:0:0:0:
329,192,19105,1,0,0:0:0:0:
475,192,19193,1,0,0:0:0:0:
36,192,19281,1,0,0:0:0:0:
256,192,19281,1,0,0:0:0:0:
402,192,19281,1,0,0:0:0:0:
182,192,19370,1,0,0:0:0:0:
329,192,19458,1,0,0:0:0:0:
475,192,19546,1,0,0:0:0:0:
36,192,19634,128,0,19723:0:0:0:0:
109,192,19634,128,0,19723:0:0:0:0:
182,192,19723,1,0,0:0:0:0:
329,192,19811,1,0,0:0:0:0:
36,192,19899,1,0,0:0:0:0:
475,192,19899,1,0,0:0:0:0:
182,192,19987,1,0,0:0:0:0:
256,192,19987,1,0,0:0:0:0:
329,192,19987,1,0,0:0:0:0:
182,192,20164,1,0,0:0:0:0:
256,192,20164,1,0,0:0:0:0:
329,192,20164,1,0,0:0:0:0:
36,192,20340,1,0,0:0:0:0:
402,192,20340,128,0,20428:0:0:0:0:
475,192,20340,128,0,20428:0:0:0:0:
109,192,20428,1,0,0:0:0:0:
182,192,20517,1,0,0:0:0:0:
256,192,20605,1,0,0:0:0:0:
36,192,20693,1,0,0:0:0:0:
329,192,20693,1,0,0:0:0:0:
402,192,20693,1,0,0:0:0:0:
109,192,20781,1,0,0:0:0:0:
182,192,20870,1,0,0:0:0:0:
256,192,20958,1,0,0:0:0:0:
475,192,21046,1,0,0:0:0:0:
109,192,21046,1,0,0:0:0:0:
329,192,21134,1,0,0:0:0:0:
182,192,21223,1,0,0:0:0:0:
402,192,21311,1,0,0:0:0:0:
256,192,21399,1,0,0:0:0:0:
109,192,21399,1,0,0:0:0:0:
36,192,21399,1,0,0:0:0:0:
475,192,21487,1,0,0:0:0:0:
182,192,21575,1,0,0:0:0:0:
256,192,21664,1,0,0:0:0:0:
109,192,21752,1,0,0:0:0:0:
475,192,21752,1,0,0:0:0:0:
329,192,21840,1,0,0:0:0:0:
182,192,21928,1,0,0:0:0:0:
36,192,22017,1,0,0:0:0:0:
475,192,22105,1,0,0:0:0:0:
256,192,22105,1,0,0:0:0:0:
109,192,22105,1,0,0:0:0:0:
329,192,22193,1,0,0:0:0:0:
182,192,22281,1,0,0:0:0:0:
36,192,22370,1,0,0:0:0:0:
109,192,22458,1,0,0:0:0:0:
402,192,22458,1,0,0:0:0:0:
329,192,22546,1,0,0:0:0:0:
182,192,22634,1,0,0:0:0:0:
402,192,22723,1,0,0:0:0:0:
36,192,22811,1,0,0:0:0:0:
109,192,22811,1,0,0:0:0:0:
475,192,22811,1,0,0:0:0:0:
182,192,22987,1,0,0:0:0:0:
256,192,22987,1,0,0:0:0:0:
329,192,22987,1,0,0:0:0:0:
475,192,23164,1,0,0:0:0:0:
36,192,23164,1,0,0:0:0:0:
109,192,23252,1,0,0:0:0:0:
402,192,23252,1,0,0:0:0:0:
182,192,23340,1,0,0:0:0:0:
329,192,23340,1,0,0:0:0:0:
36,192,23428,1,0,0:0:0:0:
475,192,23428,1,0,0:0:0:0:
109,192,23517,1,0,0:0:0:0:
402,192,23517,1,0,0:0:0:0:
182,192,23605,1,0,0:0:0:0:
329,192,23605,1,0,0:0:0:0:
36,192,23693,1,0,0:0:0:0:
475,192,23693,1,0,0:0:0:0:
109,192,23781,1,0,0:0:0:0:
402,192,23781,1,0,0:0:0:0:
329,192,23870,1,0,0:0:0:0:
182,192,23870,1,0,0:0:0:0:
256,192,23870,1,0,0:0:0:0:
329,192,24046,1,0,0:0:0:0:
182,192,24046,1,0,0:0:0:0:
256,192,24046,1,0,0:0:0:0:
182,192,24223,1,0,0:0:0:0:
256,192,24223,1,0,0:0:0:0:
329,192,24223,1,0,0:0:0:0:
475,192,24311,1,0,0:0:0:0:
182,192,24399,1,0,0:0:0:0:
329,192,24399,1,0,0:0:0:0:
256,192,24399,1,0,0:0:0:0:
36,192,24487,1,0,0:0:0:0:
182,192,24575,1,0,0:0:0:0:
256,192,24575,1,0,0:0:0:0:
329,192,24575,1,0,0:0:0:0:
475,192,24752,1,0,0:0:0:0:
402,192,24796,1,0,0:0:0:0:
329,192,24840,1,0,0:0:0:0:
256,192,24884,1,0,0:0:0:0:
182,192,24928,1,0,0:0:0:0:
109,192,24928,1,0,0:0:0:0:
36,192,25105,1,0,0:0:0:0:
109,192,25149,1,0,0:0:0:0:
182,192,25193,1,0,0:0:0:0:
256,192,25237,1,0,0:0:0:0:
329,192,25281,1,0,0:0:0:0:
402,192,25281,1,0,0:0:0:0:
109,192,25370,1,0,0:0:0:0:
182,192,25370,1,0,0:0:0:0:
329,192,25458,1,0,0:0:0:0:
402,192,25458,1,0,0:0:0:0:
109,192,25546,1,0,0:0:0:0:
182,192,25546,1,0,0:0:0:0:
329,192,25634,1,0,0:0:0:0:
402,192,25634,1,0,0:0:0:0:
256,192,25723,1,0,0:0:0:0:
182,192,25811,1,0,0:0:0:0:
109,192,25811,1,0,0:0:0:0:
256,192,25899,1,0,0:0:0:0:
329,192,25987,1,0,0:0:0:0:
402,192,25987,1,0,0:0:0:0:
475,192,25987,1,0,0:0:0:0:
182,192,25987,1,0,0:0:0:0:
109,192,25987,1,0,0:0:0:0:
36,192,25987,1,0,0:0:0:0:
256,192,26075,1,0,0:0:0:0:
182,192,26164,1,0,0:0:0:0:
109,192,26252,1,0,0:0:0:0:
329,192,26340,1,0,0:0:0:0:
36,192,26340,1,0,0:0:0:0:
475,192,26340,1,0,0:0:0:0:
256,192,26428,1,0,0:0:0:0:
182,192,26517,1,0,0:0:0:0:
109,192,26605,1,0,0:0:0:0:
402,192,26693,1,0,0:0:0:0:
36,192,26693,1,0,0:0:0:0:
182,192,26781,1,0,0:0:0:0:
329,192,26870,1,0,0:0:0:0:
109,192,26958,1,0,0:0:0:0:
475,192,27046,1,0,0:0:0:0:
256,192,27046,1,0,0:0:0:0:
36,192,27046,1,0,0:0:0:0:
182,192,27134,1,0,0:0:0:0:
329,192,27223,1,0,0:0:0:0:
109,192,27311,1,0,0:0:0:0:
402,192,27399,1,0,0:0:0:0:
182,192,27399,1,0,0:0:0:0:
256,192,27487,1,0,0:0:0:0:
329,192,27575,1,0,0:0:0:0:
402,192,27664,1,0,0:0:0:0:
36,192,27752,1,0,0:0:0:0:
475,192,27752,1,0,0:0:0:0:
109,192,27752,1,0,0:0:0:0:
182,192,27840,1,0,0:0:0:0:
256,192,27928,1,0,0:0:0:0:
329,192,28017,1,0,0:0:0:0:
475,192,28105,128,0,28193:0:0:0:0:
402,192,28105,128,0,28193:0:0:0:0:
109,192,28193,1,0,0:0:0:0:
329,192,28281,1,0,0:0:0:0:
36,192,28370,1,0,0:0:0:0:
182,192,28458,1,0,0:0:0:0:
329,192,28458,1,0,0:0:0:0:
256,192,28458,1,0,0:0:0:0:
182,192,28634,1,0,0:0:0:0:
329,192,28634,1,0,0:0:0:0:
256,192,28634,1,0,0:0:0:0:
475,192,28811,1,0,0:0:0:0:
36,192,28811,128,0,28899:0:0:0:0:
109,192,28811,128,0,28899:0:0:0:0:
402,192,28899,1,0,0:0:0:0:
329,192,28987,1,0,0:0:0:0:
256,192,29075,1,0,0:0:0:0:
475,192,29164,1,0,0:0:0:0:
182,192,29164,1,0,0:0:0:0:
109,192,29164,1,0,0:0:0:0:
402,192,29252,1,0,0:0:0:0:
329,192,29340,1,0,0:0:0:0:
256,192,29428,1,0,0:0:0:0:
109,192,29517,1,0,0:0:0:0:
475,192,29517,1,0,0:0:0:0:
329,192,29605,1,0,0:0:0:0:
36,192,29693,1,0,0:0:0:0:
256,192,29781,1,0,0:0:0:0:
182,192,29870,1,0,0:0:0:0:
109,192,29870,1,0,0:0:0:0:
402,192,29870,1,0,0:0:0:0:
329,192,29958,1,0,0:0:0:0:
36,192,30046,1,0,0:0:0:0:
402,192,30134,1,0,0:0:0:0:
109,192,30223,1,0,0:0:0:0:
475,192,30223,1,0,0:0:0:0:
329,192,30311,1,0,0:0:0:0:
182,192,30399,1,0,0:0:0:0:
36,192,30487,1,0,0:0:0:0:
109,192,30575,1,0,0:0:0:0:
475,192,30575,1,0,0:0:0:0:
256,192,30575,1,0,0:0:0:0:
329,192,30664,1,0,0:0:0:0:
182,192,30752,1,0,0:0:0:0:
36,192,30840,1,0,0:0:0:0:
475,192,30928,128,0,31017:0:0:0:0:
402,192,30928,128,0,31017:0:0:0:0:
329,192,31017,1,0,0:0:0:0:
182,192,31105,1,0,0:0:0:0:
36,192,31193,1,0,0:0:0:0:
475,192,31193,1,0,0:0:0:0:
256,192,31281,1,0,0:0:0:0:
182,192,31281,1,0,0:0:0:0:
329,192,31281,1,0,0:0:0:0:
329,192,31458,1,0,0:0:0:0:
182,192,31458,1,0,0:0:0:0:
256,192,31458,1,0,0:0:0:0:
475,192,31634,1,0,0:0:0:0:
109,192,31634,128,0,31723:0:0:0:0:
36,192,31634,128,0,31723:0:0:0:0:
402,192,31723,1,0,0:0:0:0:
329,192,31811,1,0,0:0:0:0:
402,192,31899,1,0,0:0:0:0:
256,192,31987,1,0,0:0:0:0:
475,192,31987,1,0,0:0:0:0:
36,192,31987,1,0,0:0:0:0:
109,192,32075,1,0,0:0:0:0:
182,192,32164,1,0,0:0:0:0:
109,192,32252,1,0,0:0:0:0:
475,192,32340,1,0,0:0:0:0:
36,192,32340,1,0,0:0:0:0:
402,192,32428,1,0,0:0:0:0:
329,192,32517,1,0,0:0:0:0:
402,192,32605,1,0,0:0:0:0:
36,192,32693,1,0,0:0:0:0:
475,192,32693,1,0,0:0:0:0:
256,192,32693,1,0,0:0:0:0:
109,192,32781,1,0,0:0:0:0:
182,192,32870,1,0,0:0:0:0:
109,192,32958,1,0,0:0:0:0:
329,192,33046,1,0,0:0:0:0:
36,192,33046,1,0,0:0:0:0:
475,192,33134,1,0,0:0:0:0:
329,192,33223,1,0,0:0:0:0:
475,192,33311,1,0,0:0:0:0:
182,192,33399,1,0,0:0:0:0:
329,192,33399,1,0,0:0:0:0:
256,192,33399,1,0,0:0:0:0:
36,192,33487,1,0,0:0:0:0:
182,192,33575,1,0,0:0:0:0:
36,192,33664,1,0,0:0:0:0:
329,192,33752,1,0,0:0:0:0:
475,192,33840,1,0,0:0:0:0:
329,192,33928,1,0,0:0:0:0:
475,192,34017,1,0,0:0:0:0:
182,192,34105,1,0,0:0:0:0:
329,192,34105,1,0,0:0:0:0:
256,192,34105,1,0,0:0:0:0:
182,192,34281,1,0,0:0:0:0:
329,192,34281,1,0,0:0:0:0:
256,192,34281,1,0,0:0:0:0:
36,192,34458,1,0,0:0:0:0:
475,192,34458,1,0,0:0:0:0:
402,192,34546,1,0,0:0:0:0:
109,192,34546,1,0,0:0:0:0:
329,192,34634,1,0,0:0:0:0:
182,192,34634,1,0,0:0:0:0:
109,192,34723,1,0,0:0:0:0:
402,192,34723,1,0,0:0:0:0:
36,192,34811,1,0,0:0:0:0:
475,192,34811,1,0,0:0:0:0:
109,192,34899,1,0,0:0:0:0:
402,192,34899,1,0,0:0:0:0:
475,192,34987,1,0,0:0:0:0:
36,192,34987,1,0,0:0:0:0:
109,192,35075,1,0,0:0:0:0:
402,192,35075,1,0,0:0:0:0:
329,192,35164,1,0,0:0:0:0:
182,192,35164,1,0,0:0:0:0:
256,192,35164,1,0,0:0:0:0:
182,192,35340,1,0,0:0:0:0:
256,192,35340,1,0,0:0:0:0:
329,192,35340,1,0,0:0:0:0:
182,192,35517,1,0,0:0:0:0:
329,192,35517,1,0,0:0:0:0:
256,192,35517,1,0,0:0:0:0:
475,192,35605,1,0,0:0:0:0:
182,192,35693,1,0,0:0:0:0:
329,192,35693,1,0,0:0:0:0:
256,192,35693,1,0,0:0:0:0:
36,192,35781,1,0,0:0:0:0:
182,192,35870,1,0,0:0:0:0:
329,192,35870,1,0,0:0:0:0:
256,192,35870,1,0,0:0:0:0:
36,192,36046,128,0,36575:0:0:0:0:
109,192,36090,128,0,36575:0:0:0:0:
182,192,36134,128,0,36575:0:0:0:0:
329,192,36178,128,0,36575:0:0:0:0:
402,192,36223,128,0,36575:0:0:0:0:
475,192,36267,128,0,36575:0:0:0:0:
256,192,36575,1,0,0:0:0:0:
182,192,36664,1,0,0:0:0:0:
329,192,36664,1,0,0:0:0:0:
256,192,36752,1,0,0:0:0:0:
109,192,36840,1,0,0:0:0:0:
402,192,36840,1,0,0:0:0:0:
182,192,36928,1,0,0:0:0:0:
36,192,37017,1,0,0:0:0:0:
329,192,37017,1,0,0:0:0:0:
256,192,37105,1,0,0:0:0:0:
109,192,37193,1,0,0:0:0:0:
402,192,37193,1,0,0:0:0:0:
36,192,37281,1,0,0:0:0:0:
256,192,37281,1,0,0:0:0:0:
182,192,37281,1,0,0:0:0:0:
329,192,37281,1,0,0:0:0:0:
475,192,37281,128,0,37987:0:0:0:0:
109,192,37458,1,0,0:0:0:0:
182,192,37634,1,0,0:0:0:0:
36,192,37723,1,0,0:0:0:0:
256,192,37811,1,0,0:0:0:0:
109,192,37899,1,0,0:0:0:0:
182,192,37987,1,0,0:0:0:0:
402,192,37987,1,0,0:0:0:0:
329,192,38164,1,0,0:0:0:0:
182,192,38340,1,0,0:0:0:0:
475,192,38340,1,0,0:0:0:0:
329,192,38428,1,0,0:0:0:0:
36,192,38517,128,0,39223:0:0:0:0:
109,192,38517,128,0,39223:0:0:0:0:
402,192,38517,1,0,0:0:0:0:
256,192,38605,1,0,0:0:0:0:
475,192,38693,1,0,0:0:0:0:
402,192,38870,1,0,0:0:0:0:
256,192,39046,1,0,0:0:0:0:
329,192,39134,1,0,0:0:0:0:
182,192,39223,1,0,0:0:0:0:
256,192,39311,1,0,0:0:0:0:
109,192,39399,1,0,0:0:0:0:
182,192,39487,1,0,0:0:0:0:
256,192,39575,1,0,0:0:0:0:
329,192,39664,1,0,0:0:0:0:
182,192,39752,1,0,0:0:0:0:
475,192,39752,1,0,0:0:0:0:
256,192,39840,1,0,0:0:0:0:
329,192,39928,1,0,0:0:0:0:
36,192,39928,1,0,0:0:0:0:
402,192,40017,1,0,0:0:0:0:
475,192,40105,128,0,40811:0:0:0:0:
109,192,40105,1,0,0:0:0:0:
182,192,40281,1,0,0:0:0:0:
109,192,40458,1,0,0:0:0:0:
256,192,40546,1,0,0:0:0:0:
36,192,40634,1,0,0:0:0:0:
182,192,40723,1,0,0:0:0:0:
329,192,40811,1,0,0:0:0:0:
109,192,40987,1,0,0:0:0:0:
182,192,41164,1,0,0:0:0:0:
402,192,41164,1,0,0:0:0:0:
256,192,41252,1,0,0:0:0:0:
36,192,41340,128,0,42046:0:0:0:0:
109,192,41340,128,0,42046:0:0:0:0:
475,192,41340,1,0,0:0:0:0:
329,192,41428,1,0,0:0:0:0:
402,192,41517,1,0,0:0:0:0:
256,192,41693,1,0,0:0:0:0:
475,192,41870,1,0,0:0:0:0:
329,192,41958,1,0,0:0:0:0:
402,192,42046,1,0,0:0:0:0:
256,192,42134,1,0,0:0:0:0:
475,192,42223,1,0,0:0:0:0:
182,192,42311,1,0,0:0:0:0:
475,192,42399,1,0,0:0:0:0:
256,192,42487,1,0,0:0:0:0:
475,192,42575,1,0,0:0:0:0:
36,192,42575,1,0,0:0:0:0:
329,192,42664,1,0,0:0:0:0:
475,192,42752,1,0,0:0:0:0:
36,192,42752,1,0,0:0:0:0:
402,192,42840,1,0,0:0:0:0:
475,192,42928,128,0,43634:0:0:0:0:
36,192,42928,1,0,0:0:0:0:
182,192,43105,1,0,0:0:0:0:
109,192,43281,1,0,0:0:0:0:
329,192,43370,1,0,0:0:0:0:
182,192,43458,1,0,0:0:0:0:
36,192,43546,1,0,0:0:0:0:
256,192,43634,1,0,0:0:0:0:
109,192,43634,1,0,0:0:0:0:
402,192,43811,1,0,0:0:0:0:
182,192,43987,1,0,0:0:0:0:
475,192,44075,1,0,0:0:0:0:
36,192,44164,128,0,44870:0:0:0:0:
109,192,44164,128,0,44870:0:0:0:0:
329,192,44164,1,0,0:0:0:0:
402,192,44252,1,0,0:0:0:0:
256,192,44340,1,0,0:0:0:0:
475,192,44517,1,0,0:0:0:0:
402,192,44693,1,0,0:0:0:0:
256,192,44781,1,0,0:0:0:0:
475,192,44870,1,0,0:0:0:0:
329,192,44958,1,0,0:0:0:0:
402,192,45046,1,0,0:0:0:0:
475,192,45134,1,0,0:0:0:0:
256,192,45223,1,0,0:0:0:0:
329,192,45311,1,0,0:0:0:0:
402,192,45399,1,0,0:0:0:0:
36,192,45399,1,0,0:0:0:0:
182,192,45487,1,0,0:0:0:0:
256,192,45575,1,0,0:0:0:0:
36,192,45575,1,0,0:0:0:0:
329,192,45664,1,0,0:0:0:0:
402,192,45752,128,0,47164:0:0:0:0:
36,192,45752,1,0,0:0:0:0:
109,192,45840,1,0,0:0:0:0:
182,192,45928,1,0,0:0:0:0:
36,192,46017,1,0,0:0:0:0:
109,192,46105,1,0,0:0:0:0:
182,192,46193,1,0,0:0:0:0:
475,192,46281,128,0,47164:0:0:0:0:
36,192,46281,1,0,0:0:0:0:
109,192,46370,1,0,0:0:0:0:
182,192,46458,1,0,0:0:0:0:
36,192,46546,1,0,0:0:0:0:
109,192,46634,1,0,0:0:0:0:
182,192,46723,1,0,0:0:0:0:
36,192,46811,1,0,0:0:0:0:
109,192,46899,1,0,0:0:0:0:
182,192,46987,1,0,0:0:0:0:
36,192,47075,1,0,0:0:0:0:
329,192,47164,1,0,0:0:0:0:
182,192,47164,1,0,0:0:0:0:
256,192,47164,1,0,0:0:0:0:
109,192,47164,1,0,0:0:0:0:
36,192,47340,1,0,0:0:0:0:
109,192,47384,1,0,0:0:0:0:
182,192,47428,1,0,0:0:0:0:
256,192,47473,1,0,0:0:0:0:
329,192,47517,1,0,0:0:0:0:
402,192,47517,1,0,0:0:0:0:
36,192,47605,1,0,0:0:0:0:
475,192,47693,1,0,0:0:0:0:
402,192,47737,1,0,0:0:0:0:
329,192,47781,1,0,0:0:0:0:
256,192,47825,1,0,0:0:0:0:
182,192,47870,1,0,0:0:0:0:
109,192,47870,1,0,0:0:0:0:
36,192,47958,1,0,0:0:0:0:
109,192,48002,1,0,0:0:0:0:
182,192,48046,1,0,0:0:0:0:
256,192,48090,1,0,0:0:0:0:
329,192,48134,1,0,0:0:0:0:
402,192,48134,1,0,0:0:0:0:
475,192,48223,1,0,0:0:0:0:
402,192,48267,1,0,0:0:0:0:
329,192,48311,1,0,0:0:0:0:
256,192,48355,1,0,0:0:0:0:
109,192,48399,1,0,0:0:0:0:
182,192,48399,1,0,0:0:0:0:
329,192,48487,1,0,0:0:0:0:
402,192,48487,1,0,0:0:0:0:
36,192,48575,1,0,0:0:0:0:
256,192,48575,1,0,0:0:0:0:
182,192,48575,1,0,0:0:0:0:
109,192,48575,1,0,0:0:0:0:
475,192,48575,128,0,48928:0:0:0:0:
329,192,48752,1,0,0:0:0:0:
182,192,48928,1,0,0:0:0:0:
36,192,48928,1,0,0:0:0:0:
402,192,48928,1,0,0:0:0:0:
256,192,49105,1,0,0:0:0:0:
329,192,49281,1,0,0:0:0:0:
109,192,49281,1,0,0:0:0:0:
256,192,49458,1,0,0:0:0:0:
402,192,49634,128,0,49811:0:0:0:0:
182,192,49634,1,0,0:0:0:0:
36,192,49634,1,0,0:0:0:0:
329,192,49811,128,0,50164:0:0:0:0:
109,192,49811,1,0,0:0:0:0:
182,192,49987,1,0,0:0:0:0:
256,192,50164,1,0,0:0:0:0:
36,192,50340,1,0,0:0:0:0:
182,192,50340,1,0,0:0:0:0:
402,192,50340,1,0,0:0:0:0:
475,192,50517,1,0,0:0:0:0:
402,192,50693,128,0,50870:0:0:0:0:
109,192,50693,1,0,0:0:0:0:
256,192,50870,128,0,51046:0:0:0:0:
36,192,50870,1,0,0:0:0:0:
109,192,51046,128,0,51223:0:0:0:0:
329,192,51046,1,0,0:0:0:0:
475,192,51046,1,0,0:0:0:0:
36,192,51223,128,0,51399:0:0:0:0:
402,192,51223,1,0,0:0:0:0:
182,192,51399,128,0,51664:0:0:0:0:
402,192,51399,1,0,0:0:0:0:
475,192,51575,1,0,0:0:0:0:
329,192,51664,128,0,51928:0:0:0:0:
109,192,51752,1,0,0:0:0:0:
36,192,51752,1,0,0:0:0:0:
475,192,51928,128,0,52281:0:0:0:0:
182,192,51928,1,0,0:0:0:0:
109,192,52105,1,0,0:0:0:0:
329,192,52281,1,0,0:0:0:0:
36,192,52458,1,0,0:0:0:0:
109,192,52458,1,0,0:0:0:0:
402,192,52458,1,0,0:0:0:0:
182,192,52634,128,0,52811:0:0:0:0:
256,192,52678,128,0,52811:0:0:0:0:
329,192,52723,128,0,52811:0:0:0:0:
402,192,52767,128,0,52811:0:0:0:0:
475,192,52811,1,0,0:0:0:0:
109,192,52987,1,0,0:0:0:0:
36,192,53164,5,0,0:0:0:0:
182,192,53164,1,0,0:0:0:0:
329,192,53164,1,0,0:0:0:0:
475,192,53340,1,0,0:0:0:0:
109,192,53517,1,0,0:0:0:0:
402,192,53517,1,0,0:0:0:0:
109,192,53781,1,0,0:0:0:0:
402,192,53781,1,0,0:0:0:0:
256,192,53870,1,0,0:0:0:0:
182,192,53870,1,0,0:0:0:0:
475,192,53870,1,0,0:0:0:0:
109,192,54046,1,0,0:0:0:0:
402,192,54046,1,0,0:0:0:0:
182,192,54223,5,0,0:0:0:0:
36,192,54223,1,0,0:0:0:0:
256,192,54223,1,0,0:0:0:0:
329,192,54223,1,0,0:0:0:0:
475,192,54223,128,0,55458:0:0:0:0:
109,192,54399,128,0,54575:0:0:0:0:
109,192,54752,128,0,54928:0:0:0:0:
109,192,55105,128,0,55281:0:0:0:0:
109,192,55458,128,0,55634:0:0:0:0:
329,192,55458,1,0,0:0:0:0:
329,192,55634,128,0,56164:0:0:0:0:
109,192,55811,128,0,55987:0:0:0:0:
109,192,56164,128,0,56340:0:0:0:0:
402,192,56164,1,0,0:0:0:0:
402,192,56340,128,0,56870:0:0:0:0:
109,192,56517,128,0,56693:0:0:0:0:
109,192,56870,128,0,57046:0:0:0:0:
329,192,56870,1,0,0:0:0:0:
475,192,56870,1,0,0:0:0:0:
329,192,57046,1,0,0:0:0:0:
475,192,57046,1,0,0:0:0:0:
256,192,57046,1,0,0:0:0:0:
36,192,57046,1,0,0:0:0:0:
182,192,57134,1,0,0:0:0:0:
329,192,57223,1,0,0:0:0:0:
475,192,57311,1,0,0:0:0:0:
256,192,57399,1,0,0:0:0:0:
109,192,57487,1,0,0:0:0:0:
256,192,57575,1,0,0:0:0:0:
402,192,57664,1,0,0:0:0:0:
36,192,57752,1,0,0:0:0:0:
182,192,57840,1,0,0:0:0:0:
329,192,57928,1,0,0:0:0:0:
475,192,58017,1,0,0:0:0:0:
256,192,58105,1,0,0:0:0:0:
109,192,58193,1,0,0:0:0:0:
256,192,58281,1,0,0:0:0:0:
402,192,58370,1,0,0:0:0:0:
36,192,58458,1,0,0:0:0:0:
475,192,58458,1,0,0:0:0:0:
109,192,58458,1,0,0:0:0:0:
182,192,58546,1,0,0:0:0:0:
329,192,58634,1,0,0:0:0:0:
475,192,58723,1,0,0:0:0:0:
256,192,58811,1,0,0:0:0:0:
109,192,58899,1,0,0:0:0:0:
256,192,58987,1,0,0:0:0:0:
402,192,59075,1,0,0:0:0:0:
36,192,59164,1,0,0:0:0:0:
182,192,59252,1,0,0:0:0:0:
329,192,59340,1,0,0:0:0:0:
475,192,59428,1,0,0:0:0:0:
256,192,59517,1,0,0:0:0:0:
109,192,59605,1,0,0:0:0:0:
256,192,59693,1,0,0:0:0:0:
402,192,59781,1,0,0:0:0:0:
475,192,59870,1,0,0:0:0:0:
109,192,59870,1,0,0:0:0:0:
36,192,59870,1,0,0:0:0:0:
329,192,59928,1,0,0:0:0:0:
182,192,59987,1,0,0:0:0:0:
36,192,60046,1,0,0:0:0:0:
182,192,60105,1,0,0:0:0:0:
329,192,60164,1,0,0:0:0:0:
475,192,60223,1,0,0:0:0:0:
402,192,60281,1,0,0:0:0:0:
256,192,60340,1,0,0:0:0:0:
109,192,60399,1,0,0:0:0:0:
256,192,60458,1,0,0:0:0:0:
402,192,60517,1,0,0:0:0:0:
475,192,60575,1,0,0:0:0:0:
109,192,60575,1,0,0:0:0:0:
36,192,60575,1,0,0:0:0:0:
329,192,60634,1,0,0:0:0:0:
182,192,60693,1,0,0:0:0:0:
36,192,60752,1,0,0:0:0:0:
182,192,60811,1,0,0:0:0:0:
329,192,60870,1,0,0:0:0:0:
475,192,60928,1,0,0:0:0:0:
402,192,60987,1,0,0:0:0:0:
256,192,61046,1,0,0:0:0:0:
109,192,61105,1,0,0:0:0:0:
256,192,61164,1,0,0:0:0:0:
402,192,61223,1,0,0:0:0:0:
256,192,61370,1,0,0:0:0:0:
109,192,61370,1,0,0:0:0:0:
36,192,61370,1,0,0:0:0:0:
402,192,61370,1,0,0:0:0:0:
475,192,61370,1,0,0:0:0:0:
182,192,61546,1,0,0:0:0:0:
329,192,61546,1,0,0:0:0:0:
182,192,61634,1,0,0:0:0:0:
329,192,61634,1,0,0:0:0:0:
109,192,61811,1,0,0:0:0:0:
402,192,61811,1,0,0:0:0:0:
109,192,61899,1,0,0:0:0:0:
402,192,61899,1,0,0:0:0:0:
36,192,62075,1,0,0:0:0:0:
475,192,62075,1,0,0:0:0:0:
36,192,62164,1,0,0:0:0:0:
475,192,62164,1,0,0:0:0:0:
109,192,62340,1,0,0:0:0:0:
182,192,62340,1,0,0:0:0:0:
256,192,62340,1,0,0:0:0:0:
329,192,62340,1,0,0:0:0:0:
402,192,62340,1,0,0:0:0:0:
36,192,62693,1,0,0:0:0:0:
182,192,62693,1,0,0:0:0:0:
329,192,62693,1,0,0:0:0:0:
475,192,62693,1,0,0:0:0:0:
256,192,62781,1,0,0:0:0:0:
182,192,62870,1,0,0:0:0:0:
109,192,62958,1,0,0:0:0:0:
36,192,63046,1,0,0:0:0:0:
402,192,63046,1,0,0:0:0:0:
475,192,63046,1,0,0:0:0:0:
329,192,63134,1,0,0:0:0:0:
256,192,63223,1,0,0:0:0:0:
182,192,63311,1,0,0:0:0:0:
109,192,63399,1,0,0:0:0:0:
329,192,63399,1,0,0:0:0:0:
256,192,63487,1,0,0:0:0:0:
182,192,63575,1,0,0:0:0:0:
109,192,63664,1,0,0:0:0:0:
36,192,63752,1,0,0:0:0:0:
402,192,63752,1,0,0:0:0:0:
475,192,63752,1,0,0:0:0:0:
329,192,63840,1,0,0:0:0:0:
256,192,63928,1,0,0:0:0:0:
182,192,64017,1,0,0:0:0:0:
109,192,64105,1,0,0:0:0:0:
329,192,64105,1,0,0:0:0:0:
256,192,64193,1,0,0:0:0:0:
182,192,64281,1,0,0:0:0:0:
109,192,64370,1,0,0:0:0:0:
475,192,64458,1,0,0:0:0:0:
402,192,64458,1,0,0:0:0:0:
36,192,64458,1,0,0:0:0:0:
329,192,64546,1,0,0:0:0:0:
256,192,64634,1,0,0:0:0:0:
182,192,64723,1,0,0:0:0:0:
329,192,64811,1,0,0:0:0:0:
109,192,64811,1,0,0:0:0:0:
256,192,64899,1,0,0:0:0:0:
182,192,64987,1,0,0:0:0:0:
109,192,65075,1,0,0:0:0:0:
36,192,65164,1,0,0:0:0:0:
329,192,65164,1,0,0:0:0:0:
475,192,65164,1,0,0:0:0:0:
182,192,65340,1,0,0:0:0:0:
402,192,65340,1,0,0:0:0:0:
182,192,65517,1,0,0:0:0:0:
402,192,65517,1,0,0:0:0:0:
256,192,65605,1,0,0:0:0:0:
329,192,65693,1,0,0:0:0:0:
402,192,65781,1,0,0:0:0:0:
475,192,65870,1,0,0:0:0:0:
109,192,65870,1,0,0:0:0:0:
36,192,65870,1,0,0:0:0:0:
182,192,65958,1,0,0:0:0:0:
256,192,66046,1,0,0:0:0:0:
329,192,66134,1,0,0:0:0:0:
182,192,66223,1,0,0:0:0:0:
402,192,66223,1,0,0:0:0:0:
256,192,66311,1,0,0:0:0:0:
329,192,66399,1,0,0:0:0:0:
402,192,66487,1,0,0:0:0:0:
36,192,66575,1,0,0:0:0:0:
109,192,66575,1,0,0:0:0:0:
475,192,66575,1,0,0:0:0:0:
182,192,66664,1,0,0:0:0:0:
256,192,66752,1,0,0:0:0:0:
329,192,66840,1,0,0:0:0:0:
402,192,66928,1,0,0:0:0:0:
182,192,66928,1,0,0:0:0:0:
256,192,67017,1,0,0:0:0:0:
329,192,67105,1,0,0:0:0:0:
402,192,67193,1,0,0:0:0:0:
475,192,67281,1,0,0:0:0:0:
109,192,67281,1,0,0:0:0:0:
36,192,67281,1,0,0:0:0:0:
182,192,67370,1,0,0:0:0:0:
256,192,67458,1,0,0:0:0:0:
329,192,67546,1,0,0:0:0:0:
182,192,67634,1,0,0:0:0:0:
402,192,67634,1,0,0:0:0:0:
182,192,67899,1,0,0:0:0:0:
402,192,67899,1,0,0:0:0:0:
36,192,67987,1,0,0:0:0:0:
256,192,67987,1,0,0:0:0:0:
475,192,67987,1,0,0:0:0:0:
182,192,68164,1,0,0:0:0:0:
402,192,68164,1,0,0:0:0:0:
109,192,68340,1,0,0:0:0:0:
256,192,68340,1,0,0:0:0:0:
475,192,68340,1,0,0:0:0:0:
36,192,68340,1,0,0:0:0:0:
402,192,68428,1,0,0:0:0:0:
329,192,68517,1,0,0:0:0:0:
256,192,68605,1,0,0:0:0:0:
182,192,68693,1,0,0:0:0:0:
36,192,68693,1,0,0:0:0:0:
109,192,68693,1,0,0:0:0:0:
475,192,68781,1,0,0:0:0:0:
402,192,68870,1,0,0:0:0:0:
329,192,68958,1,0,0:0:0:0:
256,192,69046,1,0,0:0:0:0:
182,192,69046,1,0,0:0:0:0:
109,192,69134,1,0,0:0:0:0:
182,192,69223,1,0,0:0:0:0:
256,192,69311,1,0,0:0:0:0:
329,192,69399,1,0,0:0:0:0:
402,192,69399,1,0,0:0:0:0:
475,192,69399,1,0,0:0:0:0:
36,192,69487,1,0,0:0:0:0:
109,192,69575,1,0,0:0:0:0:
182,192,69664,1,0,0:0:0:0:
329,192,69752,1,0,0:0:0:0:
256,192,69752,1,0,0:0:0:0:
402,192,69840,1,0,0:0:0:0:
329,192,69928,1,0,0:0:0:0:
256,192,70017,1,0,0:0:0:0:
182,192,70105,1,0,0:0:0:0:
109,192,70105,1,0,0:0:0:0:
36,192,70105,1,0,0:0:0:0:
475,192,70193,1,0,0:0:0:0:
402,192,70281,1,0,0:0:0:0:
329,192,70370,1,0,0:0:0:0:
182,192,70458,1,0,0:0:0:0:
256,192,70458,1,0,0:0:0:0:
109,192,70546,1,0,0:0:0:0:
182,192,70634,1,0,0:0:0:0:
256,192,70723,1,0,0:0:0:0:
329,192,70811,1,0,0:0:0:0:
402,192,70811,1,0,0:0:0:0:
475,192,70811,1,0,0:0:0:0:
182,192,70987,1,0,0:0:0:0:
256,192,70987,1,0,0:0:0:0:
36,192,71164,1,0,0:0:0:0:
329,192,71164,1,0,0:0:0:0:
109,192,71252,1,0,0:0:0:0:
402,192,71252,1,0,0:0:0:0:
182,192,71340,1,0,0:0:0:0:
475,192,71340,1,0,0:0:0:0:
256,192,71428,1,0,0:0:0:0:
329,192,71517,1,0,0:0:0:0:
36,192,71517,1,0,0:0:0:0:
109,192,71605,1,0,0:0:0:0:
402,192,71605,1,0,0:0:0:0:
182,192,71693,1,0,0:0:0:0:
475,192,71693,1,0,0:0:0:0:
256,192,71781,1,0,0:0:0:0:
329,192,71870,1,0,0:0:0:0:
36,192,71870,1,0,0:0:0:0:
36,192,72046,1,0,0:0:0:0:
329,192,72046,1,0,0:0:0:0:
36,192,72223,1,0,0:0:0:0:
329,192,72223,1,0,0:0:0:0:
182,192,72311,1,0,0:0:0:0:
475,192,72311,1,0,0:0:0:0:
36,192,72399,1,0,0:0:0:0:
329,192,72399,1,0,0:0:0:0:
182,192,72487,1,0,0:0:0:0:
475,192,72487,1,0,0:0:0:0:
36,192,72575,1,0,0:0:0:0:
329,192,72575,1,0,0:0:0:0:
36,192,72752,1,0,0:0:0:0:
109,192,72796,5,0,0:0:0:0:
182,192,72840,1,0,0:0:0:0:
256,192,72884,1,0,0:0:0:0:
329,192,72928,1,0,0:0:0:0:
402,192,72928,1,0,0:0:0:0:
109,192,73105,1,0,0:0:0:0:
182,192,73149,1,0,0:0:0:0:
256,192,73193,1,0,0:0:0:0:
329,192,73237,1,0,0:0:0:0:
402,192,73281,1,0,0:0:0:0:
475,192,73281,1,0,0:0:0:0:
109,192,73370,1,0,0:0:0:0:
182,192,73370,1,0,0:0:0:0:
329,192,73458,1,0,0:0:0:0:
256,192,73458,1,0,0:0:0:0:
109,192,73546,1,0,0:0:0:0:
36,192,73546,1,0,0:0:0:0:
475,192,73634,1,0,0:0:0:0:
402,192,73634,1,0,0:0:0:0:
182,192,73723,1,0,0:0:0:0:
109,192,73723,1,0,0:0:0:0:
329,192,73811,1,0,0:0:0:0:
256,192,73811,1,0,0:0:0:0:
182,192,73987,128,0,75223:0:0:0:0:
256,192,73987,1,0,0:0:0:0:
402,192,73987,1,0,0:0:0:0:
36,192,73987,1,0,0:0:0:0:
475,192,73987,1,0,0:0:0:0:
329,192,74252,128,0,75223:0:0:0:0:
36,192,74340,1,0,0:0:0:0:
475,192,74517,128,0,75223:0:0:0:0:
36,192,74693,1,0,0:0:0:0:
36,192,75046,1,0,0:0:0:0:
109,192,75223,1,0,0:0:0:0:
36,192,75311,1,0,0:0:0:0:
109,192,75399,128,0,75575:0:0:0:0:
329,192,75399,1,0,0:0:0:0:
182,192,75575,1,0,0:0:0:0:
109,192,75664,1,0,0:0:0:0:
182,192,75752,128,0,75928:0:0:0:0:
402,192,75752,1,0,0:0:0:0:
256,192,75928,1,0,0:0:0:0:
182,192,76017,1,0,0:0:0:0:
256,192,76105,128,0,76281:0:0:0:0:
475,192,76105,1,0,0:0:0:0:
329,192,76281,1,0,0:0:0:0:
256,192,76370,1,0,0:0:0:0:
329,192,76458,128,0,76634:0:0:0:0:
36,192,76458,1,0,0:0:0:0:
402,192,76634,128,0,76811:0:0:0:0:
475,192,76811,128,0,78046:0:0:0:0:
109,192,76811,1,0,0:0:0:0:
329,192,77075,128,0,78046:0:0:0:0:
36,192,77164,1,0,0:0:0:0:
182,192,77340,128,0,78046:0:0:0:0:
36,192,77517,128,0,78046:0:0:0:0:
402,192,77517,1,0,0:0:0:0:
402,192,77870,1,0,0:0:0:0:
109,192,78046,128,0,79017:0:0:0:0:
256,192,78134,128,0,79634:0:0:0:0:
402,192,78223,128,0,79634:0:0:0:0:
475,192,78399,128,0,79634:0:0:0:0:
182,192,78575,128,0,79634:0:0:0:0:
329,192,78752,128,0,79634:0:0:0:0:
109,192,79105,128,0,79634:0:0:0:0:
36,192,79634,128,0,80164:0:0:0:0:
109,192,79811,128,0,80164:0:0:0:0:
182,192,79987,128,0,80164:0:0:0:0:
256,192,80164,1,0,0:0:0:0:
329,192,80340,1,0,0:0:0:0:
109,192,80340,128,0,80870:0:0:0:0:
182,192,80517,128,0,80870:0:0:0:0:
256,192,80693,128,0,80870:0:0:0:0:
329,192,80870,1,0,0:0:0:0:
402,192,81046,1,0,0:0:0:0:
182,192,81046,128,0,81575:0:0:0:0:
256,192,81223,128,0,81575:0:0:0:0:
329,192,81399,128,0,81575:0:0:0:0:
402,192,81575,1,0,0:0:0:0:
36,192,81752,1,0,0:0:0:0:
475,192,81752,1,0,0:0:0:0:
109,192,81840,1,0,0:0:0:0:
182,192,81928,1,0,0:0:0:0:
256,192,82017,1,0,0:0:0:0:
182,192,82105,1,0,0:0:0:0:
256,192,82193,1,0,0:0:0:0:
329,192,82281,1,0,0:0:0:0:
402,192,82370,1,0,0:0:0:0:
475,192,82458,1,0,0:0:0:0:
36,192,82458,1,0,0:0:0:0:
329,192,82546,1,0,0:0:0:0:
475,192,82634,1,0,0:0:0:0:
329,192,82723,1,0,0:0:0:0:
256,192,82811,1,0,0:0:0:0:
182,192,82899,128,0,83252:0:0:0:0:
109,192,82899,128,0,83252:0:0:0:0:
475,192,82987,1,0,0:0:0:0:
329,192,83075,1,0,0:0:0:0:
475,192,83164,1,0,0:0:0:0:
329,192,83252,1,0,0:0:0:0:
256,192,83340,1,0,0:0:0:0:
182,192,83428,128,0,83958:0:0:0:0:
109,192,83428,128,0,83958:0:0:0:0:
475,192,83517,1,0,0:0:0:0:
329,192,83605,1,0,0:0:0:0:
475,192,83693,1,0,0:0:0:0:
329,192,83781,1,0,0:0:0:0:
402,192,83870,1,0,0:0:0:0:
475,192,83958,1,0,0:0:0:0:
36,192,84046,128,0,84840:0:0:0:0:
109,192,84090,128,0,84752:0:0:0:0:
182,192,84134,128,0,84664:0:0:0:0:
329,192,84178,128,0,84575:0:0:0:0:
402,192,84223,128,0,84487:0:0:0:0:
475,192,84267,128,0,84399:0:0:0:0:
475,192,84487,128,0,84840:0:0:0:0:
402,192,84575,128,0,84928:0:0:0:0:
329,192,84664,128,0,85017:0:0:0:0:
182,192,84752,128,0,85193:0:0:0:0:
109,192,84840,128,0,85193:0:0:0:0:
475,192,84928,128,0,85281:0:0:0:0:
36,192,84928,128,0,85193:0:0:0:0:
402,192,85017,128,0,85281:0:0:0:0:
329,192,85105,128,0,85281:0:0:0:0:
36,192,85281,1,0,0:0:0:0:
109,192,85281,1,0,0:0:0:0:
182,192,85281,1,0,0:0:0:0:
329,192,85458,1,0,0:0:0:0:
36,192,85634,1,0,0:0:0:0:
329,192,85811,128,0,85899:0:0:0:0:
109,192,86164,1,0,0:0:0:0:
402,192,86340,1,0,0:0:0:0:
109,192,86517,1,0,0:0:0:0:
475,192,86693,128,0,86781:0:0:0:0:
109,192,86870,1,0,0:0:0:0:
402,192,87046,128,0,87134:0:0:0:0:
109,192,87223,1,0,0:0:0:0:
329,192,87399,128,0,87487:0:0:0:0:
36,192,87399,128,0,87487:0:0:0:0:
475,192,87399,128,0,87487:0:0:0:0:
182,192,87575,1,0,0:0:0:0:
402,192,87752,128,0,87840:0:0:0:0:
256,192,87928,1,0,0:0:0:0:
475,192,88105,128,0,88193:0:0:0:0:
36,192,88105,128,0,88193:0:0:0:0:
182,192,88105,128,0,88193:0:0:0:0:
329,192,88281,1,0,0:0:0:0:
109,192,88458,1,0,0:0:0:0:
402,192,88634,128,0,88723:0:0:0:0:
109,192,88987,1,0,0:0:0:0:
329,192,89164,1,0,0:0:0:0:
109,192,89340,1,0,0:0:0:0:
402,192,89517,128,0,89605:0:0:0:0:
109,192,89693,1,0,0:0:0:0:
329,192,89870,128,0,89958:0:0:0:0:
109,192,90046,1,0,0:0:0:0:
475,192,90223,128,0,90311:0:0:0:0:
256,192,90223,128,0,90311:0:0:0:0:
36,192,90223,128,0,90311:0:0:0:0:
182,192,90399,1,0,0:0:0:0:
329,192,90575,1,0,0:0:0:0:
182,192,90752,1,0,0:0:0:0:
402,192,90928,128,0,91017:0:0:0:0:
256,192,90928,128,0,91017:0:0:0:0:
109,192,90928,128,0,91017:0:0:0:0:
36,192,91105,1,0,0:0:0:0:
182,192,91281,1,0,0:0:0:0:
329,192,91458,128,0,91546:0:0:0:0:
182,192,91811,1,0,0:0:0:0:
36,192,91987,1,0,0:0:0:0:
182,192,92164,1,0,0:0:0:0:
36,192,92340,1,0,0:0:0:0:
109,192,92340,1,0,0:0:0:0:
475,192,92340,1,0,0:0:0:0:
182,192,92517,1,0,0:0:0:0:
256,192,92693,1,0,0:0:0:0:
329,192,92870,1,0,0:0:0:0:
402,192,93046,128,0,93134:0:0:0:0:
36,192,93046,1,0,0:0:0:0:
475,192,93046,128,0,93134:0:0:0:0:
109,192,93223,1,0,0:0:0:0:
182,192,93399,1,0,0:0:0:0:
256,192,93575,1,0,0:0:0:0:
329,192,93752,128,0,93840:0:0:0:0:
36,192,93752,1,0,0:0:0:0:
402,192,93752,128,0,93840:0:0:0:0:
109,192,93928,1,0,0:0:0:0:
182,192,94105,1,0,0:0:0:0:
329,192,94281,128,0,94370:0:0:0:0:
256,192,94281,128,0,94370:0:0:0:0:
36,192,94281,1,0,0:0:0:0:
109,192,94723,1,0,0:0:0:0:
182,192,94899,128,0,94987:0:0:0:0:
256,192,94899,128,0,94987:0:0:0:0:
36,192,95120,1,0,0:0:0:0:
329,192,95340,128,0,95428:0:0:0:0:
109,192,95340,1,0,0:0:0:0:
402,192,95340,128,0,95428:0:0:0:0:
182,192,95605,1,0,0:0:0:0:
256,192,95825,1,0,0:0:0:0:
329,192,96090,1,0,0:0:0:0:
475,192,96311,128,0,96399:0:0:0:0:
402,192,96311,128,0,96399:0:0:0:0:
329,192,96598,1,0,0:0:0:0:
256,192,96950,1,0,0:0:0:0:
182,192,97370,1,0,0:0:0:0:
36,192,98296,5,0,0:0:0:0:
109,192,98340,1,0,0:0:0:0:
182,192,98384,1,0,0:0:0:0:
256,192,98428,1,0,0:0:0:0:
329,192,98473,1,0,0:0:0:0:
475,192,98561,1,0,0:0:0:0:
402,192,98605,1,0,0:0:0:0:
