osu file format v14

[General]
AudioFilename: Super Star MITSURI - Thank You For Playing ~.mp3
AudioLeadIn: 0
PreviewTime: -1
Countdown: 1
SampleSet: None
StackLeniency: 0.7
Mode: 3
LetterboxInBreaks: 1
SpecialStyle: 0
WidescreenStoryboard: 1

[Editor]
Bookmarks: 83605
DistanceSpacing: 1.1
BeatDivisor: 4
GridSize: 8
TimelineZoom: 2.2

[Metadata]
Title:Thank You For Playing ~
TitleUnicode:Thank You For Playing ~
Artist:Super Star MITSURU
ArtistUnicode:Super Star MITSURU
Creator:Steins
Version:Kemo's 6K ~ Thank You For Playing ~
Source:BeatmapIIDX
Tags:Steins Xeostyle __M A S__ Eternalie redfire099 [-Seiryuu-] DrawdeX Resuner YunoFanatic TheZiemniax LordRaika ALEFY Dakemoto
BeatmapID:739699
BeatmapSetID:317414

[Difficulty]
HPDrainRate:7
CircleSize:6
OverallDifficulty:8
ApproachRate:5
SliderMultiplier:1.4
SliderTickRate:1

[Events]
//Background and Video events
0,0,"piano-no-mori-9.png",0,0
//Break Periods
//Storyboard Layer 0 (Background)
//Storyboard Layer 1 (Fail)
//Storyboard Layer 2 (Pass)
//Storyboard Layer 3 (Foreground)
//Storyboard Sound Samples

[TimingPoints]
576,352.941176470588,4,2,0,20,1,0
13281,-50,4,2,0,20,0,0
14164,-100,4,2,0,20,0,0
14252,-200,4,2,0,20,0,0
14340,-100,4,2,0,20,0,0
62340,-83.3333333333333,4,2,0,20,0,0
62693,-100,4,2,0,20,0,0
93572,375,4,2,0,20,1,0
93759,-111.111111111111,4,2,0,20,0,0
94322,-125,4,2,0,20,0,0
94502,413.793103448276,4,2,0,20,1,0
94915,428.571428571429,4,2,0,20,1,0
95343,468.75,4,2,0,20,1,0
95811,517.241379310345,4,2,0,20,1,0
96329,562.851782363977,4,2,0,20,1,0
96929,601.202404809619,4,2,0,20,1,0
98262,413.793103448276,4,2,0,20,1,0
98330,-90.9090909090909,4,2,0,20,0,0

[HitObjects]
42,192,576,5,0,0:0:0:0:
298,192,576,1,0,0:0:0:0:
469,192,576,1,0,0:0:0:0:
128,192,752,1,0,0:0:0:0:
213,192,928,1,0,0:0:0:0:
383,192,1105,1,0,0:0:0:0:
298,192,1458,1,0,0:0:0:0:
128,192,1634,1,0,0:0:0:0:
383,192,1811,1,0,0:0:0:0:
469,192,1987,1,0,0:0:0:0:
298,192,2164,1,0,0:0:0:0:
383,192,2340,1,0,0:0:0:0:
213,192,2517,1,0,0:0:0:0:
298,192,2693,1,0,0:0:0:0:
383,192,2693,1,0,0:0:0:0:
469,192,2693,1,0,0:0:0:0:
128,192,2870,1,0,0:0:0:0:
383,192,3046,1,0,0:0:0:0:
128,192,3223,1,0,0:0:0:0:
42,192,3399,1,0,0:0:0:0:
298,192,3399,1,0,0:0:0:0:
469,192,3399,1,0,0:0:0:0:
213,192,3575,1,0,0:0:0:0:
383,192,3752,1,0,0:0:0:0:
469,192,3928,1,0,0:0:0:0:
383,192,4281,1,0,0:0:0:0:
128,192,4458,1,0,0:0:0:0:
213,192,4634,1,0,0:0:0:0:
298,192,4811,1,0,0:0:0:0:
383,192,4987,1,0,0:0:0:0:
128,192,5164,1,0,0:0:0:0:
213,192,5340,1,0,0:0:0:0:
42,192,5517,1,0,0:0:0:0:
383,192,5517,1,0,0:0:0:0:
469,192,5517,1,0,0:0:0:0:
128,192,5693,1,0,0:0:0:0:
298,192,5870,1,0,0:0:0:0:
213,192,6046,1,0,0:0:0:0:
42,192,6223,1,0,0:0:0:0:
298,192,6223,1,0,0:0:0:0:
383,192,6223,1,0,0:0:0:0:
128,192,6399,1,0,0:0:0:0:
213,192,6575,1,0,0:0:0:0:
469,192,6752,1,0,0:0:0:0:
383,192,7105,1,0,0:0:0:0:
42,192,7281,1,0,0:0:0:0:
213,192,7458,1,0,0:0:0:0:
298,192,7634,1,0,0:0:0:0:
42,192,7811,1,0,0:0:0:0:
128,192,7987,1,0,0:0:0:0:
469,192,8164,1,0,0:0:0:0:
42,192,8340,1,0,0:0:0:0:
213,192,8340,1,0,0:0:0:0:
298,192,8340,1,0,0:0:0:0:
383,192,8517,1,0,0:0:0:0:
128,192,8693,1,0,0:0:0:0:
213,192,8870,1,0,0:0:0:0:
298,192,9046,1,0,0:0:0:0:
383,192,9046,1,0,0:0:0:0:
469,192,9046,1,0,0:0:0:0:
42,192,9223,1,0,0:0:0:0:
298,192,9399,1,0,0:0:0:0:
42,192,9575,1,0,0:0:0:0:
128,192,9575,1,0,0:0:0:0:
213,192,9575,1,0,0:0:0:0:
383,192,9928,1,0,0:0:0:0:
42,192,10105,1,0,0:0:0:0:
213,192,10105,1,0,0:0:0:0:
298,192,10105,1,0,0:0:0:0:
469,192,10281,1,0,0:0:0:0:
42,192,10458,1,0,0:0:0:0:
128,192,10458,1,0,0:0:0:0:
213,192,10458,1,0,0:0:0:0:
383,192,10634,1,0,0:0:0:0:
128,192,10811,1,0,0:0:0:0:
213,192,10987,1,0,0:0:0:0:
469,192,10987,1,0,0:0:0:0:
298,192,11075,1,0,0:0:0:0:
42,192,11164,1,0,0:0:0:0:
128,192,11164,1,0,0:0:0:0:
383,192,11164,1,0,0:0:0:0:
469,192,11340,1,0,0:0:0:0:
128,192,11517,1,0,0:0:0:0:
213,192,11693,1,0,0:0:0:0:
298,192,11870,1,0,0:0:0:0:
383,192,11928,1,0,0:0:0:0:
42,192,11958,1,0,0:0:0:0:
128,192,11987,1,0,0:0:0:0:
213,192,12075,1,0,0:0:0:0:
469,192,12134,1,0,0:0:0:0:
42,0,13105,128,0,14340:0:0:0:0:
42,192,14693,1,0,0:0:0:0:
128,192,14693,1,0,0:0:0:0:
213,192,14693,1,0,0:0:0:0:
469,192,14693,1,0,0:0:0:0:
383,192,14781,1,0,0:0:0:0:
128,192,14870,1,0,0:0:0:0:
298,192,14870,1,0,0:0:0:0:
469,192,14870,1,0,0:0:0:0:
213,192,14958,1,0,0:0:0:0:
42,192,15046,1,0,0:0:0:0:
383,192,15046,1,0,0:0:0:0:
298,192,15134,1,0,0:0:0:0:
128,192,15223,1,0,0:0:0:0:
213,192,15223,1,0,0:0:0:0:
469,192,15223,1,0,0:0:0:0:
383,192,15311,1,0,0:0:0:0:
42,192,15399,1,0,0:0:0:0:
298,192,15399,1,0,0:0:0:0:
469,192,15487,1,0,0:0:0:0:
42,192,15575,1,0,0:0:0:0:
213,192,15575,1,0,0:0:0:0:
298,192,15664,1,0,0:0:0:0:
42,192,15752,1,0,0:0:0:0:
469,192,15752,1,0,0:0:0:0:
383,192,15840,1,0,0:0:0:0:
213,192,15928,1,0,0:0:0:0:
298,192,15928,1,0,0:0:0:0:
469,192,15928,1,0,0:0:0:0:
128,192,16017,1,0,0:0:0:0:
42,192,16105,1,0,0:0:0:0:
383,192,16105,1,0,0:0:0:0:
469,192,16193,1,0,0:0:0:0:
128,192,16281,1,0,0:0:0:0:
213,192,16281,1,0,0:0:0:0:
298,192,16281,1,0,0:0:0:0:
383,192,16370,1,0,0:0:0:0:
42,192,16458,1,0,0:0:0:0:
469,192,16458,1,0,0:0:0:0:
128,192,16546,1,0,0:0:0:0:
213,192,16634,1,0,0:0:0:0:
383,192,16634,1,0,0:0:0:0:
469,192,16634,1,0,0:0:0:0:
298,192,16723,1,0,0:0:0:0:
42,192,16811,1,0,0:0:0:0:
128,192,16811,1,0,0:0:0:0:
383,192,16811,1,0,0:0:0:0:
469,192,16811,1,0,0:0:0:0:
213,192,16899,1,0,0:0:0:0:
298,192,16987,1,0,0:0:0:0:
383,192,16987,1,0,0:0:0:0:
469,192,16987,1,0,0:0:0:0:
128,192,17075,1,0,0:0:0:0:
42,192,17164,1,0,0:0:0:0:
469,192,17164,1,0,0:0:0:0:
298,192,17252,1,0,0:0:0:0:
42,192,17340,1,0,0:0:0:0:
128,192,17340,1,0,0:0:0:0:
213,192,17340,1,0,0:0:0:0:
383,192,17340,1,0,0:0:0:0:
298,192,17428,1,0,0:0:0:0:
42,192,17517,1,0,0:0:0:0:
128,192,17517,1,0,0:0:0:0:
213,192,17517,1,0,0:0:0:0:
469,192,17517,1,0,0:0:0:0:
383,192,17605,1,0,0:0:0:0:
213,192,17693,1,0,0:0:0:0:
298,192,17693,1,0,0:0:0:0:
469,192,17693,1,0,0:0:0:0:
128,192,17781,1,0,0:0:0:0:
42,192,17870,1,0,0:0:0:0:
383,192,17870,1,0,0:0:0:0:
298,192,17958,1,0,0:0:0:0:
128,192,18046,1,0,0:0:0:0:
213,192,18046,1,0,0:0:0:0:
469,192,18046,1,0,0:0:0:0:
383,192,18134,1,0,0:0:0:0:
42,192,18223,1,0,0:0:0:0:
128,192,18223,1,0,0:0:0:0:
213,192,18311,1,0,0:0:0:0:
298,192,18399,1,0,0:0:0:0:
383,192,18399,1,0,0:0:0:0:
469,192,18399,1,0,0:0:0:0:
128,192,18487,1,0,0:0:0:0:
42,192,18575,1,0,0:0:0:0:
383,192,18575,1,0,0:0:0:0:
298,192,18664,1,0,0:0:0:0:
42,192,18752,1,0,0:0:0:0:
213,192,18752,1,0,0:0:0:0:
469,192,18752,1,0,0:0:0:0:
383,192,18840,1,0,0:0:0:0:
42,192,18928,1,0,0:0:0:0:
298,192,18928,1,0,0:0:0:0:
128,192,19017,1,0,0:0:0:0:
213,192,19105,1,0,0:0:0:0:
383,192,19105,1,0,0:0:0:0:
469,192,19105,1,0,0:0:0:0:
128,192,19193,1,0,0:0:0:0:
42,192,19281,1,0,0:0:0:0:
383,192,19281,1,0,0:0:0:0:
298,192,19370,1,0,0:0:0:0:
42,192,19458,1,0,0:0:0:0:
128,192,19458,1,0,0:0:0:0:
469,192,19458,1,0,0:0:0:0:
213,192,19546,1,0,0:0:0:0:
42,192,19634,1,0,0:0:0:0:
298,192,19634,1,0,0:0:0:0:
383,192,19634,1,0,0:0:0:0:
469,192,19634,1,0,0:0:0:0:
128,192,19723,1,0,0:0:0:0:
213,192,19811,1,0,0:0:0:0:
383,192,19811,1,0,0:0:0:0:
469,192,19811,1,0,0:0:0:0:
128,192,19899,1,0,0:0:0:0:
298,192,19899,1,0,0:0:0:0:
42,192,19987,1,0,0:0:0:0:
213,192,19987,1,0,0:0:0:0:
469,192,20075,1,0,0:0:0:0:
42,192,20164,1,0,0:0:0:0:
213,192,20164,1,0,0:0:0:0:
298,192,20164,1,0,0:0:0:0:
383,192,20164,1,0,0:0:0:0:
469,192,20252,1,0,0:0:0:0:
42,192,20340,1,0,0:0:0:0:
128,192,20340,1,0,0:0:0:0:
213,192,20340,1,0,0:0:0:0:
298,192,20340,1,0,0:0:0:0:
383,192,20428,1,0,0:0:0:0:
128,192,20517,1,0,0:0:0:0:
213,192,20517,1,0,0:0:0:0:
469,192,20517,1,0,0:0:0:0:
298,192,20605,1,0,0:0:0:0:
42,192,20693,1,0,0:0:0:0:
383,192,20693,1,0,0:0:0:0:
469,192,20781,1,0,0:0:0:0:
42,192,20870,1,0,0:0:0:0:
128,192,20870,1,0,0:0:0:0:
213,192,20870,1,0,0:0:0:0:
298,192,20958,1,0,0:0:0:0:
42,192,21046,1,0,0:0:0:0:
469,192,21046,1,0,0:0:0:0:
383,192,21134,1,0,0:0:0:0:
128,192,21223,1,0,0:0:0:0:
213,192,21223,1,0,0:0:0:0:
298,192,21223,1,0,0:0:0:0:
469,192,21311,1,0,0:0:0:0:
42,192,21399,1,0,0:0:0:0:
383,192,21399,1,0,0:0:0:0:
128,192,21487,1,0,0:0:0:0:
213,192,21575,1,0,0:0:0:0:
383,192,21575,1,0,0:0:0:0:
469,192,21575,1,0,0:0:0:0:
298,192,21664,1,0,0:0:0:0:
42,192,21752,1,0,0:0:0:0:
128,192,21752,1,0,0:0:0:0:
298,192,21840,1,0,0:0:0:0:
128,192,21928,1,0,0:0:0:0:
383,192,21928,1,0,0:0:0:0:
469,192,21928,1,0,0:0:0:0:
213,192,22017,1,0,0:0:0:0:
42,192,22105,1,0,0:0:0:0:
298,192,22105,1,0,0:0:0:0:
128,192,22193,1,0,0:0:0:0:
213,192,22281,1,0,0:0:0:0:
383,192,22281,1,0,0:0:0:0:
469,192,22281,1,0,0:0:0:0:
128,192,22370,1,0,0:0:0:0:
42,192,22458,1,0,0:0:0:0:
298,192,22458,1,0,0:0:0:0:
383,192,22458,1,0,0:0:0:0:
469,192,22458,1,0,0:0:0:0:
213,192,22546,1,0,0:0:0:0:
128,192,22634,1,0,0:0:0:0:
298,192,22634,1,0,0:0:0:0:
383,192,22634,1,0,0:0:0:0:
213,192,22723,1,0,0:0:0:0:
42,192,22811,1,0,0:0:0:0:
469,192,22811,1,0,0:0:0:0:
128,192,22899,1,0,0:0:0:0:
42,192,22987,1,0,0:0:0:0:
298,192,22987,1,0,0:0:0:0:
383,192,22987,1,0,0:0:0:0:
469,192,22987,1,0,0:0:0:0:
213,192,23075,1,0,0:0:0:0:
42,192,23164,1,0,0:0:0:0:
298,192,23164,1,0,0:0:0:0:
383,192,23164,1,0,0:0:0:0:
469,192,23164,1,0,0:0:0:0:
128,192,23252,1,0,0:0:0:0:
213,192,23252,1,0,0:0:0:0:
298,192,23340,1,0,0:0:0:0:
383,192,23340,1,0,0:0:0:0:
128,192,23428,1,0,0:0:0:0:
213,192,23428,1,0,0:0:0:0:
298,192,23517,1,0,0:0:0:0:
383,192,23517,1,0,0:0:0:0:
128,192,23605,1,0,0:0:0:0:
213,192,23605,1,0,0:0:0:0:
298,192,23693,1,0,0:0:0:0:
383,192,23693,1,0,0:0:0:0:
469,192,23693,1,0,0:0:0:0:
128,192,23781,1,0,0:0:0:0:
213,192,23781,1,0,0:0:0:0:
298,192,23870,1,0,0:0:0:0:
383,192,23870,1,0,0:0:0:0:
128,192,23958,1,0,0:0:0:0:
213,192,23958,1,0,0:0:0:0:
298,192,24046,1,0,0:0:0:0:
383,192,24046,1,0,0:0:0:0:
128,192,24134,1,0,0:0:0:0:
213,192,24134,1,0,0:0:0:0:
298,192,24223,1,0,0:0:0:0:
383,192,24223,1,0,0:0:0:0:
469,192,24223,1,0,0:0:0:0:
42,192,24311,1,0,0:0:0:0:
128,192,24311,1,0,0:0:0:0:
213,192,24311,1,0,0:0:0:0:
298,192,24399,1,0,0:0:0:0:
383,192,24399,1,0,0:0:0:0:
469,192,24399,1,0,0:0:0:0:
42,192,24487,1,0,0:0:0:0:
128,192,24487,1,0,0:0:0:0:
213,192,24487,1,0,0:0:0:0:
298,192,24575,1,0,0:0:0:0:
469,192,24575,1,0,0:0:0:0:
42,192,24664,1,0,0:0:0:0:
213,192,24664,1,0,0:0:0:0:
383,192,24752,1,0,0:0:0:0:
298,192,24796,1,0,0:0:0:0:
213,192,24840,1,0,0:0:0:0:
128,192,24884,1,0,0:0:0:0:
298,192,24928,1,0,0:0:0:0:
469,192,24928,1,0,0:0:0:0:
42,192,25017,1,0,0:0:0:0:
213,192,25017,1,0,0:0:0:0:
383,192,25105,1,0,0:0:0:0:
298,192,25149,1,0,0:0:0:0:
213,192,25193,1,0,0:0:0:0:
128,192,25237,1,0,0:0:0:0:
469,192,25281,1,0,0:0:0:0:
298,192,25340,1,0,0:0:0:0:
213,192,25399,1,0,0:0:0:0:
128,192,25458,1,0,0:0:0:0:
469,192,25517,1,0,0:0:0:0:
383,192,25575,1,0,0:0:0:0:
42,192,25634,1,0,0:0:0:0:
128,192,25693,1,0,0:0:0:0:
213,192,25752,1,0,0:0:0:0:
469,192,25811,1,0,0:0:0:0:
383,192,25870,1,0,0:0:0:0:
298,192,25928,1,0,0:0:0:0:
42,192,25987,1,0,0:0:0:0:
128,192,25987,1,0,0:0:0:0:
213,192,25987,1,0,0:0:0:0:
469,192,25987,1,0,0:0:0:0:
383,192,26075,1,0,0:0:0:0:
128,192,26164,1,0,0:0:0:0:
298,192,26164,1,0,0:0:0:0:
469,192,26164,1,0,0:0:0:0:
213,192,26252,1,0,0:0:0:0:
42,192,26340,1,0,0:0:0:0:
383,192,26340,1,0,0:0:0:0:
298,192,26428,1,0,0:0:0:0:
128,192,26517,1,0,0:0:0:0:
213,192,26517,1,0,0:0:0:0:
469,192,26517,1,0,0:0:0:0:
383,192,26605,1,0,0:0:0:0:
42,192,26693,1,0,0:0:0:0:
298,192,26693,1,0,0:0:0:0:
469,192,26781,1,0,0:0:0:0:
42,192,26870,1,0,0:0:0:0:
213,192,26870,1,0,0:0:0:0:
298,192,26958,1,0,0:0:0:0:
42,192,27046,1,0,0:0:0:0:
469,192,27046,1,0,0:0:0:0:
383,192,27134,1,0,0:0:0:0:
213,192,27223,1,0,0:0:0:0:
298,192,27223,1,0,0:0:0:0:
469,192,27223,1,0,0:0:0:0:
128,192,27311,1,0,0:0:0:0:
42,192,27399,1,0,0:0:0:0:
383,192,27399,1,0,0:0:0:0:
469,192,27487,1,0,0:0:0:0:
128,192,27575,1,0,0:0:0:0:
213,192,27575,1,0,0:0:0:0:
298,192,27575,1,0,0:0:0:0:
383,192,27664,1,0,0:0:0:0:
42,192,27752,1,0,0:0:0:0:
469,192,27752,1,0,0:0:0:0:
128,192,27840,1,0,0:0:0:0:
213,192,27928,1,0,0:0:0:0:
383,192,27928,1,0,0:0:0:0:
469,192,27928,1,0,0:0:0:0:
298,192,28017,1,0,0:0:0:0:
42,192,28105,1,0,0:0:0:0:
128,192,28105,1,0,0:0:0:0:
383,192,28105,1,0,0:0:0:0:
469,192,28105,1,0,0:0:0:0:
213,192,28193,1,0,0:0:0:0:
298,192,28281,1,0,0:0:0:0:
383,192,28281,1,0,0:0:0:0:
469,192,28281,1,0,0:0:0:0:
128,192,28370,1,0,0:0:0:0:
42,192,28458,1,0,0:0:0:0:
469,192,28458,1,0,0:0:0:0:
298,192,28546,1,0,0:0:0:0:
42,192,28634,1,0,0:0:0:0:
128,192,28634,1,0,0:0:0:0:
213,192,28634,1,0,0:0:0:0:
383,192,28634,1,0,0:0:0:0:
298,192,28723,1,0,0:0:0:0:
42,192,28811,1,0,0:0:0:0:
128,192,28811,1,0,0:0:0:0:
213,192,28811,1,0,0:0:0:0:
469,192,28811,1,0,0:0:0:0:
383,192,28899,1,0,0:0:0:0:
213,192,28987,1,0,0:0:0:0:
298,192,28987,1,0,0:0:0:0:
469,192,28987,1,0,0:0:0:0:
128,192,29075,1,0,0:0:0:0:
42,192,29164,1,0,0:0:0:0:
383,192,29164,1,0,0:0:0:0:
298,192,29252,1,0,0:0:0:0:
128,192,29340,1,0,0:0:0:0:
213,192,29340,1,0,0:0:0:0:
469,192,29340,1,0,0:0:0:0:
383,192,29428,1,0,0:0:0:0:
42,192,29517,1,0,0:0:0:0:
128,192,29517,1,0,0:0:0:0:
213,192,29605,1,0,0:0:0:0:
298,192,29693,1,0,0:0:0:0:
383,192,29693,1,0,0:0:0:0:
469,192,29693,1,0,0:0:0:0:
128,192,29781,1,0,0:0:0:0:
42,192,29870,1,0,0:0:0:0:
383,192,29870,1,0,0:0:0:0:
298,192,29958,1,0,0:0:0:0:
42,192,30046,1,0,0:0:0:0:
213,192,30046,1,0,0:0:0:0:
469,192,30046,1,0,0:0:0:0:
383,192,30134,1,0,0:0:0:0:
42,192,30223,1,0,0:0:0:0:
298,192,30223,1,0,0:0:0:0:
128,192,30311,1,0,0:0:0:0:
213,192,30399,1,0,0:0:0:0:
383,192,30399,1,0,0:0:0:0:
469,192,30399,1,0,0:0:0:0:
128,192,30487,1,0,0:0:0:0:
42,192,30575,1,0,0:0:0:0:
383,192,30575,1,0,0:0:0:0:
298,192,30664,1,0,0:0:0:0:
42,192,30752,1,0,0:0:0:0:
128,192,30752,1,0,0:0:0:0:
469,192,30752,1,0,0:0:0:0:
213,192,30840,1,0,0:0:0:0:
42,192,30928,1,0,0:0:0:0:
298,192,30928,1,0,0:0:0:0:
383,192,30928,1,0,0:0:0:0:
469,192,30928,1,0,0:0:0:0:
128,192,31017,1,0,0:0:0:0:
213,192,31105,1,0,0:0:0:0:
383,192,31105,1,0,0:0:0:0:
469,192,31105,1,0,0:0:0:0:
128,192,31193,1,0,0:0:0:0:
298,192,31193,1,0,0:0:0:0:
42,192,31281,1,0,0:0:0:0:
213,192,31281,1,0,0:0:0:0:
469,192,31370,1,0,0:0:0:0:
42,192,31458,1,0,0:0:0:0:
213,192,31458,1,0,0:0:0:0:
298,192,31458,1,0,0:0:0:0:
383,192,31458,1,0,0:0:0:0:
469,192,31546,1,0,0:0:0:0:
42,192,31634,1,0,0:0:0:0:
128,192,31634,1,0,0:0:0:0:
213,192,31634,1,0,0:0:0:0:
298,192,31634,1,0,0:0:0:0:
383,192,31723,1,0,0:0:0:0:
128,192,31811,1,0,0:0:0:0:
213,192,31811,1,0,0:0:0:0:
469,192,31811,1,0,0:0:0:0:
298,192,31899,1,0,0:0:0:0:
42,192,31987,1,0,0:0:0:0:
383,192,31987,1,0,0:0:0:0:
469,192,32075,1,0,0:0:0:0:
42,192,32164,1,0,0:0:0:0:
128,192,32164,1,0,0:0:0:0:
213,192,32164,1,0,0:0:0:0:
298,192,32252,1,0,0:0:0:0:
42,192,32340,1,0,0:0:0:0:
469,192,32340,1,0,0:0:0:0:
383,192,32428,1,0,0:0:0:0:
128,192,32517,1,0,0:0:0:0:
213,192,32517,1,0,0:0:0:0:
298,192,32517,1,0,0:0:0:0:
469,192,32605,1,0,0:0:0:0:
42,192,32693,1,0,0:0:0:0:
383,192,32693,1,0,0:0:0:0:
128,192,32781,1,0,0:0:0:0:
213,192,32870,1,0,0:0:0:0:
383,192,32870,1,0,0:0:0:0:
469,192,32870,1,0,0:0:0:0:
298,192,32958,1,0,0:0:0:0:
42,192,33046,1,0,0:0:0:0:
128,192,33046,1,0,0:0:0:0:
298,192,33134,1,0,0:0:0:0:
128,192,33223,1,0,0:0:0:0:
383,192,33223,1,0,0:0:0:0:
469,192,33223,1,0,0:0:0:0:
213,192,33311,1,0,0:0:0:0:
42,192,33399,1,0,0:0:0:0:
298,192,33399,1,0,0:0:0:0:
128,192,33487,1,0,0:0:0:0:
213,192,33575,1,0,0:0:0:0:
383,192,33575,1,0,0:0:0:0:
469,192,33575,1,0,0:0:0:0:
128,192,33664,1,0,0:0:0:0:
42,192,33752,1,0,0:0:0:0:
298,192,33752,1,0,0:0:0:0:
383,192,33752,1,0,0:0:0:0:
469,192,33752,1,0,0:0:0:0:
213,192,33840,1,0,0:0:0:0:
128,192,33928,1,0,0:0:0:0:
298,192,33928,1,0,0:0:0:0:
383,192,33928,1,0,0:0:0:0:
213,192,34017,1,0,0:0:0:0:
42,192,34105,1,0,0:0:0:0:
469,192,34105,1,0,0:0:0:0:
128,192,34193,1,0,0:0:0:0:
42,192,34281,1,0,0:0:0:0:
298,192,34281,1,0,0:0:0:0:
383,192,34281,1,0,0:0:0:0:
469,192,34281,1,0,0:0:0:0:
213,192,34370,1,0,0:0:0:0:
42,192,34458,1,0,0:0:0:0:
298,192,34458,1,0,0:0:0:0:
383,192,34458,1,0,0:0:0:0:
469,192,34458,1,0,0:0:0:0:
128,192,34546,1,0,0:0:0:0:
213,192,34546,1,0,0:0:0:0:
298,192,34634,1,0,0:0:0:0:
383,192,34634,1,0,0:0:0:0:
128,192,34723,1,0,0:0:0:0:
213,192,34723,1,0,0:0:0:0:
298,192,34811,1,0,0:0:0:0:
383,192,34811,1,0,0:0:0:0:
128,192,34899,1,0,0:0:0:0:
213,192,34899,1,0,0:0:0:0:
298,192,34987,1,0,0:0:0:0:
383,192,34987,1,0,0:0:0:0:
469,192,34987,1,0,0:0:0:0:
128,192,35075,1,0,0:0:0:0:
213,192,35075,1,0,0:0:0:0:
298,192,35164,1,0,0:0:0:0:
383,192,35164,1,0,0:0:0:0:
128,192,35252,1,0,0:0:0:0:
213,192,35252,1,0,0:0:0:0:
298,192,35340,1,0,0:0:0:0:
383,192,35340,1,0,0:0:0:0:
128,192,35428,1,0,0:0:0:0:
213,192,35428,1,0,0:0:0:0:
298,192,35517,1,0,0:0:0:0:
383,192,35517,1,0,0:0:0:0:
469,192,35517,1,0,0:0:0:0:
42,192,35605,1,0,0:0:0:0:
128,192,35605,1,0,0:0:0:0:
213,192,35605,1,0,0:0:0:0:
298,192,35693,1,0,0:0:0:0:
383,192,35693,1,0,0:0:0:0:
469,192,35693,1,0,0:0:0:0:
42,192,35781,1,0,0:0:0:0:
128,192,35781,1,0,0:0:0:0:
213,192,35781,1,0,0:0:0:0:
298,192,35870,1,0,0:0:0:0:
469,192,35870,1,0,0:0:0:0:
42,192,35958,1,0,0:0:0:0:
213,192,35958,1,0,0:0:0:0:
383,192,36046,1,0,0:0:0:0:
298,192,36090,1,0,0:0:0:0:
213,192,36134,1,0,0:0:0:0:
128,192,36178,1,0,0:0:0:0:
298,192,36223,1,0,0:0:0:0:
469,192,36223,1,0,0:0:0:0:
42,192,36311,1,0,0:0:0:0:
213,192,36311,1,0,0:0:0:0:
383,192,36399,1,0,0:0:0:0:
298,192,36443,1,0,0:0:0:0:
213,192,36487,1,0,0:0:0:0:
128,192,36531,1,0,0:0:0:0:
42,192,36575,1,0,0:0:0:0:
213,192,36634,1,0,0:0:0:0:
298,192,36693,1,0,0:0:0:0:
383,192,36752,1,0,0:0:0:0:
469,192,36811,1,0,0:0:0:0:
128,192,36870,1,0,0:0:0:0:
298,192,36928,1,0,0:0:0:0:
383,192,36987,1,0,0:0:0:0:
42,192,37046,1,0,0:0:0:0:
128,192,37105,1,0,0:0:0:0:
298,192,37164,1,0,0:0:0:0:
383,192,37223,1,0,0:0:0:0:
42,192,37281,1,0,0:0:0:0:
128,192,37281,1,0,0:0:0:0:
213,192,37281,1,0,0:0:0:0:
469,192,37281,1,0,0:0:0:0:
298,192,37458,1,0,0:0:0:0:
383,192,37458,1,0,0:0:0:0:
42,192,37634,1,0,0:0:0:0:
128,192,37634,1,0,0:0:0:0:
383,192,37723,1,0,0:0:0:0:
128,192,37811,1,0,0:0:0:0:
298,192,37811,1,0,0:0:0:0:
213,192,37899,1,0,0:0:0:0:
42,192,37987,1,0,0:0:0:0:
469,192,37987,1,0,0:0:0:0:
298,192,38164,1,0,0:0:0:0:
383,192,38164,1,0,0:0:0:0:
42,192,38340,1,0,0:0:0:0:
213,192,38340,1,0,0:0:0:0:
383,192,38428,1,0,0:0:0:0:
42,192,38517,1,0,0:0:0:0:
128,192,38517,1,0,0:0:0:0:
213,192,38517,1,0,0:0:0:0:
469,192,38517,1,0,0:0:0:0:
298,192,38605,1,0,0:0:0:0:
42,192,38693,1,0,0:0:0:0:
469,192,38693,1,0,0:0:0:0:
469,192,38870,1,0,0:0:0:0:
42,192,39046,1,0,0:0:0:0:
298,192,39046,1,0,0:0:0:0:
128,192,39134,1,0,0:0:0:0:
213,192,39223,1,0,0:0:0:0:
383,192,39223,1,0,0:0:0:0:
469,192,39311,1,0,0:0:0:0:
42,192,39399,1,0,0:0:0:0:
128,192,39399,1,0,0:0:0:0:
469,192,39487,1,0,0:0:0:0:
128,192,39575,1,0,0:0:0:0:
383,192,39575,1,0,0:0:0:0:
298,192,39664,1,0,0:0:0:0:
42,192,39752,1,0,0:0:0:0:
128,192,39752,1,0,0:0:0:0:
213,192,39840,1,0,0:0:0:0:
42,192,39928,1,0,0:0:0:0:
298,192,39928,1,0,0:0:0:0:
469,192,39928,1,0,0:0:0:0:
128,192,40017,1,0,0:0:0:0:
213,192,40017,1,0,0:0:0:0:
383,192,40017,1,0,0:0:0:0:
42,192,40105,1,0,0:0:0:0:
298,192,40105,1,0,0:0:0:0:
469,192,40105,1,0,0:0:0:0:
213,192,40281,1,0,0:0:0:0:
383,192,40281,1,0,0:0:0:0:
42,192,40458,1,0,0:0:0:0:
128,192,40458,1,0,0:0:0:0:
469,192,40546,1,0,0:0:0:0:
213,192,40634,1,0,0:0:0:0:
298,192,40634,1,0,0:0:0:0:
383,192,40723,1,0,0:0:0:0:
42,192,40811,1,0,0:0:0:0:
469,192,40811,1,0,0:0:0:0:
298,192,40987,1,0,0:0:0:0:
469,192,40987,1,0,0:0:0:0:
42,192,41164,1,0,0:0:0:0:
213,192,41164,1,0,0:0:0:0:
383,192,41252,1,0,0:0:0:0:
42,192,41340,1,0,0:0:0:0:
213,192,41340,1,0,0:0:0:0:
298,192,41340,1,0,0:0:0:0:
469,192,41340,1,0,0:0:0:0:
128,192,41428,1,0,0:0:0:0:
42,192,41517,1,0,0:0:0:0:
383,192,41517,1,0,0:0:0:0:
298,192,41693,1,0,0:0:0:0:
469,192,41693,1,0,0:0:0:0:
42,192,41870,1,0,0:0:0:0:
383,192,41870,1,0,0:0:0:0:
128,192,41958,1,0,0:0:0:0:
213,192,42046,1,0,0:0:0:0:
469,192,42046,1,0,0:0:0:0:
383,192,42134,1,0,0:0:0:0:
42,192,42223,1,0,0:0:0:0:
298,192,42223,1,0,0:0:0:0:
213,192,42311,1,0,0:0:0:0:
383,192,42399,1,0,0:0:0:0:
469,192,42399,1,0,0:0:0:0:
128,192,42487,1,0,0:0:0:0:
213,192,42487,1,0,0:0:0:0:
42,192,42575,1,0,0:0:0:0:
298,192,42575,1,0,0:0:0:0:
469,192,42664,1,0,0:0:0:0:
128,192,42752,1,0,0:0:0:0:
213,192,42752,1,0,0:0:0:0:
383,192,42752,1,0,0:0:0:0:
298,192,42840,1,0,0:0:0:0:
469,192,42840,1,0,0:0:0:0:
42,192,42928,1,0,0:0:0:0:
128,192,42928,1,0,0:0:0:0:
213,192,42928,1,0,0:0:0:0:
383,192,42928,1,0,0:0:0:0:
298,192,43105,1,0,0:0:0:0:
469,192,43105,1,0,0:0:0:0:
42,192,43281,1,0,0:0:0:0:
213,192,43281,1,0,0:0:0:0:
469,192,43370,1,0,0:0:0:0:
128,192,43458,1,0,0:0:0:0:
383,192,43458,1,0,0:0:0:0:
298,192,43546,1,0,0:0:0:0:
42,192,43634,1,0,0:0:0:0:
469,192,43634,1,0,0:0:0:0:
213,192,43811,1,0,0:0:0:0:
383,192,43811,1,0,0:0:0:0:
42,192,43987,1,0,0:0:0:0:
298,192,43987,1,0,0:0:0:0:
383,192,44075,1,0,0:0:0:0:
42,192,44164,1,0,0:0:0:0:
128,192,44164,1,0,0:0:0:0:
213,192,44164,1,0,0:0:0:0:
469,192,44164,1,0,0:0:0:0:
298,192,44252,1,0,0:0:0:0:
42,192,44340,1,0,0:0:0:0:
469,192,44340,1,0,0:0:0:0:
213,192,44517,1,0,0:0:0:0:
383,192,44517,1,0,0:0:0:0:
42,192,44693,1,0,0:0:0:0:
383,192,44693,1,0,0:0:0:0:
128,192,44781,1,0,0:0:0:0:
298,192,44870,1,0,0:0:0:0:
469,192,44870,1,0,0:0:0:0:
383,192,44958,1,0,0:0:0:0:
42,192,45046,1,0,0:0:0:0:
213,192,45046,1,0,0:0:0:0:
128,192,45134,1,0,0:0:0:0:
298,192,45223,1,0,0:0:0:0:
383,192,45223,1,0,0:0:0:0:
213,192,45311,1,0,0:0:0:0:
42,192,45399,1,0,0:0:0:0:
469,192,45399,1,0,0:0:0:0:
383,192,45487,1,0,0:0:0:0:
128,192,45575,1,0,0:0:0:0:
213,192,45575,1,0,0:0:0:0:
42,192,45664,1,0,0:0:0:0:
298,192,45752,1,0,0:0:0:0:
383,192,45752,1,0,0:0:0:0:
469,192,45752,1,0,0:0:0:0:
128,192,45840,1,0,0:0:0:0:
383,192,45928,1,0,0:0:0:0:
128,192,46017,1,0,0:0:0:0:
383,192,46105,1,0,0:0:0:0:
128,192,46193,1,0,0:0:0:0:
42,192,46281,1,0,0:0:0:0:
298,192,46281,1,0,0:0:0:0:
383,192,46281,1,0,0:0:0:0:
128,192,46370,1,0,0:0:0:0:
383,192,46458,1,0,0:0:0:0:
128,192,46546,1,0,0:0:0:0:
298,192,46634,1,0,0:0:0:0:
383,192,46634,1,0,0:0:0:0:
128,192,46723,1,0,0:0:0:0:
298,192,46811,1,0,0:0:0:0:
383,192,46811,1,0,0:0:0:0:
128,192,46899,1,0,0:0:0:0:
213,192,46899,1,0,0:0:0:0:
298,192,46987,1,0,0:0:0:0:
383,192,46987,1,0,0:0:0:0:
128,192,47075,1,0,0:0:0:0:
213,192,47075,1,0,0:0:0:0:
42,192,47164,1,0,0:0:0:0:
298,192,47164,1,0,0:0:0:0:
383,192,47164,1,0,0:0:0:0:
469,192,47164,1,0,0:0:0:0:
213,192,47252,1,0,0:0:0:0:
128,192,47340,1,0,0:0:0:0:
213,192,47384,1,0,0:0:0:0:
298,192,47428,1,0,0:0:0:0:
383,192,47473,1,0,0:0:0:0:
42,192,47517,1,0,0:0:0:0:
128,192,47517,1,0,0:0:0:0:
213,192,47517,1,0,0:0:0:0:
469,192,47517,1,0,0:0:0:0:
383,192,47605,1,0,0:0:0:0:
128,192,47693,1,0,0:0:0:0:
213,192,47737,1,0,0:0:0:0:
298,192,47781,1,0,0:0:0:0:
383,192,47825,1,0,0:0:0:0:
42,192,47870,1,0,0:0:0:0:
128,192,47870,1,0,0:0:0:0:
213,192,47870,1,0,0:0:0:0:
469,192,47870,1,0,0:0:0:0:
298,192,47958,1,0,0:0:0:0:
383,192,47958,1,0,0:0:0:0:
469,192,48046,1,0,0:0:0:0:
42,192,48134,1,0,0:0:0:0:
128,192,48134,1,0,0:0:0:0:
213,192,48134,1,0,0:0:0:0:
298,192,48223,1,0,0:0:0:0:
383,192,48311,1,0,0:0:0:0:
42,192,48399,1,0,0:0:0:0:
213,192,48399,1,0,0:0:0:0:
298,192,48399,1,0,0:0:0:0:
469,192,48399,1,0,0:0:0:0:
128,192,48487,1,0,0:0:0:0:
383,192,48487,1,0,0:0:0:0:
42,192,48575,1,0,0:0:0:0:
213,192,48575,1,0,0:0:0:0:
298,192,48575,1,0,0:0:0:0:
469,192,48575,1,0,0:0:0:0:
383,192,48664,1,0,0:0:0:0:
42,192,48752,1,0,0:0:0:0:
128,192,48752,1,0,0:0:0:0:
298,192,48752,1,0,0:0:0:0:
213,192,48840,1,0,0:0:0:0:
42,192,48928,1,0,0:0:0:0:
469,192,48928,1,0,0:0:0:0:
383,192,49017,1,0,0:0:0:0:
128,192,49105,1,0,0:0:0:0:
213,192,49105,1,0,0:0:0:0:
469,192,49105,1,0,0:0:0:0:
298,192,49193,1,0,0:0:0:0:
42,192,49281,1,0,0:0:0:0:
383,192,49281,1,0,0:0:0:0:
469,192,49370,1,0,0:0:0:0:
128,192,49458,1,0,0:0:0:0:
298,192,49458,1,0,0:0:0:0:
213,192,49546,1,0,0:0:0:0:
42,192,49634,1,0,0:0:0:0:
298,192,49634,1,0,0:0:0:0:
383,192,49634,1,0,0:0:0:0:
469,192,49634,1,0,0:0:0:0:
128,192,49723,1,0,0:0:0:0:
213,192,49811,1,0,0:0:0:0:
298,192,49811,1,0,0:0:0:0:
383,192,49811,1,0,0:0:0:0:
469,192,49811,1,0,0:0:0:0:
128,192,49899,1,0,0:0:0:0:
42,192,49987,1,0,0:0:0:0:
469,192,49987,1,0,0:0:0:0:
383,192,50075,1,0,0:0:0:0:
128,192,50164,1,0,0:0:0:0:
298,192,50164,1,0,0:0:0:0:
213,192,50252,1,0,0:0:0:0:
42,192,50340,1,0,0:0:0:0:
469,192,50340,1,0,0:0:0:0:
128,192,50428,1,0,0:0:0:0:
213,192,50517,1,0,0:0:0:0:
298,192,50517,1,0,0:0:0:0:
383,192,50517,1,0,0:0:0:0:
469,192,50517,1,0,0:0:0:0:
128,192,50605,1,0,0:0:0:0:
42,192,50693,1,0,0:0:0:0:
298,192,50693,1,0,0:0:0:0:
383,192,50693,1,0,0:0:0:0:
469,192,50693,1,0,0:0:0:0:
213,192,50781,1,0,0:0:0:0:
42,192,50870,1,0,0:0:0:0:
128,192,50870,1,0,0:0:0:0:
298,192,50870,1,0,0:0:0:0:
383,192,50870,1,0,0:0:0:0:
469,192,50958,1,0,0:0:0:0:
42,192,51046,1,0,0:0:0:0:
128,192,51046,1,0,0:0:0:0:
213,192,51046,1,0,0:0:0:0:
298,192,51046,1,0,0:0:0:0:
383,192,51134,1,0,0:0:0:0:
42,192,51223,1,0,0:0:0:0:
128,192,51223,1,0,0:0:0:0:
298,192,51223,1,0,0:0:0:0:
469,192,51223,1,0,0:0:0:0:
383,192,51311,1,0,0:0:0:0:
42,192,51399,1,0,0:0:0:0:
128,192,51399,1,0,0:0:0:0:
213,192,51399,1,0,0:0:0:0:
298,192,51399,1,0,0:0:0:0:
469,192,51487,1,0,0:0:0:0:
128,192,51575,1,0,0:0:0:0:
383,192,51575,1,0,0:0:0:0:
213,192,51664,1,0,0:0:0:0:
298,192,51664,1,0,0:0:0:0:
469,192,51664,1,0,0:0:0:0:
42,192,51752,1,0,0:0:0:0:
128,192,51752,1,0,0:0:0:0:
213,192,51840,1,0,0:0:0:0:
42,192,51928,1,0,0:0:0:0:
298,192,51928,1,0,0:0:0:0:
383,192,51928,1,0,0:0:0:0:
469,192,51928,1,0,0:0:0:0:
213,192,52017,1,0,0:0:0:0:
42,192,52105,1,0,0:0:0:0:
383,192,52105,1,0,0:0:0:0:
298,192,52193,1,0,0:0:0:0:
128,192,52281,1,0,0:0:0:0:
469,192,52281,1,0,0:0:0:0:
383,192,52370,1,0,0:0:0:0:
42,192,52458,1,0,0:0:0:0:
298,192,52458,1,0,0:0:0:0:
469,192,52546,1,0,0:0:0:0:
42,192,52634,1,0,0:0:0:0:
128,192,52634,1,0,0:0:0:0:
383,192,52634,1,0,0:0:0:0:
213,192,52678,1,0,0:0:0:0:
298,192,52723,1,0,0:0:0:0:
383,192,52767,1,0,0:0:0:0:
42,192,52811,1,0,0:0:0:0:
128,192,52811,1,0,0:0:0:0:
469,192,52811,1,0,0:0:0:0:
213,192,52899,1,0,0:0:0:0:
298,192,52987,1,0,0:0:0:0:
383,192,52987,1,0,0:0:0:0:
213,192,53075,1,0,0:0:0:0:
42,192,53164,1,0,0:0:0:0:
469,192,53164,1,0,0:0:0:0:
383,192,53252,1,0,0:0:0:0:
128,192,53340,1,0,0:0:0:0:
298,192,53340,1,0,0:0:0:0:
469,192,53428,1,0,0:0:0:0:
42,192,53517,1,0,0:0:0:0:
213,192,53517,1,0,0:0:0:0:
298,192,53605,1,0,0:0:0:0:
383,192,53693,1,0,0:0:0:0:
469,192,53693,1,0,0:0:0:0:
128,192,53781,1,0,0:0:0:0:
213,192,53781,1,0,0:0:0:0:
42,192,53870,1,0,0:0:0:0:
469,192,53870,1,0,0:0:0:0:
383,192,53958,1,0,0:0:0:0:
42,192,54046,1,0,0:0:0:0:
213,192,54046,1,0,0:0:0:0:
298,192,54046,1,0,0:0:0:0:
128,192,54134,1,0,0:0:0:0:
42,192,54223,1,0,0:0:0:0:
213,192,54223,1,0,0:0:0:0:
383,192,54223,1,0,0:0:0:0:
469,192,54223,1,0,0:0:0:0:
298,192,55458,1,0,0:0:0:0:
469,192,55458,1,0,0:0:0:0:
42,192,55546,1,0,0:0:0:0:
213,192,55546,1,0,0:0:0:0:
298,192,55634,1,0,0:0:0:0:
469,192,55634,1,0,0:0:0:0:
128,192,56164,1,0,0:0:0:0:
383,192,56164,1,0,0:0:0:0:
128,192,56340,1,0,0:0:0:0:
383,192,56340,1,0,0:0:0:0:
383,192,56870,1,0,0:0:0:0:
469,192,56870,1,0,0:0:0:0:
42,192,57046,1,0,0:0:0:0:
383,192,57046,1,0,0:0:0:0:
469,192,57046,1,0,0:0:0:0:
128,192,57090,1,0,0:0:0:0:
213,192,57134,1,0,0:0:0:0:
298,192,57178,1,0,0:0:0:0:
469,192,57223,1,0,0:0:0:0:
383,192,57267,1,0,0:0:0:0:
298,192,57311,1,0,0:0:0:0:
213,192,57355,1,0,0:0:0:0:
42,192,57399,1,0,0:0:0:0:
128,192,57443,1,0,0:0:0:0:
213,192,57487,1,0,0:0:0:0:
298,192,57531,1,0,0:0:0:0:
469,192,57575,1,0,0:0:0:0:
383,192,57620,1,0,0:0:0:0:
298,192,57664,1,0,0:0:0:0:
213,192,57708,1,0,0:0:0:0:
42,192,57752,1,0,0:0:0:0:
128,192,57796,1,0,0:0:0:0:
213,192,57840,1,0,0:0:0:0:
298,192,57884,1,0,0:0:0:0:
469,192,57928,1,0,0:0:0:0:
383,192,57973,1,0,0:0:0:0:
298,192,58017,1,0,0:0:0:0:
213,192,58061,1,0,0:0:0:0:
42,192,58105,1,0,0:0:0:0:
128,192,58149,1,0,0:0:0:0:
213,192,58193,1,0,0:0:0:0:
298,192,58237,1,0,0:0:0:0:
469,192,58281,1,0,0:0:0:0:
383,192,58325,1,0,0:0:0:0:
298,192,58370,1,0,0:0:0:0:
213,192,58414,1,0,0:0:0:0:
42,192,58458,1,0,0:0:0:0:
383,192,58458,1,0,0:0:0:0:
469,192,58458,1,0,0:0:0:0:
128,192,58502,1,0,0:0:0:0:
213,192,58546,1,0,0:0:0:0:
298,192,58590,1,0,0:0:0:0:
469,192,58634,1,0,0:0:0:0:
383,192,58678,1,0,0:0:0:0:
298,192,58723,1,0,0:0:0:0:
213,192,58767,1,0,0:0:0:0:
42,192,58811,1,0,0:0:0:0:
128,192,58855,1,0,0:0:0:0:
213,192,58899,1,0,0:0:0:0:
298,192,58943,1,0,0:0:0:0:
469,192,58987,1,0,0:0:0:0:
383,192,59031,1,0,0:0:0:0:
298,192,59075,1,0,0:0:0:0:
213,192,59120,1,0,0:0:0:0:
42,192,59164,1,0,0:0:0:0:
128,192,59208,1,0,0:0:0:0:
213,192,59252,1,0,0:0:0:0:
298,192,59296,1,0,0:0:0:0:
469,192,59340,1,0,0:0:0:0:
383,192,59384,1,0,0:0:0:0:
298,192,59428,1,0,0:0:0:0:
213,192,59473,1,0,0:0:0:0:
42,192,59517,1,0,0:0:0:0:
128,192,59561,1,0,0:0:0:0:
213,192,59605,1,0,0:0:0:0:
298,192,59649,1,0,0:0:0:0:
469,192,59693,1,0,0:0:0:0:
383,192,59737,1,0,0:0:0:0:
298,192,59781,1,0,0:0:0:0:
213,192,59825,1,0,0:0:0:0:
42,192,59870,1,0,0:0:0:0:
128,192,59870,1,0,0:0:0:0:
469,192,59870,1,0,0:0:0:0:
298,192,59914,1,0,0:0:0:0:
383,192,59958,1,0,0:0:0:0:
469,192,60002,1,0,0:0:0:0:
128,192,60046,1,0,0:0:0:0:
213,192,60090,1,0,0:0:0:0:
298,192,60134,1,0,0:0:0:0:
42,192,60178,1,0,0:0:0:0:
469,192,60223,1,0,0:0:0:0:
213,192,60267,1,0,0:0:0:0:
128,192,60311,1,0,0:0:0:0:
42,192,60355,1,0,0:0:0:0:
298,192,60399,1,0,0:0:0:0:
213,192,60443,1,0,0:0:0:0:
128,192,60487,1,0,0:0:0:0:
383,192,60531,1,0,0:0:0:0:
42,192,60575,1,0,0:0:0:0:
213,192,60575,1,0,0:0:0:0:
469,192,60575,1,0,0:0:0:0:
298,192,60620,1,0,0:0:0:0:
383,192,60664,1,0,0:0:0:0:
469,192,60708,1,0,0:0:0:0:
213,192,60752,1,0,0:0:0:0:
298,192,60796,1,0,0:0:0:0:
383,192,60840,1,0,0:0:0:0:
128,192,60884,1,0,0:0:0:0:
469,192,60928,1,0,0:0:0:0:
213,192,60973,1,0,0:0:0:0:
128,192,61017,1,0,0:0:0:0:
42,192,61061,1,0,0:0:0:0:
298,192,61105,1,0,0:0:0:0:
213,192,61149,1,0,0:0:0:0:
128,192,61193,1,0,0:0:0:0:
383,192,61237,1,0,0:0:0:0:
42,192,61370,1,0,0:0:0:0:
213,192,61370,1,0,0:0:0:0:
298,192,61370,1,0,0:0:0:0:
469,192,61370,1,0,0:0:0:0:
42,192,61546,1,0,0:0:0:0:
213,192,61546,1,0,0:0:0:0:
298,192,61546,1,0,0:0:0:0:
469,192,61546,1,0,0:0:0:0:
42,192,61634,1,0,0:0:0:0:
213,192,61634,1,0,0:0:0:0:
298,192,61634,1,0,0:0:0:0:
469,192,61634,1,0,0:0:0:0:
42,192,61811,1,0,0:0:0:0:
213,192,61811,1,0,0:0:0:0:
298,192,61811,1,0,0:0:0:0:
469,192,61811,1,0,0:0:0:0:
42,192,61899,1,0,0:0:0:0:
213,192,61899,1,0,0:0:0:0:
298,192,61899,1,0,0:0:0:0:
469,192,61899,1,0,0:0:0:0:
42,192,62075,1,0,0:0:0:0:
213,192,62075,1,0,0:0:0:0:
298,192,62075,1,0,0:0:0:0:
469,192,62075,1,0,0:0:0:0:
42,192,62164,1,0,0:0:0:0:
213,192,62164,1,0,0:0:0:0:
383,192,62164,1,0,0:0:0:0:
469,192,62164,1,0,0:0:0:0:
128,192,62340,1,0,0:0:0:0:
298,192,62340,1,0,0:0:0:0:
42,192,62693,1,0,0:0:0:0:
128,192,62693,1,0,0:0:0:0:
213,192,62693,1,0,0:0:0:0:
469,192,62693,1,0,0:0:0:0:
383,192,62781,1,0,0:0:0:0:
128,192,62870,1,0,0:0:0:0:
298,192,62870,1,0,0:0:0:0:
469,192,62870,1,0,0:0:0:0:
213,192,62958,1,0,0:0:0:0:
42,192,63046,1,0,0:0:0:0:
383,192,63046,1,0,0:0:0:0:
298,192,63134,1,0,0:0:0:0:
128,192,63223,1,0,0:0:0:0:
213,192,63223,1,0,0:0:0:0:
469,192,63223,1,0,0:0:0:0:
383,192,63311,1,0,0:0:0:0:
42,192,63399,1,0,0:0:0:0:
298,192,63399,1,0,0:0:0:0:
469,192,63487,1,0,0:0:0:0:
42,192,63575,1,0,0:0:0:0:
213,192,63575,1,0,0:0:0:0:
298,192,63664,1,0,0:0:0:0:
42,192,63752,1,0,0:0:0:0:
469,192,63752,1,0,0:0:0:0:
383,192,63840,1,0,0:0:0:0:
213,192,63928,1,0,0:0:0:0:
298,192,63928,1,0,0:0:0:0:
469,192,63928,1,0,0:0:0:0:
128,192,64017,1,0,0:0:0:0:
42,192,64105,1,0,0:0:0:0:
383,192,64105,1,0,0:0:0:0:
469,192,64193,1,0,0:0:0:0:
128,192,64281,1,0,0:0:0:0:
213,192,64281,1,0,0:0:0:0:
298,192,64281,1,0,0:0:0:0:
383,192,64370,1,0,0:0:0:0:
42,192,64458,1,0,0:0:0:0:
469,192,64458,1,0,0:0:0:0:
128,192,64546,1,0,0:0:0:0:
213,192,64634,1,0,0:0:0:0:
383,192,64634,1,0,0:0:0:0:
469,192,64634,1,0,0:0:0:0:
298,192,64723,1,0,0:0:0:0:
42,192,64811,1,0,0:0:0:0:
128,192,64811,1,0,0:0:0:0:
383,192,64811,1,0,0:0:0:0:
469,192,64811,1,0,0:0:0:0:
213,192,64899,1,0,0:0:0:0:
298,192,64987,1,0,0:0:0:0:
383,192,64987,1,0,0:0:0:0:
469,192,64987,1,0,0:0:0:0:
128,192,65075,1,0,0:0:0:0:
42,192,65164,1,0,0:0:0:0:
469,192,65164,1,0,0:0:0:0:
298,192,65252,1,0,0:0:0:0:
42,192,65340,1,0,0:0:0:0:
128,192,65340,1,0,0:0:0:0:
213,192,65340,1,0,0:0:0:0:
383,192,65340,1,0,0:0:0:0:
298,192,65428,1,0,0:0:0:0:
42,192,65517,1,0,0:0:0:0:
128,192,65517,1,0,0:0:0:0:
213,192,65517,1,0,0:0:0:0:
469,192,65517,1,0,0:0:0:0:
383,192,65605,1,0,0:0:0:0:
213,192,65693,1,0,0:0:0:0:
298,192,65693,1,0,0:0:0:0:
469,192,65693,1,0,0:0:0:0:
128,192,65781,1,0,0:0:0:0:
42,192,65870,1,0,0:0:0:0:
383,192,65870,1,0,0:0:0:0:
298,192,65958,1,0,0:0:0:0:
128,192,66046,1,0,0:0:0:0:
213,192,66046,1,0,0:0:0:0:
469,192,66046,1,0,0:0:0:0:
383,192,66134,1,0,0:0:0:0:
42,192,66223,1,0,0:0:0:0:
128,192,66223,1,0,0:0:0:0:
213,192,66311,1,0,0:0:0:0:
298,192,66399,1,0,0:0:0:0:
383,192,66399,1,0,0:0:0:0:
469,192,66399,1,0,0:0:0:0:
128,192,66487,1,0,0:0:0:0:
42,192,66575,1,0,0:0:0:0:
383,192,66575,1,0,0:0:0:0:
298,192,66664,1,0,0:0:0:0:
42,192,66752,1,0,0:0:0:0:
213,192,66752,1,0,0:0:0:0:
469,192,66752,1,0,0:0:0:0:
383,192,66840,1,0,0:0:0:0:
42,192,66928,1,0,0:0:0:0:
298,192,66928,1,0,0:0:0:0:
128,192,67017,1,0,0:0:0:0:
213,192,67105,1,0,0:0:0:0:
383,192,67105,1,0,0:0:0:0:
469,192,67105,1,0,0:0:0:0:
128,192,67193,1,0,0:0:0:0:
42,192,67281,1,0,0:0:0:0:
383,192,67281,1,0,0:0:0:0:
298,192,67370,1,0,0:0:0:0:
42,192,67458,1,0,0:0:0:0:
128,192,67458,1,0,0:0:0:0:
469,192,67458,1,0,0:0:0:0:
213,192,67546,1,0,0:0:0:0:
42,192,67634,1,0,0:0:0:0:
298,192,67634,1,0,0:0:0:0:
383,192,67634,1,0,0:0:0:0:
469,192,67634,1,0,0:0:0:0:
128,192,67723,1,0,0:0:0:0:
213,192,67811,1,0,0:0:0:0:
383,192,67811,1,0,0:0:0:0:
469,192,67811,1,0,0:0:0:0:
128,192,67899,1,0,0:0:0:0:
298,192,67899,1,0,0:0:0:0:
42,192,67987,1,0,0:0:0:0:
213,192,67987,1,0,0:0:0:0:
469,192,68075,1,0,0:0:0:0:
42,192,68164,1,0,0:0:0:0:
213,192,68164,1,0,0:0:0:0:
298,192,68164,1,0,0:0:0:0:
383,192,68164,1,0,0:0:0:0:
469,192,68252,1,0,0:0:0:0:
42,192,68340,1,0,0:0:0:0:
128,192,68340,1,0,0:0:0:0:
213,192,68340,1,0,0:0:0:0:
298,192,68340,1,0,0:0:0:0:
383,192,68428,1,0,0:0:0:0:
128,192,68517,1,0,0:0:0:0:
213,192,68517,1,0,0:0:0:0:
469,192,68517,1,0,0:0:0:0:
298,192,68605,1,0,0:0:0:0:
42,192,68693,1,0,0:0:0:0:
383,192,68693,1,0,0:0:0:0:
469,192,68781,1,0,0:0:0:0:
42,192,68870,1,0,0:0:0:0:
128,192,68870,1,0,0:0:0:0:
213,192,68870,1,0,0:0:0:0:
298,192,68958,1,0,0:0:0:0:
42,192,69046,1,0,0:0:0:0:
469,192,69046,1,0,0:0:0:0:
383,192,69134,1,0,0:0:0:0:
128,192,69223,1,0,0:0:0:0:
213,192,69223,1,0,0:0:0:0:
298,192,69223,1,0,0:0:0:0:
469,192,69311,1,0,0:0:0:0:
42,192,69399,1,0,0:0:0:0:
383,192,69399,1,0,0:0:0:0:
128,192,69487,1,0,0:0:0:0:
213,192,69575,1,0,0:0:0:0:
383,192,69575,1,0,0:0:0:0:
469,192,69575,1,0,0:0:0:0:
298,192,69664,1,0,0:0:0:0:
42,192,69752,1,0,0:0:0:0:
128,192,69752,1,0,0:0:0:0:
298,192,69840,1,0,0:0:0:0:
128,192,69928,1,0,0:0:0:0:
383,192,69928,1,0,0:0:0:0:
469,192,69928,1,0,0:0:0:0:
213,192,70017,1,0,0:0:0:0:
42,192,70105,1,0,0:0:0:0:
298,192,70105,1,0,0:0:0:0:
128,192,70193,1,0,0:0:0:0:
213,192,70281,1,0,0:0:0:0:
383,192,70281,1,0,0:0:0:0:
469,192,70281,1,0,0:0:0:0:
128,192,70370,1,0,0:0:0:0:
42,192,70458,1,0,0:0:0:0:
298,192,70458,1,0,0:0:0:0:
383,192,70458,1,0,0:0:0:0:
469,192,70458,1,0,0:0:0:0:
213,192,70546,1,0,0:0:0:0:
128,192,70634,1,0,0:0:0:0:
298,192,70634,1,0,0:0:0:0:
383,192,70634,1,0,0:0:0:0:
213,192,70723,1,0,0:0:0:0:
42,192,70811,1,0,0:0:0:0:
469,192,70811,1,0,0:0:0:0:
128,192,70899,1,0,0:0:0:0:
42,192,70987,1,0,0:0:0:0:
298,192,70987,1,0,0:0:0:0:
383,192,70987,1,0,0:0:0:0:
469,192,70987,1,0,0:0:0:0:
213,192,71075,1,0,0:0:0:0:
42,192,71164,1,0,0:0:0:0:
298,192,71164,1,0,0:0:0:0:
383,192,71164,1,0,0:0:0:0:
469,192,71164,1,0,0:0:0:0:
128,192,71252,1,0,0:0:0:0:
213,192,71252,1,0,0:0:0:0:
298,192,71340,1,0,0:0:0:0:
383,192,71340,1,0,0:0:0:0:
128,192,71428,1,0,0:0:0:0:
213,192,71428,1,0,0:0:0:0:
298,192,71517,1,0,0:0:0:0:
383,192,71517,1,0,0:0:0:0:
128,192,71605,1,0,0:0:0:0:
213,192,71605,1,0,0:0:0:0:
298,192,71693,1,0,0:0:0:0:
383,192,71693,1,0,0:0:0:0:
469,192,71693,1,0,0:0:0:0:
128,192,71781,1,0,0:0:0:0:
213,192,71781,1,0,0:0:0:0:
298,192,71870,1,0,0:0:0:0:
383,192,71870,1,0,0:0:0:0:
128,192,71958,1,0,0:0:0:0:
213,192,71958,1,0,0:0:0:0:
298,192,72046,1,0,0:0:0:0:
383,192,72046,1,0,0:0:0:0:
128,192,72134,1,0,0:0:0:0:
213,192,72134,1,0,0:0:0:0:
298,192,72223,1,0,0:0:0:0:
383,192,72223,1,0,0:0:0:0:
469,192,72223,1,0,0:0:0:0:
42,192,72311,1,0,0:0:0:0:
128,192,72311,1,0,0:0:0:0:
213,192,72311,1,0,0:0:0:0:
298,192,72399,1,0,0:0:0:0:
383,192,72399,1,0,0:0:0:0:
469,192,72399,1,0,0:0:0:0:
42,192,72487,1,0,0:0:0:0:
128,192,72487,1,0,0:0:0:0:
213,192,72487,1,0,0:0:0:0:
298,192,72575,1,0,0:0:0:0:
469,192,72575,1,0,0:0:0:0:
42,192,72664,1,0,0:0:0:0:
213,192,72664,1,0,0:0:0:0:
383,192,72752,1,0,0:0:0:0:
298,192,72796,1,0,0:0:0:0:
213,192,72840,1,0,0:0:0:0:
128,192,72884,1,0,0:0:0:0:
298,192,72928,1,0,0:0:0:0:
469,192,72928,1,0,0:0:0:0:
42,192,73017,1,0,0:0:0:0:
213,192,73017,1,0,0:0:0:0:
383,192,73105,1,0,0:0:0:0:
298,192,73149,1,0,0:0:0:0:
213,192,73193,1,0,0:0:0:0:
128,192,73237,1,0,0:0:0:0:
469,192,73281,1,0,0:0:0:0:
298,192,73340,1,0,0:0:0:0:
213,192,73399,1,0,0:0:0:0:
128,192,73458,1,0,0:0:0:0:
469,192,73517,1,0,0:0:0:0:
383,192,73575,1,0,0:0:0:0:
42,192,73634,1,0,0:0:0:0:
128,192,73693,1,0,0:0:0:0:
213,192,73752,1,0,0:0:0:0:
469,192,73811,1,0,0:0:0:0:
383,192,73870,1,0,0:0:0:0:
298,192,73928,1,0,0:0:0:0:
42,192,73987,1,0,0:0:0:0:
128,192,73987,1,0,0:0:0:0:
213,192,73987,1,0,0:0:0:0:
469,192,73987,1,0,0:0:0:0:
383,192,74075,1,0,0:0:0:0:
128,192,74164,1,0,0:0:0:0:
213,192,74252,1,0,0:0:0:0:
298,192,74252,1,0,0:0:0:0:
383,192,74252,1,0,0:0:0:0:
42,192,74340,1,0,0:0:0:0:
469,192,74340,1,0,0:0:0:0:
128,192,74428,1,0,0:0:0:0:
213,192,74517,1,0,0:0:0:0:
383,192,74517,1,0,0:0:0:0:
469,192,74517,1,0,0:0:0:0:
298,192,74605,1,0,0:0:0:0:
42,192,74693,1,0,0:0:0:0:
128,192,74693,1,0,0:0:0:0:
383,192,74781,1,0,0:0:0:0:
298,192,74870,1,0,0:0:0:0:
213,192,74958,1,0,0:0:0:0:
42,192,75046,1,0,0:0:0:0:
469,192,75046,1,0,0:0:0:0:
128,192,75134,1,0,0:0:0:0:
298,192,75223,1,0,0:0:0:0:
469,192,75223,1,0,0:0:0:0:
298,192,75311,1,0,0:0:0:0:
469,192,75311,1,0,0:0:0:0:
42,192,75399,1,0,0:0:0:0:
298,192,75399,1,0,0:0:0:0:
469,192,75399,1,0,0:0:0:0:
128,192,75487,1,0,0:0:0:0:
213,192,75575,1,0,0:0:0:0:
383,192,75575,1,0,0:0:0:0:
213,192,75664,1,0,0:0:0:0:
383,192,75664,1,0,0:0:0:0:
42,192,75752,1,0,0:0:0:0:
213,192,75752,1,0,0:0:0:0:
383,192,75752,1,0,0:0:0:0:
469,192,75840,1,0,0:0:0:0:
128,192,75928,1,0,0:0:0:0:
298,192,75928,1,0,0:0:0:0:
128,192,76017,1,0,0:0:0:0:
298,192,76017,1,0,0:0:0:0:
128,192,76105,1,0,0:0:0:0:
298,192,76105,1,0,0:0:0:0:
469,192,76105,1,0,0:0:0:0:
383,192,76193,1,0,0:0:0:0:
42,192,76281,1,0,0:0:0:0:
213,192,76281,1,0,0:0:0:0:
42,192,76370,1,0,0:0:0:0:
213,192,76370,1,0,0:0:0:0:
42,192,76458,1,0,0:0:0:0:
213,192,76458,1,0,0:0:0:0:
469,192,76458,1,0,0:0:0:0:
128,192,76546,1,0,0:0:0:0:
42,192,76634,1,0,0:0:0:0:
298,192,76634,1,0,0:0:0:0:
383,192,76634,1,0,0:0:0:0:
469,192,76723,1,0,0:0:0:0:
42,192,76811,1,0,0:0:0:0:
128,192,76811,1,0,0:0:0:0:
213,192,76811,1,0,0:0:0:0:
298,192,76811,1,0,0:0:0:0:
383,192,76899,1,0,0:0:0:0:
469,192,76987,1,0,0:0:0:0:
128,192,77075,1,0,0:0:0:0:
213,192,77075,1,0,0:0:0:0:
298,192,77075,1,0,0:0:0:0:
42,192,77164,1,0,0:0:0:0:
383,192,77164,1,0,0:0:0:0:
298,192,77252,1,0,0:0:0:0:
128,192,77340,1,0,0:0:0:0:
469,192,77340,1,0,0:0:0:0:
383,192,77428,1,0,0:0:0:0:
42,192,77517,1,0,0:0:0:0:
213,192,77517,1,0,0:0:0:0:
298,192,77517,1,0,0:0:0:0:
469,192,77517,1,0,0:0:0:0:
128,192,77605,1,0,0:0:0:0:
469,192,77693,1,0,0:0:0:0:
213,192,77781,1,0,0:0:0:0:
42,192,77870,1,0,0:0:0:0:
298,192,77870,1,0,0:0:0:0:
383,192,77958,1,0,0:0:0:0:
128,192,78046,1,0,0:0:0:0:
213,192,78046,1,0,0:0:0:0:
298,192,78134,1,0,0:0:0:0:
383,192,78134,1,0,0:0:0:0:
42,192,78223,1,0,0:0:0:0:
128,192,78223,1,0,0:0:0:0:
213,192,78223,1,0,0:0:0:0:
469,192,78223,1,0,0:0:0:0:
383,192,78311,1,0,0:0:0:0:
128,192,78399,1,0,0:0:0:0:
213,192,78399,1,0,0:0:0:0:
298,192,78399,1,0,0:0:0:0:
383,192,78487,1,0,0:0:0:0:
42,192,78575,1,0,0:0:0:0:
128,192,78575,1,0,0:0:0:0:
213,192,78575,1,0,0:0:0:0:
469,192,78575,1,0,0:0:0:0:
298,192,78664,1,0,0:0:0:0:
128,192,78752,1,0,0:0:0:0:
383,192,78752,1,0,0:0:0:0:
469,192,78752,1,0,0:0:0:0:
213,192,78840,1,0,0:0:0:0:
42,192,78928,1,0,0:0:0:0:
298,192,78928,1,0,0:0:0:0:
383,192,78928,1,0,0:0:0:0:
469,192,78928,1,0,0:0:0:0:
128,192,79017,1,0,0:0:0:0:
213,192,79105,1,0,0:0:0:0:
383,192,79105,1,0,0:0:0:0:
469,192,79105,1,0,0:0:0:0:
128,192,79193,1,0,0:0:0:0:
298,192,79193,1,0,0:0:0:0:
42,192,79281,1,0,0:0:0:0:
213,192,79281,1,0,0:0:0:0:
383,192,79370,1,0,0:0:0:0:
42,192,79458,1,0,0:0:0:0:
213,192,79458,1,0,0:0:0:0:
298,192,79458,1,0,0:0:0:0:
469,192,79458,1,0,0:0:0:0:
128,192,79546,1,0,0:0:0:0:
42,192,79634,1,0,0:0:0:0:
298,192,79634,1,0,0:0:0:0:
383,192,79634,1,0,0:0:0:0:
469,192,79634,1,0,0:0:0:0:
128,192,79723,1,0,0:0:0:0:
213,192,79723,1,0,0:0:0:0:
298,192,79811,1,0,0:0:0:0:
383,192,79811,1,0,0:0:0:0:
469,192,79811,1,0,0:0:0:0:
42,192,79899,1,0,0:0:0:0:
213,192,79899,1,0,0:0:0:0:
298,192,79987,1,0,0:0:0:0:
383,192,79987,1,0,0:0:0:0:
469,192,79987,1,0,0:0:0:0:
128,192,80075,1,0,0:0:0:0:
213,192,80075,1,0,0:0:0:0:
298,192,80164,1,0,0:0:0:0:
383,192,80164,1,0,0:0:0:0:
469,192,80164,1,0,0:0:0:0:
42,192,80252,1,0,0:0:0:0:
128,192,80252,1,0,0:0:0:0:
213,192,80340,1,0,0:0:0:0:
298,192,80340,1,0,0:0:0:0:
469,192,80340,1,0,0:0:0:0:
42,192,80428,1,0,0:0:0:0:
128,192,80428,1,0,0:0:0:0:
298,192,80517,1,0,0:0:0:0:
383,192,80517,1,0,0:0:0:0:
469,192,80517,1,0,0:0:0:0:
128,192,80605,1,0,0:0:0:0:
213,192,80605,1,0,0:0:0:0:
298,192,80693,1,0,0:0:0:0:
383,192,80693,1,0,0:0:0:0:
469,192,80693,1,0,0:0:0:0:
42,192,80781,1,0,0:0:0:0:
128,192,80781,1,0,0:0:0:0:
213,192,80870,1,0,0:0:0:0:
298,192,80870,1,0,0:0:0:0:
469,192,80870,1,0,0:0:0:0:
128,192,80958,1,0,0:0:0:0:
383,192,80958,1,0,0:0:0:0:
42,192,81046,1,0,0:0:0:0:
213,192,81046,1,0,0:0:0:0:
298,192,81046,1,0,0:0:0:0:
383,192,81134,1,0,0:0:0:0:
469,192,81134,1,0,0:0:0:0:
42,192,81223,1,0,0:0:0:0:
128,192,81223,1,0,0:0:0:0:
213,192,81223,1,0,0:0:0:0:
298,192,81311,1,0,0:0:0:0:
383,192,81311,1,0,0:0:0:0:
42,192,81399,1,0,0:0:0:0:
128,192,81399,1,0,0:0:0:0:
213,192,81399,1,0,0:0:0:0:
383,192,81487,1,0,0:0:0:0:
469,192,81487,1,0,0:0:0:0:
42,192,81575,1,0,0:0:0:0:
128,192,81575,1,0,0:0:0:0:
298,192,81575,1,0,0:0:0:0:
383,192,81664,1,0,0:0:0:0:
469,192,81664,1,0,0:0:0:0:
42,192,81752,1,0,0:0:0:0:
128,192,81752,1,0,0:0:0:0:
213,192,81752,1,0,0:0:0:0:
298,192,81840,1,0,0:0:0:0:
383,192,81840,1,0,0:0:0:0:
42,192,81928,1,0,0:0:0:0:
128,192,81928,1,0,0:0:0:0:
213,192,81928,1,0,0:0:0:0:
383,192,82017,1,0,0:0:0:0:
469,192,82017,1,0,0:0:0:0:
128,192,82105,1,0,0:0:0:0:
213,192,82105,1,0,0:0:0:0:
298,192,82105,1,0,0:0:0:0:
383,192,82193,1,0,0:0:0:0:
469,192,82193,1,0,0:0:0:0:
42,192,82281,1,0,0:0:0:0:
128,192,82281,1,0,0:0:0:0:
213,192,82281,1,0,0:0:0:0:
298,192,82370,1,0,0:0:0:0:
383,192,82370,1,0,0:0:0:0:
42,192,82458,1,0,0:0:0:0:
213,192,82458,1,0,0:0:0:0:
469,192,82458,1,0,0:0:0:0:
128,192,82546,1,0,0:0:0:0:
298,192,82546,1,0,0:0:0:0:
383,192,82546,1,0,0:0:0:0:
213,192,82634,1,0,0:0:0:0:
469,192,82634,1,0,0:0:0:0:
42,192,82723,1,0,0:0:0:0:
298,192,82723,1,0,0:0:0:0:
383,192,82723,1,0,0:0:0:0:
128,192,82811,1,0,0:0:0:0:
213,192,82811,1,0,0:0:0:0:
469,192,82811,1,0,0:0:0:0:
42,192,82899,1,0,0:0:0:0:
298,192,82899,1,0,0:0:0:0:
383,192,82899,1,0,0:0:0:0:
213,192,82987,1,0,0:0:0:0:
469,192,82987,1,0,0:0:0:0:
42,192,83075,1,0,0:0:0:0:
128,192,83075,1,0,0:0:0:0:
298,192,83075,1,0,0:0:0:0:
213,192,83164,1,0,0:0:0:0:
383,192,83164,1,0,0:0:0:0:
469,192,83164,1,0,0:0:0:0:
42,192,83252,1,0,0:0:0:0:
128,192,83252,1,0,0:0:0:0:
298,192,83252,1,0,0:0:0:0:
383,192,83340,1,0,0:0:0:0:
469,192,83340,1,0,0:0:0:0:
42,192,83428,1,0,0:0:0:0:
128,192,83428,1,0,0:0:0:0:
213,192,83428,1,0,0:0:0:0:
298,192,83517,1,0,0:0:0:0:
383,192,83517,1,0,0:0:0:0:
469,192,83517,1,0,0:0:0:0:
42,192,83605,1,0,0:0:0:0:
128,192,83605,1,0,0:0:0:0:
213,192,83605,1,0,0:0:0:0:
298,192,83693,1,0,0:0:0:0:
469,192,83693,1,0,0:0:0:0:
42,192,83781,1,0,0:0:0:0:
128,192,83781,1,0,0:0:0:0:
383,192,83781,1,0,0:0:0:0:
213,192,83870,1,0,0:0:0:0:
298,192,83870,1,0,0:0:0:0:
469,192,83870,1,0,0:0:0:0:
42,192,83958,1,0,0:0:0:0:
128,192,83958,1,0,0:0:0:0:
383,192,83958,1,0,0:0:0:0:
213,192,84046,1,0,0:0:0:0:
298,192,84090,1,0,0:0:0:0:
383,192,84134,1,0,0:0:0:0:
469,192,84178,1,0,0:0:0:0:
42,192,84223,1,0,0:0:0:0:
128,192,84223,1,0,0:0:0:0:
298,192,84223,1,0,0:0:0:0:
213,192,84311,1,0,0:0:0:0:
383,192,84311,1,0,0:0:0:0:
469,192,84311,1,0,0:0:0:0:
298,192,84399,1,0,0:0:0:0:
213,192,84443,1,0,0:0:0:0:
128,192,84487,1,0,0:0:0:0:
42,192,84531,1,0,0:0:0:0:
383,192,84575,1,0,0:0:0:0:
469,192,84575,1,0,0:0:0:0:
213,192,84664,1,0,0:0:0:0:
298,192,84664,1,0,0:0:0:0:
383,192,84752,1,0,0:0:0:0:
469,192,84752,1,0,0:0:0:0:
128,192,84840,1,0,0:0:0:0:
213,192,84840,1,0,0:0:0:0:
298,192,84928,1,0,0:0:0:0:
383,192,84928,1,0,0:0:0:0:
42,192,85017,1,0,0:0:0:0:
128,192,85017,1,0,0:0:0:0:
213,192,85105,1,0,0:0:0:0:
298,192,85105,1,0,0:0:0:0:
42,192,85193,1,0,0:0:0:0:
128,192,85193,1,0,0:0:0:0:
213,192,85281,1,0,0:0:0:0:
298,192,85281,1,0,0:0:0:0:
383,192,85281,1,0,0:0:0:0:
469,192,85281,1,0,0:0:0:0:
128,192,85458,1,0,0:0:0:0:
213,192,85634,1,0,0:0:0:0:
383,192,85811,1,0,0:0:0:0:
298,192,86164,1,0,0:0:0:0:
128,192,86340,1,0,0:0:0:0:
383,192,86517,1,0,0:0:0:0:
469,192,86693,1,0,0:0:0:0:
298,192,86870,1,0,0:0:0:0:
383,192,87046,1,0,0:0:0:0:
213,192,87223,1,0,0:0:0:0:
298,192,87399,1,0,0:0:0:0:
383,192,87399,1,0,0:0:0:0:
469,192,87399,1,0,0:0:0:0:
128,192,87575,1,0,0:0:0:0:
383,192,87752,1,0,0:0:0:0:
128,192,87928,1,0,0:0:0:0:
42,192,88105,1,0,0:0:0:0:
298,192,88105,1,0,0:0:0:0:
469,192,88105,1,0,0:0:0:0:
213,192,88281,1,0,0:0:0:0:
383,192,88458,1,0,0:0:0:0:
469,192,88634,1,0,0:0:0:0:
383,192,88987,1,0,0:0:0:0:
128,192,89164,1,0,0:0:0:0:
213,192,89340,1,0,0:0:0:0:
298,192,89517,1,0,0:0:0:0:
383,192,89693,1,0,0:0:0:0:
128,192,89870,1,0,0:0:0:0:
213,192,90046,1,0,0:0:0:0:
42,192,90223,1,0,0:0:0:0:
383,192,90223,1,0,0:0:0:0:
469,192,90223,1,0,0:0:0:0:
128,192,90399,1,0,0:0:0:0:
298,192,90575,1,0,0:0:0:0:
213,192,90752,1,0,0:0:0:0:
42,192,90928,1,0,0:0:0:0:
298,192,90928,1,0,0:0:0:0:
383,192,90928,1,0,0:0:0:0:
128,192,91105,1,0,0:0:0:0:
213,192,91281,1,0,0:0:0:0:
469,192,91458,1,0,0:0:0:0:
383,192,91811,1,0,0:0:0:0:
42,192,91987,1,0,0:0:0:0:
213,192,92164,1,0,0:0:0:0:
298,192,92340,1,0,0:0:0:0:
42,192,92517,1,0,0:0:0:0:
128,192,92693,1,0,0:0:0:0:
469,192,92870,1,0,0:0:0:0:
42,192,93046,1,0,0:0:0:0:
213,192,93046,1,0,0:0:0:0:
298,192,93046,1,0,0:0:0:0:
383,192,93223,1,0,0:0:0:0:
128,192,93399,1,0,0:0:0:0:
213,192,93572,1,0,0:0:0:0:
298,192,93759,1,0,0:0:0:0:
383,192,93759,1,0,0:0:0:0:
469,192,93759,1,0,0:0:0:0:
42,192,93947,1,0,0:0:0:0:
298,192,94134,1,0,0:0:0:0:
42,192,94322,1,0,0:0:0:0:
128,192,94322,1,0,0:0:0:0:
213,192,94322,1,0,0:0:0:0:
383,192,94708,1,0,0:0:0:0:
298,192,94915,1,0,0:0:0:0:
213,192,94915,1,0,0:0:0:0:
42,192,94915,1,0,0:0:0:0:
469,192,95129,1,0,0:0:0:0:
298,192,95343,1,0,0:0:0:0:
383,192,95343,1,0,0:0:0:0:
42,192,95343,1,0,0:0:0:0:
469,192,95577,1,0,0:0:0:0:
128,192,95811,1,0,0:0:0:0:
213,192,96069,1,0,0:0:0:0:
469,192,96328,1,0,0:0:0:0:
298,192,96328,1,0,0:0:0:0:
42,192,96329,1,0,0:0:0:0:
383,192,96610,1,0,0:0:0:0:
128,192,96891,1,0,0:0:0:0:
213,192,97379,1,0,0:0:0:0:
42,192,98313,1,0,0:0:0:0:
128,192,98365,1,0,0:0:0:0:
213,192,98417,1,0,0:0:0:0:
383,192,98468,1,0,0:0:0:0:
298,192,98572,1,0,0:0:0:0:
469,192,98624,1,0,0:0:0:0:
42,0,98624,128,0,101624:0:0:0:0:
