osu file format v14

[General]
AudioFilename: Super Star MITSURI - Thank You For Playing ~.mp3
AudioLeadIn: 0
PreviewTime: -1
Countdown: 0
SampleSet: Normal
StackLeniency: 0.7
Mode: 1
LetterboxInBreaks: 0
WidescreenStoryboard: 1

[Editor]
Bookmarks: 59870,83605
DistanceSpacing: 1.2
BeatDivisor: 4
GridSize: 32
TimelineZoom: 2.4

[Metadata]
Title:Thank You For Playing ~
TitleUnicode:Thank You For Playing ~
Artist:Super Star MITSURU
ArtistUnicode:Super Star MITSURU
Creator:Steins
Version:IMT's Taiko ~ Thank You For Playing ~
Source:BeatmapIIDX
Tags:Steins Xeostyle __M A S__ Eternalie redfire099 [-Seiryuu-] DrawdeX Resuner YunoFanatic TheZiemniax LordRaika ALEFY
BeatmapID:775721
BeatmapSetID:317414

[Difficulty]
HPDrainRate:5
CircleSize:5
OverallDifficulty:5
ApproachRate:5
SliderMultiplier:1.4
SliderTickRate:1

[Events]
//Background and Video events
0,0,"piano-no-mori-9.png",0,0
//Break Periods
//Storyboard Layer 0 (Background)
//Storyboard Layer 1 (Fail)
//Storyboard Layer 2 (Pass)
//Storyboard Layer 3 (Foreground)
//Storyboard Sound Samples

[TimingPoints]
576,352.941176470588,4,1,0,80,1,0
14693,-100,4,1,0,80,0,1
37281,-100,4,1,0,80,0,0
62693,-100,4,1,0,80,0,1
85281,-100,4,1,0,80,0,0
93572,375,4,1,0,80,1,0
94502,413.793103448276,4,1,0,80,1,0
94915,428.571428571429,4,1,0,80,1,0
95343,468.75,4,1,0,80,1,0
95811,517.241379310345,4,1,0,80,1,0
96329,562.851782363977,4,1,0,80,1,0
96929,601.202404809619,4,1,0,80,1,0
98262,413.793103448276,4,1,0,80,1,0

[HitObjects]
234,278,576,5,4,0:0:0:0:
294,230,752,1,0,0:0:0:0:
276,242,928,1,8,0:0:0:0:
253,280,1105,1,0,0:0:0:0:
264,289,1458,1,0,0:0:0:0:
337,291,1634,1,8,0:0:0:0:
296,294,1811,1,0,0:0:0:0:
254,296,1987,1,8,0:0:0:0:
241,304,2164,1,0,0:0:0:0:
199,249,2340,1,8,0:0:0:0:
207,265,2517,1,0,0:0:0:0:
206,268,2693,1,8,0:0:0:0:
206,268,2870,1,0,0:0:0:0:
290,243,3046,1,0,0:0:0:0:
284,247,3223,1,0,0:0:0:0:
170,189,3399,1,8,0:0:0:0:
284,301,3575,1,8,0:0:0:0:
226,302,3752,1,0,0:0:0:0:
225,302,3928,1,8,0:0:0:0:
230,288,4281,1,0,0:0:0:0:
227,292,4458,1,0,0:0:0:0:
226,293,4634,1,0,0:0:0:0:
220,295,4811,1,8,0:0:0:0:
172,237,4987,1,0,0:0:0:0:
205,248,5164,1,8,0:0:0:0:
276,266,5340,1,8,0:0:0:0:
245,272,5517,1,8,0:0:0:0:
244,273,5693,1,0,0:0:0:0:
173,213,5870,1,8,0:0:0:0:
172,237,6046,1,8,0:0:0:0:
243,223,6223,1,0,0:0:0:0:
363,231,6399,1,0,0:0:0:0:
341,239,6575,1,8,0:0:0:0:
254,279,6752,1,0,0:0:0:0:
319,292,7105,1,0,0:0:0:0:
319,292,7281,1,8,0:0:0:0:
319,292,7458,1,8,0:0:0:0:
319,292,7634,1,0,0:0:0:0:
223,216,7811,1,0,0:0:0:0:
214,226,7987,1,8,0:0:0:0:
292,194,8164,1,0,0:0:0:0:
292,194,8340,1,8,0:0:0:0:
263,228,8517,1,0,0:0:0:0:
254,284,8693,1,0,0:0:0:0:
254,284,8870,1,0,0:0:0:0:
206,246,9046,1,8,0:0:0:0:
205,263,9223,1,0,0:0:0:0:
244,275,9399,1,0,0:0:0:0:
244,276,9575,1,8,0:0:0:0:
261,278,9928,1,0,0:0:0:0:
261,278,10105,1,8,0:0:0:0:
190,244,10458,1,0,0:0:0:0:
190,294,10634,1,8,0:0:0:0:
296,284,10811,1,0,0:0:0:0:
346,252,10987,1,8,0:0:0:0:
346,252,11075,1,8,0:0:0:0:
346,252,11164,1,0,0:0:0:0:
210,239,11340,1,0,0:0:0:0:
265,203,11517,1,0,0:0:0:0:
350,315,11693,1,8,0:0:0:0:
456,217,11870,1,0,0:0:0:0:
437,91,11928,1,0,0:0:0:0:
164,166,11987,1,8,0:0:0:0:
326,151,12046,1,8,0:0:0:0:
326,151,12090,1,0,0:0:0:0:
320,155,12134,1,0,0:0:0:0:
197,267,12428,1,8,0:0:0:0:
294,297,12487,1,0,0:0:0:0:
373,291,12546,1,8,0:0:0:0:
225,198,12752,1,0,0:0:0:0:
225,198,12781,1,8,0:0:0:0:
285,204,14693,1,0,0:0:0:0:
285,204,14781,1,0,0:0:0:0:
285,204,14870,1,8,0:0:0:0:
287,257,14958,1,0,0:0:0:0:
231,125,15046,1,0,0:0:0:0:
217,150,15134,1,0,0:0:0:0:
214,155,15223,1,8,0:0:0:0:
214,171,15311,1,0,0:0:0:0:
212,184,15399,1,0,0:0:0:0:
190,244,15487,1,0,0:0:0:0:
190,244,15575,1,8,0:0:0:0:
190,244,15664,1,0,0:0:0:0:
190,244,15752,1,0,0:0:0:0:
386,215,15840,1,0,0:0:0:0:
328,233,15928,1,8,0:0:0:0:
361,259,16017,1,0,0:0:0:0:
356,271,16105,1,0,0:0:0:0:
356,271,16193,1,0,0:0:0:0:
219,282,16281,1,8,0:0:0:0:
294,300,16370,1,0,0:0:0:0:
294,300,16458,1,0,0:0:0:0:
294,300,16546,1,0,0:0:0:0:
100,218,16634,1,8,0:0:0:0:
291,271,16723,1,0,0:0:0:0:
289,279,16811,1,0,0:0:0:0:
291,271,16899,1,0,0:0:0:0:
248,200,16987,1,8,0:0:0:0:
291,271,17075,1,0,0:0:0:0:
291,271,17164,1,0,0:0:0:0:
291,271,17252,1,0,0:0:0:0:
192,235,17340,1,8,0:0:0:0:
150,262,17428,1,8,0:0:0:0:
237,258,17517,1,0,0:0:0:0:
237,258,17605,1,0,0:0:0:0:
241,251,17693,1,8,0:0:0:0:
270,308,17781,1,0,0:0:0:0:
271,308,17870,1,0,0:0:0:0:
271,309,17958,1,0,0:0:0:0:
181,259,18046,1,8,0:0:0:0:
336,288,18134,1,8,0:0:0:0:
336,288,18223,1,0,0:0:0:0:
336,288,18311,1,0,0:0:0:0:
266,268,18399,1,8,0:0:0:0:
196,255,18487,1,0,0:0:0:0:
196,256,18575,1,0,0:0:0:0:
186,300,18664,1,0,0:0:0:0:
257,266,18752,1,8,0:0:0:0:
188,295,18840,1,8,0:0:0:0:
186,300,18928,1,0,0:0:0:0:
217,303,19017,1,0,0:0:0:0:
257,266,19105,1,8,0:0:0:0:
243,233,19193,1,0,0:0:0:0:
243,238,19281,1,0,0:0:0:0:
243,239,19370,1,0,0:0:0:0:
257,266,19458,1,8,0:0:0:0:
236,255,19546,1,8,0:0:0:0:
230,264,19634,1,0,0:0:0:0:
231,267,19723,1,0,0:0:0:0:
257,266,19811,1,8,0:0:0:0:
241,279,19899,1,0,0:0:0:0:
241,279,19987,1,8,0:0:0:0:
257,266,20164,1,8,0:0:0:0:
399,295,20340,1,4,0:0:0:0:
257,266,20517,1,8,0:0:0:0:
487,296,20605,1,0,0:0:0:0:
487,296,20693,1,8,0:0:0:0:
487,296,20781,1,0,0:0:0:0:
257,266,20870,1,8,0:0:0:0:
314,204,20958,1,0,0:0:0:0:
377,238,21046,1,8,0:0:0:0:
377,238,21134,1,8,0:0:0:0:
257,266,21223,1,8,0:0:0:0:
326,278,21311,1,0,0:0:0:0:
326,278,21399,1,0,0:0:0:0:
326,278,21487,1,0,0:0:0:0:
257,266,21575,1,8,0:0:0:0:
211,189,21664,1,0,0:0:0:0:
211,189,21752,1,0,0:0:0:0:
211,189,21840,1,0,0:0:0:0:
257,266,21928,1,8,0:0:0:0:
329,184,22017,1,0,0:0:0:0:
329,184,22105,1,8,0:0:0:0:
441,213,22193,1,0,0:0:0:0:
257,266,22281,1,8,0:0:0:0:
174,249,22370,1,0,0:0:0:0:
174,249,22458,1,8,0:0:0:0:
388,275,22546,1,8,0:0:0:0:
257,266,22634,1,8,0:0:0:0:
388,275,22723,1,0,0:0:0:0:
388,275,22811,1,0,0:0:0:0:
388,275,22899,1,0,0:0:0:0:
257,266,22987,1,8,0:0:0:0:
425,276,23075,1,0,0:0:0:0:
444,311,23164,1,0,0:0:0:0:
444,311,23223,1,0,0:0:0:0:
222,153,23281,1,0,0:0:0:0:
257,266,23340,1,8,0:0:0:0:
320,326,23428,1,0,0:0:0:0:
320,326,23517,1,0,0:0:0:0:
320,326,23605,1,0,0:0:0:0:
257,266,23693,1,8,0:0:0:0:
320,326,23781,1,0,0:0:0:0:
320,326,23870,1,0,0:0:0:0:
160,262,23928,1,0,0:0:0:0:
320,326,23987,1,0,0:0:0:0:
257,266,24046,1,8,0:0:0:0:
320,326,24134,1,0,0:0:0:0:
320,326,24223,1,0,0:0:0:0:
320,326,24311,1,0,0:0:0:0:
257,266,24399,1,8,0:0:0:0:
339,233,24487,1,0,0:0:0:0:
339,233,24575,1,0,0:0:0:0:
353,259,24634,1,0,0:0:0:0:
219,147,24693,1,0,0:0:0:0:
257,266,24752,1,8,0:0:0:0:
408,312,24840,1,0,0:0:0:0:
401,308,24928,1,0,0:0:0:0:
137,238,24987,1,0,0:0:0:0:
401,306,25046,1,0,0:0:0:0:
257,266,25105,1,8,0:0:0:0:
401,306,25164,1,0,0:0:0:0:
415,157,25223,1,0,0:0:0:0:
401,306,25281,1,8,0:0:0:0:
324,212,25340,1,0,0:0:0:0:
401,305,25399,1,0,0:0:0:0:
257,266,25458,1,8,0:0:0:0:
332,205,25517,1,0,0:0:0:0:
401,305,25575,1,0,0:0:0:0:
401,305,25634,1,8,0:0:0:0:
331,207,25693,1,0,0:0:0:0:
403,308,25752,1,0,0:0:0:0:
257,266,25811,1,8,0:0:0:0:
330,198,25870,1,0,0:0:0:0:
330,198,25928,1,0,0:0:0:0:
273,209,25987,1,4,0:0:0:0:
257,266,26164,1,8,0:0:0:0:
178,182,26340,1,0,0:0:0:0:
178,195,26428,1,0,0:0:0:0:
257,266,26517,1,8,0:0:0:0:
347,298,26605,1,0,0:0:0:0:
341,304,26693,1,8,0:0:0:0:
425,248,26781,1,8,0:0:0:0:
453,246,26870,1,8,0:0:0:0:
443,311,26958,1,0,0:0:0:0:
443,311,27046,1,0,0:0:0:0:
347,239,27134,1,0,0:0:0:0:
257,266,27223,1,8,0:0:0:0:
317,217,27311,1,0,0:0:0:0:
317,218,27399,1,0,0:0:0:0:
317,218,27487,1,0,0:0:0:0:
257,266,27575,1,8,0:0:0:0:
199,266,27664,1,0,0:0:0:0:
199,266,27752,1,0,0:0:0:0:
199,266,27840,1,0,0:0:0:0:
257,266,27928,1,8,0:0:0:0:
201,269,28017,1,0,0:0:0:0:
201,269,28105,1,8,0:0:0:0:
264,245,28193,1,0,0:0:0:0:
257,266,28281,1,8,0:0:0:0:
342,273,28370,1,8,0:0:0:0:
342,273,28458,1,8,0:0:0:0:
342,273,28546,1,0,0:0:0:0:
257,266,28634,1,8,0:0:0:0:
342,273,28723,1,0,0:0:0:0:
342,273,28811,1,0,0:0:0:0:
342,273,28899,1,0,0:0:0:0:
257,266,28987,1,8,0:0:0:0:
163,257,29075,1,0,0:0:0:0:
163,257,29164,1,0,0:0:0:0:
163,257,29252,1,0,0:0:0:0:
257,266,29340,1,8,0:0:0:0:
178,268,29428,1,0,0:0:0:0:
178,269,29517,1,0,0:0:0:0:
247,286,29605,1,0,0:0:0:0:
257,266,29693,1,8,0:0:0:0:
286,273,29781,1,8,0:0:0:0:
286,273,29870,1,8,0:0:0:0:
332,258,29958,1,0,0:0:0:0:
257,266,30046,1,8,0:0:0:0:
316,196,30134,1,0,0:0:0:0:
419,212,30223,1,0,0:0:0:0:
299,171,30311,1,0,0:0:0:0:
257,266,30399,1,8,0:0:0:0:
392,235,30487,1,0,0:0:0:0:
392,235,30575,1,0,0:0:0:0:
392,235,30664,1,0,0:0:0:0:
257,266,30752,1,8,0:0:0:0:
341,231,30840,1,0,0:0:0:0:
341,231,30928,1,0,0:0:0:0:
341,231,31017,1,0,0:0:0:0:
257,266,31105,1,8,0:0:0:0:
362,214,31193,1,8,0:0:0:0:
362,214,31281,1,8,0:0:0:0:
362,214,31370,1,0,0:0:0:0:
257,266,31458,1,8,0:0:0:0:
201,160,31634,1,4,0:0:0:0:
257,266,31811,1,8,0:0:0:0:
264,202,31899,1,8,0:0:0:0:
428,284,31987,1,0,0:0:0:0:
428,284,32075,1,0,0:0:0:0:
257,266,32164,1,8,0:0:0:0:
317,309,32252,1,0,0:0:0:0:
317,309,32340,1,0,0:0:0:0:
317,309,32428,1,0,0:0:0:0:
257,266,32517,1,8,0:0:0:0:
305,282,32605,1,8,0:0:0:0:
282,291,32693,1,0,0:0:0:0:
282,291,32781,1,0,0:0:0:0:
257,266,32870,1,8,0:0:0:0:
303,201,32958,1,0,0:0:0:0:
303,206,33046,1,0,0:0:0:0:
303,208,33134,1,0,0:0:0:0:
257,266,33223,1,8,0:0:0:0:
301,209,33311,1,8,0:0:0:0:
301,210,33399,1,0,0:0:0:0:
279,218,33487,1,0,0:0:0:0:
257,266,33575,1,8,0:0:0:0:
261,231,33664,1,0,0:0:0:0:
260,232,33752,1,0,0:0:0:0:
260,232,33840,1,0,0:0:0:0:
257,266,33928,1,8,0:0:0:0:
260,232,34017,1,8,0:0:0:0:
260,232,34105,1,8,0:0:0:0:
260,232,34193,1,0,0:0:0:0:
257,266,34281,1,8,0:0:0:0:
206,238,34370,1,0,0:0:0:0:
206,238,34458,1,0,0:0:0:0:
206,238,34517,1,0,0:0:0:0:
172,124,34575,1,0,0:0:0:0:
257,266,34634,1,8,0:0:0:0:
395,195,34723,1,8,0:0:0:0:
394,204,34811,1,0,0:0:0:0:
392,217,34899,1,0,0:0:0:0:
257,266,34987,1,8,0:0:0:0:
329,275,35075,1,0,0:0:0:0:
329,275,35164,1,0,0:0:0:0:
329,275,35223,1,0,0:0:0:0:
291,155,35281,1,0,0:0:0:0:
257,266,35340,1,8,0:0:0:0:
357,218,35428,1,8,0:0:0:0:
276,233,35517,1,0,0:0:0:0:
277,235,35605,1,0,0:0:0:0:
257,266,35693,1,8,0:0:0:0:
477,326,35781,1,0,0:0:0:0:
429,319,35870,1,0,0:0:0:0:
474,267,35928,1,0,0:0:0:0:
470,271,35987,1,0,0:0:0:0:
257,266,36046,1,8,0:0:0:0:
404,317,36105,1,8,0:0:0:0:
404,317,36164,1,8,0:0:0:0:
404,317,36223,1,0,0:0:0:0:
449,175,36311,1,0,0:0:0:0:
257,266,36399,1,8,0:0:0:0:
314,268,36487,1,0,0:0:0:0:
313,270,36575,1,0,0:0:0:0:
406,256,36634,1,0,0:0:0:0:
406,256,36693,1,0,0:0:0:0:
257,266,36752,1,8,0:0:0:0:
328,285,36811,1,8,0:0:0:0:
328,286,36870,1,8,0:0:0:0:
328,286,36928,1,0,0:0:0:0:
419,155,37017,1,0,0:0:0:0:
257,266,37105,1,8,0:0:0:0:
257,248,37281,1,4,0:0:0:0:
165,248,37458,1,8,0:0:0:0:
212,299,37634,1,0,0:0:0:0:
256,218,37723,1,8,0:0:0:0:
114,199,37811,1,8,0:0:0:0:
357,164,37899,1,0,0:0:0:0:
183,157,37987,1,0,0:0:0:0:
210,149,38164,1,8,0:0:0:0:
261,181,38340,1,0,0:0:0:0:
281,256,38428,1,8,0:0:0:0:
281,256,38517,1,8,0:0:0:0:
280,258,38605,1,0,0:0:0:0:
280,258,38693,1,0,0:0:0:0:
350,265,38870,1,8,0:0:0:0:
316,270,39046,1,0,0:0:0:0:
316,270,39134,1,8,0:0:0:0:
316,270,39223,1,8,0:0:0:0:
304,271,39311,1,0,0:0:0:0:
304,271,39399,1,8,0:0:0:0:
170,247,39487,1,0,0:0:0:0:
170,247,39575,1,8,0:0:0:0:
170,247,39664,1,8,0:0:0:0:
323,134,39752,1,0,0:0:0:0:
170,247,39840,1,0,0:0:0:0:
229,208,39928,1,8,0:0:0:0:
229,208,40017,1,8,0:0:0:0:
226,212,40105,1,0,0:0:0:0:
265,271,40281,1,8,0:0:0:0:
386,289,40458,1,0,0:0:0:0:
386,289,40546,1,8,0:0:0:0:
386,289,40634,1,8,0:0:0:0:
386,289,40723,1,0,0:0:0:0:
386,289,40811,1,0,0:0:0:0:
301,288,40987,1,8,0:0:0:0:
301,288,41164,1,0,0:0:0:0:
322,289,41252,1,8,0:0:0:0:
339,295,41340,1,8,0:0:0:0:
337,297,41428,1,0,0:0:0:0:
263,288,41517,1,0,0:0:0:0:
246,226,41693,1,8,0:0:0:0:
243,233,41870,1,0,0:0:0:0:
242,237,41958,1,0,0:0:0:0:
241,238,42046,1,8,0:0:0:0:
241,240,42134,1,0,0:0:0:0:
252,280,42223,1,8,0:0:0:0:
252,280,42311,1,8,0:0:0:0:
294,275,42399,1,0,0:0:0:0:
235,271,42487,1,8,0:0:0:0:
259,276,42575,1,0,0:0:0:0:
232,269,42664,1,0,0:0:0:0:
232,269,42752,1,8,0:0:0:0:
232,269,42840,1,0,0:0:0:0:
232,269,42928,1,4,0:0:0:0:
321,193,43105,1,8,0:0:0:0:
321,193,43281,1,0,0:0:0:0:
274,217,43370,1,8,0:0:0:0:
274,217,43458,1,8,0:0:0:0:
274,217,43546,1,0,0:0:0:0:
274,217,43634,1,0,0:0:0:0:
217,209,43811,1,8,0:0:0:0:
304,237,43987,1,0,0:0:0:0:
304,237,44075,1,8,0:0:0:0:
304,237,44164,1,8,0:0:0:0:
301,243,44252,1,0,0:0:0:0:
301,243,44340,1,0,0:0:0:0:
386,243,44517,1,8,0:0:0:0:
360,255,44693,1,0,0:0:0:0:
360,255,44781,1,8,0:0:0:0:
360,255,44870,1,8,0:0:0:0:
259,258,44958,1,0,0:0:0:0:
259,258,45046,1,8,0:0:0:0:
283,278,45134,1,0,0:0:0:0:
283,278,45223,1,0,0:0:0:0:
203,233,45311,1,8,0:0:0:0:
283,278,45399,1,0,0:0:0:0:
283,278,45487,1,0,0:0:0:0:
329,266,45575,1,8,0:0:0:0:
283,278,45664,1,0,0:0:0:0:
283,278,45752,1,0,0:0:0:0:
370,200,45840,1,0,0:0:0:0:
350,266,45928,1,8,0:0:0:0:
288,246,46017,1,0,0:0:0:0:
348,206,46105,1,0,0:0:0:0:
288,246,46193,1,0,0:0:0:0:
297,268,46281,1,8,0:0:0:0:
204,223,46370,1,0,0:0:0:0:
210,233,46458,1,0,0:0:0:0:
211,233,46546,1,0,0:0:0:0:
137,183,46634,1,8,0:0:0:0:
212,233,46723,1,0,0:0:0:0:
212,233,46811,1,0,0:0:0:0:
212,233,46899,1,0,0:0:0:0:
217,249,46987,1,8,0:0:0:0:
412,81,47075,1,0,0:0:0:0:
444,191,47164,1,0,0:0:0:0:
439,199,47223,1,0,0:0:0:0:
437,200,47281,1,8,0:0:0:0:
223,281,47340,1,8,0:0:0:0:
384,303,47399,1,0,0:0:0:0:
384,303,47458,1,0,0:0:0:0:
384,303,47517,1,8,0:0:0:0:
295,193,47575,1,0,0:0:0:0:
295,193,47634,1,0,0:0:0:0:
264,288,47693,1,8,0:0:0:0:
290,197,47752,1,0,0:0:0:0:
289,199,47811,1,0,0:0:0:0:
289,199,47870,1,8,0:0:0:0:
314,257,47958,1,4,0:0:0:0:
309,262,48046,1,4,0:0:0:0:
314,292,48134,1,12,0:0:0:0:
314,292,48223,1,12,0:0:0:0:
195,222,48311,1,4,0:0:0:0:
194,225,48399,1,4,0:0:0:0:
194,228,48487,1,12,0:0:0:0:
193,230,48575,1,12,0:0:0:0:
354,216,48752,1,8,0:0:0:0:
354,216,48840,1,0,0:0:0:0:
353,221,48928,1,0,0:0:0:0:
353,221,49017,1,0,0:0:0:0:
353,221,49105,1,8,0:0:0:0:
246,234,49193,1,0,0:0:0:0:
248,225,49281,1,8,0:0:0:0:
248,230,49370,1,8,0:0:0:0:
278,246,49458,1,8,0:0:0:0:
233,242,49546,1,0,0:0:0:0:
275,260,49634,1,0,0:0:0:0:
274,261,49723,1,0,0:0:0:0:
274,261,49811,1,8,0:0:0:0:
327,266,49899,1,8,0:0:0:0:
267,206,49987,1,0,0:0:0:0:
267,206,50075,1,0,0:0:0:0:
266,208,50164,1,8,0:0:0:0:
266,208,50252,1,0,0:0:0:0:
266,212,50340,1,0,0:0:0:0:
266,212,50428,1,0,0:0:0:0:
266,212,50517,1,8,0:0:0:0:
266,212,50605,1,0,0:0:0:0:
266,212,50693,1,8,0:0:0:0:
266,212,50781,1,8,0:0:0:0:
266,212,50870,1,8,0:0:0:0:
266,212,50958,1,0,0:0:0:0:
266,212,51046,1,8,0:0:0:0:
266,212,51134,1,0,0:0:0:0:
266,212,51223,1,0,0:0:0:0:
266,212,51311,1,0,0:0:0:0:
265,212,51399,1,8,0:0:0:0:
384,176,51487,1,0,0:0:0:0:
223,157,51575,1,0,0:0:0:0:
297,240,51664,1,8,0:0:0:0:
223,157,51752,1,8,0:0:0:0:
292,250,51840,1,0,0:0:0:0:
292,250,51928,1,8,0:0:0:0:
295,246,52017,1,0,0:0:0:0:
352,282,52105,1,0,0:0:0:0:
352,282,52193,1,0,0:0:0:0:
352,282,52281,1,8,0:0:0:0:
273,260,52370,1,8,0:0:0:0:
273,263,52458,1,8,0:0:0:0:
248,293,52546,1,0,0:0:0:0:
248,293,52634,1,8,0:0:0:0:
396,261,52723,1,0,0:0:0:0:
306,181,52811,1,8,0:0:0:0:
408,249,52899,1,0,0:0:0:0:
403,260,52987,1,8,0:0:0:0:
243,297,53075,1,0,0:0:0:0:
243,297,53164,1,0,0:0:0:0:
230,220,53252,1,0,0:0:0:0:
230,220,53340,1,8,0:0:0:0:
223,225,53428,1,0,0:0:0:0:
208,234,53517,1,8,0:0:0:0:
206,238,53605,1,8,0:0:0:0:
206,238,53693,1,8,0:0:0:0:
206,239,53781,1,0,0:0:0:0:
206,237,53870,1,0,0:0:0:0:
206,239,53958,1,0,0:0:0:0:
208,236,54046,1,8,0:0:0:0:
206,239,54134,1,0,0:0:0:0:
206,239,54223,1,4,0:0:0:0:
354,209,54399,1,8,0:0:0:0:
323,231,54575,1,0,0:0:0:0:
205,155,54664,1,8,0:0:0:0:
361,302,54752,1,8,0:0:0:0:
149,189,54840,1,0,0:0:0:0:
166,282,54928,1,0,0:0:0:0:
361,302,55105,1,8,0:0:0:0:
236,233,55281,1,0,0:0:0:0:
302,264,55370,1,8,0:0:0:0:
255,272,55458,1,8,0:0:0:0:
319,180,55546,1,0,0:0:0:0:
292,274,55634,1,0,0:0:0:0:
288,284,55811,1,8,0:0:0:0:
234,288,55987,1,0,0:0:0:0:
277,213,56075,1,8,0:0:0:0:
285,290,56164,1,8,0:0:0:0:
277,213,56252,1,0,0:0:0:0:
348,328,56340,1,0,0:0:0:0:
348,328,56517,1,8,0:0:0:0:
348,328,56693,1,0,0:0:0:0:
190,204,56781,1,8,0:0:0:0:
285,320,56870,1,12,0:0:0:0:
189,209,56958,1,8,0:0:0:0:
285,320,57046,1,4,0:0:0:0:
396,247,57134,1,0,0:0:0:0:
437,275,57223,1,8,0:0:0:0:
437,275,57281,1,8,0:0:0:0:
437,275,57340,1,0,0:0:0:0:
335,248,57399,1,0,0:0:0:0:
361,206,57487,1,0,0:0:0:0:
361,206,57575,1,8,0:0:0:0:
361,211,57634,1,8,0:0:0:0:
361,211,57693,1,0,0:0:0:0:
203,263,57752,1,0,0:0:0:0:
361,211,57840,1,0,0:0:0:0:
361,211,57928,1,8,0:0:0:0:
361,211,57987,1,8,0:0:0:0:
361,211,58046,1,0,0:0:0:0:
361,211,58105,1,0,0:0:0:0:
361,211,58193,1,0,0:0:0:0:
361,211,58281,1,8,0:0:0:0:
265,153,58340,1,8,0:0:0:0:
265,153,58399,1,0,0:0:0:0:
271,242,58458,1,4,0:0:0:0:
256,256,58546,1,0,0:0:0:0:
437,275,58634,1,8,0:0:0:0:
437,275,58693,1,8,0:0:0:0:
437,275,58752,1,0,0:0:0:0:
335,248,58811,1,0,0:0:0:0:
361,206,58899,1,0,0:0:0:0:
361,206,58987,1,8,0:0:0:0:
361,211,59046,1,8,0:0:0:0:
361,211,59105,1,0,0:0:0:0:
203,263,59164,1,0,0:0:0:0:
361,211,59252,1,0,0:0:0:0:
361,211,59340,1,8,0:0:0:0:
361,211,59399,1,8,0:0:0:0:
361,211,59458,1,0,0:0:0:0:
361,211,59517,1,0,0:0:0:0:
361,211,59605,1,0,0:0:0:0:
361,211,59693,1,8,0:0:0:0:
265,153,59752,1,8,0:0:0:0:
265,153,59811,1,0,0:0:0:0:
271,242,59870,1,0,0:0:0:0:
313,157,59928,1,0,0:0:0:0:
313,157,59987,1,0,0:0:0:0:
198,175,60046,1,8,0:0:0:0:
313,157,60105,1,8,0:0:0:0:
313,157,60164,1,8,0:0:0:0:
313,157,60223,1,0,0:0:0:0:
306,164,60281,1,0,0:0:0:0:
301,169,60340,1,0,0:0:0:0:
370,293,60399,1,8,0:0:0:0:
271,197,60458,1,8,0:0:0:0:
271,197,60517,1,8,0:0:0:0:
271,197,60575,1,4,0:0:0:0:
271,197,60634,1,0,0:0:0:0:
258,216,60693,1,0,0:0:0:0:
254,221,60752,1,8,0:0:0:0:
254,221,60811,1,8,0:0:0:0:
254,221,60870,1,8,0:0:0:0:
254,221,60928,1,0,0:0:0:0:
231,233,60987,1,0,0:0:0:0:
231,233,61046,1,0,0:0:0:0:
237,283,61105,1,8,0:0:0:0:
169,238,61164,1,8,0:0:0:0:
169,238,61223,1,8,0:0:0:0:
230,118,61370,1,4,0:0:0:0:
363,273,61546,1,4,0:0:0:0:
361,275,61634,1,4,0:0:0:0:
317,296,61811,1,4,0:0:0:0:
305,297,61899,1,4,0:0:0:0:
264,297,62075,1,4,0:0:0:0:
256,293,62164,1,4,0:0:0:0:
188,309,62340,1,12,0:0:0:0:
363,225,62693,1,0,0:0:0:0:
204,124,62781,1,0,0:0:0:0:
305,182,62870,1,8,0:0:0:0:
203,142,62958,1,8,0:0:0:0:
190,205,63046,1,0,0:0:0:0:
241,253,63134,1,0,0:0:0:0:
259,243,63223,1,8,0:0:0:0:
270,233,63311,1,0,0:0:0:0:
208,260,63399,1,0,0:0:0:0:
267,237,63487,1,0,0:0:0:0:
274,282,63575,1,8,0:0:0:0:
265,239,63664,1,8,0:0:0:0:
251,195,63752,1,0,0:0:0:0:
259,243,63840,1,0,0:0:0:0:
249,281,63928,1,8,0:0:0:0:
257,245,64017,1,0,0:0:0:0:
257,245,64105,1,0,0:0:0:0:
257,245,64193,1,0,0:0:0:0:
210,289,64281,1,8,0:0:0:0:
257,245,64370,1,8,0:0:0:0:
294,292,64458,1,0,0:0:0:0:
257,245,64546,1,0,0:0:0:0:
240,295,64634,1,8,0:0:0:0:
257,245,64723,1,0,0:0:0:0:
205,291,64811,1,0,0:0:0:0:
259,243,64899,1,0,0:0:0:0:
245,293,64987,1,8,0:0:0:0:
288,198,65075,1,8,0:0:0:0:
384,271,65164,1,8,0:0:0:0:
177,226,65252,1,0,0:0:0:0:
203,206,65340,1,8,0:0:0:0:
293,280,65428,1,0,0:0:0:0:
226,289,65517,1,0,0:0:0:0:
285,282,65605,1,0,0:0:0:0:
235,248,65693,1,8,0:0:0:0:
285,282,65781,1,8,0:0:0:0:
196,271,65870,1,0,0:0:0:0:
285,282,65958,1,0,0:0:0:0:
357,245,66046,1,8,0:0:0:0:
285,282,66134,1,0,0:0:0:0:
303,265,66223,1,0,0:0:0:0:
285,282,66311,1,0,0:0:0:0:
285,282,66399,1,8,0:0:0:0:
285,282,66487,1,8,0:0:0:0:
221,304,66575,1,0,0:0:0:0:
285,282,66664,1,0,0:0:0:0:
286,308,66752,1,8,0:0:0:0:
286,202,66840,1,0,0:0:0:0:
175,300,66928,1,0,0:0:0:0:
217,216,67017,1,0,0:0:0:0:
227,304,67105,1,8,0:0:0:0:
286,202,67193,1,8,0:0:0:0:
226,305,67281,1,0,0:0:0:0:
215,228,67370,1,0,0:0:0:0:
155,286,67458,1,8,0:0:0:0:
286,202,67546,1,0,0:0:0:0:
188,300,67634,1,0,0:0:0:0:
215,228,67723,1,0,0:0:0:0:
252,308,67811,1,8,0:0:0:0:
286,253,67899,1,8,0:0:0:0:
248,310,67987,1,8,0:0:0:0:
238,175,68075,1,0,0:0:0:0:
265,179,68164,1,8,0:0:0:0:
238,175,68252,1,0,0:0:0:0:
398,243,68340,1,0,0:0:0:0:
210,186,68428,1,0,0:0:0:0:
282,267,68517,1,8,0:0:0:0:
210,186,68605,1,8,0:0:0:0:
225,262,68693,1,0,0:0:0:0:
203,190,68781,1,0,0:0:0:0:
225,262,68870,1,8,0:0:0:0:
203,190,68958,1,0,0:0:0:0:
164,262,69046,1,0,0:0:0:0:
203,190,69134,1,0,0:0:0:0:
203,190,69223,1,8,0:0:0:0:
203,190,69311,1,8,0:0:0:0:
228,270,69399,1,0,0:0:0:0:
319,276,69487,1,0,0:0:0:0:
225,262,69575,1,8,0:0:0:0:
291,271,69664,1,0,0:0:0:0:
220,266,69752,1,0,0:0:0:0:
278,271,69840,1,0,0:0:0:0:
222,274,69928,1,8,0:0:0:0:
277,271,70017,1,8,0:0:0:0:
144,249,70105,1,0,0:0:0:0:
272,268,70193,1,0,0:0:0:0:
221,277,70281,1,8,0:0:0:0:
268,268,70370,1,0,0:0:0:0:
130,149,70458,1,0,0:0:0:0:
268,268,70546,1,0,0:0:0:0:
311,267,70634,1,8,0:0:0:0:
203,191,70723,1,8,0:0:0:0:
203,191,70811,1,8,0:0:0:0:
288,224,70899,1,0,0:0:0:0:
203,191,70987,1,8,0:0:0:0:
328,277,71075,1,8,0:0:0:0:
203,191,71164,1,0,0:0:0:0:
310,137,71252,1,0,0:0:0:0:
344,288,71340,1,8,0:0:0:0:
454,177,71399,1,0,0:0:0:0:
443,182,71458,1,0,0:0:0:0:
435,186,71517,1,8,0:0:0:0:
428,304,71605,1,0,0:0:0:0:
428,304,71693,1,8,0:0:0:0:
380,304,71781,1,0,0:0:0:0:
372,304,71870,1,0,0:0:0:0:
372,304,71958,1,0,0:0:0:0:
355,280,72046,1,8,0:0:0:0:
374,278,72105,1,0,0:0:0:0:
374,278,72164,1,0,0:0:0:0:
374,278,72223,1,8,0:0:0:0:
394,151,72311,1,0,0:0:0:0:
322,222,72399,1,8,0:0:0:0:
423,127,72458,1,0,0:0:0:0:
417,142,72517,1,0,0:0:0:0:
417,143,72575,1,0,0:0:0:0:
288,235,72664,1,0,0:0:0:0:
243,182,72752,1,8,0:0:0:0:
241,188,72811,1,0,0:0:0:0:
237,195,72870,1,0,0:0:0:0:
219,241,72928,1,8,0:0:0:0:
243,200,73017,1,0,0:0:0:0:
292,292,73105,1,8,0:0:0:0:
286,296,73164,1,0,0:0:0:0:
286,297,73223,1,0,0:0:0:0:
285,297,73281,1,8,0:0:0:0:
259,185,73370,1,8,0:0:0:0:
354,202,73458,1,0,0:0:0:0:
347,216,73517,1,0,0:0:0:0:
339,225,73575,1,0,0:0:0:0:
337,228,73634,1,8,0:0:0:0:
259,184,73723,1,0,0:0:0:0:
359,280,73811,1,8,0:0:0:0:
356,283,73987,1,4,0:0:0:0:
392,275,74164,1,8,0:0:0:0:
392,275,74252,1,8,0:0:0:0:
210,269,74340,1,0,0:0:0:0:
210,269,74428,1,0,0:0:0:0:
301,299,74517,1,8,0:0:0:0:
215,306,74605,1,0,0:0:0:0:
215,306,74693,1,0,0:0:0:0:
344,270,74781,1,0,0:0:0:0:
240,271,74870,1,8,0:0:0:0:
327,280,74958,1,0,0:0:0:0:
313,287,75046,1,0,0:0:0:0:
313,287,75134,1,0,0:0:0:0:
243,279,75223,1,8,0:0:0:0:
261,214,75311,1,8,0:0:0:0:
261,214,75399,1,8,0:0:0:0:
280,263,75487,1,0,0:0:0:0:
276,182,75575,1,8,0:0:0:0:
409,215,75664,1,0,0:0:0:0:
239,195,75752,1,8,0:0:0:0:
359,223,75840,1,0,0:0:0:0:
327,212,75928,1,8,0:0:0:0:
302,177,76017,1,0,0:0:0:0:
374,283,76105,1,8,0:0:0:0:
314,244,76193,1,0,0:0:0:0:
366,280,76281,1,8,0:0:0:0:
316,313,76370,1,0,0:0:0:0:
357,277,76458,1,8,0:0:0:0:
316,313,76546,1,0,0:0:0:0:
329,251,76634,1,8,0:0:0:0:
370,164,76723,1,0,0:0:0:0:
206,182,76811,1,8,0:0:0:0:
191,280,76899,1,0,0:0:0:0:
191,280,76987,1,0,0:0:0:0:
330,315,77075,1,8,0:0:0:0:
205,242,77164,1,0,0:0:0:0:
205,250,77252,1,0,0:0:0:0:
316,313,77340,1,8,0:0:0:0:
320,238,77428,1,0,0:0:0:0:
294,306,77517,1,8,0:0:0:0:
292,248,77605,1,0,0:0:0:0:
289,253,77693,1,8,0:0:0:0:
271,256,77781,1,0,0:0:0:0:
270,257,77870,1,8,0:0:0:0:
270,257,77958,1,8,0:0:0:0:
330,279,78046,1,0,0:0:0:0:
330,279,78134,1,0,0:0:0:0:
330,279,78223,1,8,0:0:0:0:
237,184,78311,1,0,0:0:0:0:
356,273,78399,1,8,0:0:0:0:
382,286,78487,1,8,0:0:0:0:
228,248,78575,1,0,0:0:0:0:
227,249,78664,1,0,0:0:0:0:
223,241,78752,1,8,0:0:0:0:
196,265,78840,1,0,0:0:0:0:
196,266,78928,1,8,0:0:0:0:
194,295,79017,1,0,0:0:0:0:
195,291,79105,1,8,0:0:0:0:
194,295,79193,1,0,0:0:0:0:
257,183,79281,1,0,0:0:0:0:
257,188,79370,1,0,0:0:0:0:
257,188,79458,1,8,0:0:0:0:
359,249,79546,1,0,0:0:0:0:
339,297,79634,1,4,0:0:0:0:
341,270,79811,1,8,0:0:0:0:
339,273,79899,1,8,0:0:0:0:
339,273,79987,1,0,0:0:0:0:
281,282,80075,1,0,0:0:0:0:
281,282,80164,1,8,0:0:0:0:
326,189,80252,1,0,0:0:0:0:
435,286,80340,1,8,0:0:0:0:
310,309,80428,1,0,0:0:0:0:
410,302,80517,1,8,0:0:0:0:
382,306,80605,1,8,0:0:0:0:
376,307,80693,1,0,0:0:0:0:
376,307,80781,1,0,0:0:0:0:
376,307,80870,1,8,0:0:0:0:
310,309,80958,1,0,0:0:0:0:
376,307,81046,1,8,0:0:0:0:
237,226,81134,1,0,0:0:0:0:
269,205,81223,1,8,0:0:0:0:
269,205,81311,1,8,0:0:0:0:
269,205,81399,1,0,0:0:0:0:
269,205,81487,1,0,0:0:0:0:
269,205,81575,1,8,0:0:0:0:
274,277,81664,1,0,0:0:0:0:
269,205,81752,1,8,0:0:0:0:
257,253,81840,1,0,0:0:0:0:
256,258,81928,1,8,0:0:0:0:
256,258,82017,1,8,0:0:0:0:
404,178,82105,1,0,0:0:0:0:
254,262,82164,1,0,0:0:0:0:
405,206,82223,1,0,0:0:0:0:
254,264,82281,1,8,0:0:0:0:
353,273,82370,1,0,0:0:0:0:
346,278,82458,1,8,0:0:0:0:
206,222,82546,1,0,0:0:0:0:
195,237,82634,1,8,0:0:0:0:
341,288,82723,1,0,0:0:0:0:
315,302,82811,1,8,0:0:0:0:
339,288,82870,1,8,0:0:0:0:
286,146,82928,1,0,0:0:0:0:
357,295,82987,1,0,0:0:0:0:
356,295,83075,1,0,0:0:0:0:
339,288,83164,1,8,0:0:0:0:
339,288,83223,1,0,0:0:0:0:
100,146,83281,1,0,0:0:0:0:
292,199,83340,1,8,0:0:0:0:
339,288,83428,1,0,0:0:0:0:
292,199,83517,1,8,0:0:0:0:
188,262,83575,1,8,0:0:0:0:
294,260,83634,1,0,0:0:0:0:
346,285,83693,1,0,0:0:0:0:
346,285,83781,1,0,0:0:0:0:
188,262,83870,1,8,0:0:0:0:
430,235,83928,1,0,0:0:0:0:
423,244,83987,1,0,0:0:0:0:
317,247,84046,1,8,0:0:0:0:
416,251,84105,1,0,0:0:0:0:
416,251,84164,1,0,0:0:0:0:
298,278,84223,1,8,0:0:0:0:
387,269,84281,1,0,0:0:0:0:
387,269,84340,1,0,0:0:0:0:
289,296,84399,1,8,0:0:0:0:
387,269,84458,1,0,0:0:0:0:
343,282,84517,1,0,0:0:0:0:
286,297,84575,1,8,0:0:0:0:
310,284,84634,1,0,0:0:0:0:
310,284,84693,1,0,0:0:0:0:
216,233,84752,1,8,0:0:0:0:
281,278,84811,1,0,0:0:0:0:
255,281,84870,1,0,0:0:0:0:
216,282,84928,1,8,0:0:0:0:
233,280,84987,1,0,0:0:0:0:
233,280,85046,1,0,0:0:0:0:
271,303,85105,1,8,0:0:0:0:
197,280,85164,1,0,0:0:0:0:
181,278,85223,1,0,0:0:0:0:
272,304,85281,1,8,0:0:0:0:
302,225,85458,1,0,0:0:0:0:
294,240,85634,1,8,0:0:0:0:
293,248,85811,1,0,0:0:0:0:
177,214,86164,1,0,0:0:0:0:
177,214,86340,1,8,0:0:0:0:
240,188,86517,1,0,0:0:0:0:
317,289,86693,1,8,0:0:0:0:
235,253,86870,1,0,0:0:0:0:
232,257,87046,1,8,0:0:0:0:
241,228,87223,1,8,0:0:0:0:
240,229,87399,1,0,0:0:0:0:
161,264,87575,1,8,0:0:0:0:
148,266,87752,1,0,0:0:0:0:
259,271,87928,1,8,0:0:0:0:
152,267,88105,1,8,0:0:0:0:
263,229,88281,1,0,0:0:0:0:
325,303,88458,1,0,0:0:0:0:
325,303,88634,1,8,0:0:0:0:
261,230,88987,1,0,0:0:0:0:
257,233,89164,1,0,0:0:0:0:
178,262,89340,1,8,0:0:0:0:
171,266,89517,1,8,0:0:0:0:
197,279,89693,1,0,0:0:0:0:
235,293,89870,1,8,0:0:0:0:
248,298,90046,1,0,0:0:0:0:
276,300,90223,1,8,0:0:0:0:
304,304,90399,1,8,0:0:0:0:
304,304,90575,1,0,0:0:0:0:
304,304,90752,1,0,0:0:0:0:
304,304,90928,1,8,0:0:0:0:
304,304,91105,1,0,0:0:0:0:
304,304,91281,1,0,0:0:0:0:
304,304,91458,1,8,0:0:0:0:
304,304,91811,1,8,0:0:0:0:
268,304,91987,1,0,0:0:0:0:
176,293,92164,1,0,0:0:0:0:
188,295,92340,1,8,0:0:0:0:
281,306,92517,1,0,0:0:0:0:
272,283,92693,1,8,0:0:0:0:
250,283,92870,1,8,0:0:0:0:
225,311,93046,1,8,0:0:0:0:
219,323,93223,1,0,0:0:0:0:
207,319,93399,1,8,0:0:0:0:
206,316,93572,1,8,0:0:0:0:
206,314,93759,1,0,0:0:0:0:
231,273,93947,1,0,0:0:0:0:
227,273,94134,1,8,0:0:0:0:
220,276,94322,1,0,0:0:0:0:
218,277,94509,1,0,0:0:0:0:
218,277,94708,1,0,0:0:0:0:
218,277,94915,1,8,0:0:0:0:
126,248,95129,1,0,0:0:0:0:
267,265,95343,1,0,0:0:0:0:
338,197,95577,1,0,0:0:0:0:
341,219,95694,1,8,0:0:0:0:
334,228,95811,1,0,0:0:0:0:
345,304,96069,1,8,0:0:0:0:
350,298,96328,1,8,0:0:0:0:
350,301,96610,1,8,0:0:0:0:
299,250,96751,1,8,0:0:0:0:
299,250,96891,1,0,0:0:0:0:
307,284,97379,1,8,0:0:0:0:
396,255,98262,1,0,0:0:0:0:
396,255,98330,1,0,0:0:0:0:
396,255,98399,1,0,0:0:0:0:
396,255,98468,1,8,0:0:0:0:
395,264,98537,1,8,0:0:0:0:
390,270,98606,1,0,0:0:0:0:
346,284,98675,1,0,0:0:0:0:
448,169,98779,1,0,0:0:0:0:
292,287,98882,1,8,0:0:0:0:
