osu file format v14

[General]
AudioFilename: Super Star MITSURI - Thank You For Playing ~.mp3
AudioLeadIn: 0
PreviewTime: -1
Countdown: 1
SampleSet: None
StackLeniency: 0.7
Mode: 3
LetterboxInBreaks: 1
SpecialStyle: 0
WidescreenStoryboard: 1

[Editor]
DistanceSpacing: 1.1
BeatDivisor: 16
GridSize: 8
TimelineZoom: 2.899999

[Metadata]
Title:Thank You For Playing ~
TitleUnicode:Thank You For Playing ~
Artist:Super Star MITSURU
ArtistUnicode:Super Star MITSURU
Creator:Steins
Version:[Teleport]'s 7K ~ Thank You For Playing ~
Source:BeatmapIIDX
Tags:Steins Xeostyle __M A S__ Eternalie redfire099 [-Seiryuu-] DrawdeX Resuner YunoFanatic TheZiemniax LordRaika ALEFY
BeatmapID:778931
BeatmapSetID:317414

[Difficulty]
HPDrainRate:7
CircleSize:7
OverallDifficulty:8
ApproachRate:5
SliderMultiplier:1.4
SliderTickRate:1

[Events]
//Background and Video events
0,0,"piano-no-mori-9.png",0,0
//Break Periods
//Storyboard Layer 0 (Background)
//Storyboard Layer 1 (Fail)
//Storyboard Layer 2 (Pass)
//Storyboard Layer 3 (Foreground)
//Storyboard Sound Samples

[TimingPoints]
576,352.941176470588,4,2,0,40,1,0

[HitObjects]
36,192,576,5,0,0:0:0:0:
256,192,576,1,0,0:0:0:0:
475,192,576,128,0,752:0:0:0:0:
402,192,752,128,0,928:0:0:0:0:
182,192,928,128,0,1105:0:0:0:0:
256,192,1105,128,0,1458:0:0:0:0:
36,192,1458,128,0,1634:0:0:0:0:
109,192,1634,128,0,1811:0:0:0:0:
182,192,1811,128,0,1987:0:0:0:0:
36,192,1987,128,0,2164:0:0:0:0:
182,192,2164,128,0,2340:0:0:0:0:
475,192,2340,128,0,2517:0:0:0:0:
402,192,2517,128,0,2693:0:0:0:0:
36,192,2693,128,0,3046:0:0:0:0:
256,192,2693,128,0,2870:0:0:0:0:
402,192,2870,128,0,3046:0:0:0:0:
475,192,3046,128,0,3223:0:0:0:0:
182,192,3223,128,0,3399:0:0:0:0:
475,192,3399,128,0,3752:0:0:0:0:
36,192,3399,128,0,3575:0:0:0:0:
329,192,3575,128,0,3752:0:0:0:0:
256,192,3752,128,0,3928:0:0:0:0:
182,192,3928,128,0,4281:0:0:0:0:
36,192,4281,128,0,4458:0:0:0:0:
109,192,4458,128,0,4634:0:0:0:0:
182,192,4634,128,0,4811:0:0:0:0:
329,192,4811,128,0,4987:0:0:0:0:
475,192,4987,128,0,5164:0:0:0:0:
402,192,5164,128,0,5340:0:0:0:0:
475,192,5340,128,0,5517:0:0:0:0:
256,192,5517,128,0,5870:0:0:0:0:
109,192,5517,128,0,5693:0:0:0:0:
402,192,5693,128,0,5870:0:0:0:0:
36,192,5870,128,0,6046:0:0:0:0:
109,192,6046,128,0,6223:0:0:0:0:
182,192,6223,128,0,6399:0:0:0:0:
36,192,6223,128,0,6575:0:0:0:0:
475,192,6399,128,0,6575:0:0:0:0:
402,192,6575,128,0,6752:0:0:0:0:
329,192,6752,128,0,7105:0:0:0:0:
475,192,7105,128,0,7281:0:0:0:0:
182,192,7281,128,0,7458:0:0:0:0:
256,192,7458,128,0,7634:0:0:0:0:
329,192,7634,128,0,7811:0:0:0:0:
36,192,7811,128,0,7987:0:0:0:0:
109,192,7987,128,0,8164:0:0:0:0:
329,192,8164,128,0,8340:0:0:0:0:
475,192,8340,128,0,8517:0:0:0:0:
182,192,8340,128,0,8693:0:0:0:0:
402,192,8517,128,0,8693:0:0:0:0:
475,192,8693,128,0,8870:0:0:0:0:
329,192,8870,128,0,9223:0:0:0:0:
475,192,9046,128,0,9575:0:0:0:0:
182,192,9223,128,0,9399:0:0:0:0:
256,192,9399,128,0,9575:0:0:0:0:
36,192,9575,128,0,9928:0:0:0:0:
329,192,9575,128,0,10105:0:0:0:0:
182,192,9928,128,0,10105:0:0:0:0:
402,192,10105,128,0,10281:0:0:0:0:
36,192,10105,128,0,10458:0:0:0:0:
475,192,10281,128,0,10458:0:0:0:0:
109,192,10458,128,0,10634:0:0:0:0:
329,192,10458,128,0,10811:0:0:0:0:
256,192,10634,128,0,10811:0:0:0:0:
475,192,10811,128,0,10987:0:0:0:0:
402,192,10987,128,0,11164:0:0:0:0:
109,192,10987,1,0,0:0:0:0:
36,192,11075,1,0,0:0:0:0:
475,192,11164,128,0,11340:0:0:0:0:
109,192,11164,1,0,0:0:0:0:
182,192,11340,128,0,11517:0:0:0:0:
256,192,11517,128,0,11693:0:0:0:0:
182,192,11693,128,0,11870:0:0:0:0:
329,192,11693,128,0,11870:0:0:0:0:
36,192,11870,128,0,13281:0:0:0:0:
475,192,11870,128,0,13281:0:0:0:0:
402,192,11914,128,0,13281:0:0:0:0:
109,192,11914,128,0,13281:0:0:0:0:
329,192,11958,128,0,13281:0:0:0:0:
182,192,11958,128,0,13281:0:0:0:0:
256,192,12002,128,0,13193:0:0:0:0:
256,192,13281,128,0,14693:0:0:0:0:
475,192,14693,128,0,16811:0:0:0:0:
36,192,14693,1,0,0:0:0:0:
329,192,14693,1,0,0:0:0:0:
109,192,14870,1,0,0:0:0:0:
402,192,14870,1,0,0:0:0:0:
256,192,15046,1,0,0:0:0:0:
36,192,15046,1,0,0:0:0:0:
109,192,15223,1,0,0:0:0:0:
402,192,15223,1,0,0:0:0:0:
329,192,15399,1,0,0:0:0:0:
256,192,15399,1,0,0:0:0:0:
36,192,15575,1,0,0:0:0:0:
182,192,15575,1,0,0:0:0:0:
402,192,15752,1,0,0:0:0:0:
256,192,15752,1,0,0:0:0:0:
329,192,15928,1,0,0:0:0:0:
109,192,15928,1,0,0:0:0:0:
36,192,16105,1,0,0:0:0:0:
402,192,16105,1,0,0:0:0:0:
329,192,16281,1,0,0:0:0:0:
182,192,16281,1,0,0:0:0:0:
36,192,16458,1,0,0:0:0:0:
256,192,16458,1,0,0:0:0:0:
109,192,16634,1,0,0:0:0:0:
329,192,16634,1,0,0:0:0:0:
36,192,16811,128,0,17517:0:0:0:0:
256,192,16811,1,0,0:0:0:0:
402,192,16811,1,0,0:0:0:0:
475,192,16987,1,0,0:0:0:0:
182,192,16987,1,0,0:0:0:0:
402,192,17164,1,0,0:0:0:0:
109,192,17164,1,0,0:0:0:0:
329,192,17252,1,0,0:0:0:0:
182,192,17340,1,0,0:0:0:0:
256,192,17340,1,0,0:0:0:0:
329,192,17517,128,0,19634:0:0:0:0:
475,192,17517,1,0,0:0:0:0:
256,192,17517,1,0,0:0:0:0:
109,192,17693,1,0,0:0:0:0:
182,192,17693,1,0,0:0:0:0:
36,192,17870,1,0,0:0:0:0:
402,192,17870,1,0,0:0:0:0:
256,192,18046,1,0,0:0:0:0:
109,192,18046,1,0,0:0:0:0:
475,192,18223,1,0,0:0:0:0:
36,192,18223,1,0,0:0:0:0:
182,192,18399,1,0,0:0:0:0:
256,192,18399,1,0,0:0:0:0:
475,192,18575,1,0,0:0:0:0:
109,192,18575,1,0,0:0:0:0:
36,192,18752,1,0,0:0:0:0:
256,192,18752,1,0,0:0:0:0:
109,192,18928,1,0,0:0:0:0:
402,192,18928,1,0,0:0:0:0:
256,192,19105,1,0,0:0:0:0:
36,192,19105,1,0,0:0:0:0:
109,192,19281,1,0,0:0:0:0:
475,192,19281,1,0,0:0:0:0:
402,192,19458,1,0,0:0:0:0:
256,192,19458,1,0,0:0:0:0:
475,192,19634,128,0,20340:0:0:0:0:
36,192,19634,1,0,0:0:0:0:
182,192,19634,1,0,0:0:0:0:
109,192,19811,1,0,0:0:0:0:
402,192,19811,1,0,0:0:0:0:
329,192,19987,1,0,0:0:0:0:
256,192,19987,1,0,0:0:0:0:
402,192,20075,1,0,0:0:0:0:
36,192,20164,1,0,0:0:0:0:
182,192,20164,1,0,0:0:0:0:
109,192,20340,128,0,22458:0:0:0:0:
402,192,20340,1,0,0:0:0:0:
256,192,20340,1,0,0:0:0:0:
182,192,20517,1,0,0:0:0:0:
36,192,20517,1,0,0:0:0:0:
475,192,20693,1,0,0:0:0:0:
256,192,20693,1,0,0:0:0:0:
182,192,20870,1,0,0:0:0:0:
402,192,20870,1,0,0:0:0:0:
256,192,21046,1,0,0:0:0:0:
36,192,21046,1,0,0:0:0:0:
329,192,21223,1,0,0:0:0:0:
402,192,21223,1,0,0:0:0:0:
475,192,21399,1,0,0:0:0:0:
256,192,21399,1,0,0:0:0:0:
182,192,21575,1,0,0:0:0:0:
36,192,21575,1,0,0:0:0:0:
182,192,21752,1,0,0:0:0:0:
475,192,21752,1,0,0:0:0:0:
402,192,21928,1,0,0:0:0:0:
329,192,21928,1,0,0:0:0:0:
256,192,22105,1,0,0:0:0:0:
36,192,22105,1,0,0:0:0:0:
182,192,22281,1,0,0:0:0:0:
402,192,22281,1,0,0:0:0:0:
329,192,22458,128,0,23164:0:0:0:0:
475,192,22458,1,0,0:0:0:0:
256,192,22458,1,0,0:0:0:0:
36,192,22634,1,0,0:0:0:0:
182,192,22634,1,0,0:0:0:0:
36,192,22811,1,0,0:0:0:0:
475,192,22811,1,0,0:0:0:0:
256,192,22987,1,0,0:0:0:0:
109,192,22987,1,0,0:0:0:0:
36,192,23164,128,0,23693:0:0:0:0:
402,192,23164,1,0,0:0:0:0:
182,192,23164,1,0,0:0:0:0:
256,192,23252,1,0,0:0:0:0:
109,192,23340,1,0,0:0:0:0:
475,192,23340,1,0,0:0:0:0:
182,192,23428,1,0,0:0:0:0:
402,192,23517,1,0,0:0:0:0:
329,192,23517,1,0,0:0:0:0:
109,192,23605,1,0,0:0:0:0:
182,192,23693,128,0,24223:0:0:0:0:
256,192,23693,1,0,0:0:0:0:
475,192,23693,1,0,0:0:0:0:
402,192,23781,1,0,0:0:0:0:
36,192,23870,1,0,0:0:0:0:
329,192,23870,1,0,0:0:0:0:
256,192,23958,1,0,0:0:0:0:
109,192,24046,1,0,0:0:0:0:
402,192,24046,1,0,0:0:0:0:
329,192,24134,1,0,0:0:0:0:
475,192,24223,128,0,24575:0:0:0:0:
256,192,24223,1,0,0:0:0:0:
36,192,24223,1,0,0:0:0:0:
182,192,24311,1,0,0:0:0:0:
109,192,24399,1,0,0:0:0:0:
329,192,24399,1,0,0:0:0:0:
36,192,24487,1,0,0:0:0:0:
402,192,24575,128,0,25017:0:0:0:0:
256,192,24575,1,0,0:0:0:0:
182,192,24575,1,0,0:0:0:0:
109,192,24664,1,0,0:0:0:0:
36,192,24752,1,0,0:0:0:0:
329,192,24752,1,0,0:0:0:0:
256,192,24840,1,0,0:0:0:0:
182,192,24928,1,0,0:0:0:0:
109,192,24928,1,0,0:0:0:0:
329,192,25017,128,0,25105:0:0:0:0:
475,192,25017,1,0,0:0:0:0:
256,192,25105,128,0,25193:0:0:0:0:
36,192,25105,1,0,0:0:0:0:
109,192,25105,1,0,0:0:0:0:
475,192,25193,128,0,25987:0:0:0:0:
402,192,25193,1,0,0:0:0:0:
182,192,25281,1,0,0:0:0:0:
329,192,25281,1,0,0:0:0:0:
109,192,25370,1,0,0:0:0:0:
36,192,25458,1,0,0:0:0:0:
402,192,25458,1,0,0:0:0:0:
182,192,25546,1,0,0:0:0:0:
329,192,25634,1,0,0:0:0:0:
109,192,25634,1,0,0:0:0:0:
402,192,25723,1,0,0:0:0:0:
329,192,25811,1,0,0:0:0:0:
182,192,25811,1,0,0:0:0:0:
256,192,25987,1,0,0:0:0:0:
402,192,25987,1,0,0:0:0:0:
36,192,25987,128,0,28105:0:0:0:0:
109,192,26164,1,0,0:0:0:0:
475,192,26164,1,0,0:0:0:0:
402,192,26340,1,0,0:0:0:0:
256,192,26340,1,0,0:0:0:0:
109,192,26517,1,0,0:0:0:0:
329,192,26517,1,0,0:0:0:0:
182,192,26693,1,0,0:0:0:0:
475,192,26693,1,0,0:0:0:0:
402,192,26870,1,0,0:0:0:0:
256,192,26870,1,0,0:0:0:0:
109,192,27046,1,0,0:0:0:0:
329,192,27046,1,0,0:0:0:0:
182,192,27223,1,0,0:0:0:0:
475,192,27223,1,0,0:0:0:0:
402,192,27399,1,0,0:0:0:0:
109,192,27399,1,0,0:0:0:0:
329,192,27575,1,0,0:0:0:0:
182,192,27575,1,0,0:0:0:0:
402,192,27752,1,0,0:0:0:0:
475,192,27752,1,0,0:0:0:0:
109,192,27928,1,0,0:0:0:0:
329,192,27928,1,0,0:0:0:0:
475,192,28105,128,0,28811:0:0:0:0:
256,192,28105,1,0,0:0:0:0:
182,192,28105,1,0,0:0:0:0:
36,192,28281,1,0,0:0:0:0:
329,192,28281,1,0,0:0:0:0:
256,192,28458,1,0,0:0:0:0:
109,192,28458,1,0,0:0:0:0:
402,192,28634,1,0,0:0:0:0:
36,192,28634,1,0,0:0:0:0:
182,192,28723,1,0,0:0:0:0:
256,192,28811,128,0,30928:0:0:0:0:
109,192,28811,1,0,0:0:0:0:
329,192,28811,1,0,0:0:0:0:
475,192,28987,1,0,0:0:0:0:
329,192,28987,1,0,0:0:0:0:
36,192,29164,1,0,0:0:0:0:
109,192,29164,1,0,0:0:0:0:
182,192,29340,1,0,0:0:0:0:
402,192,29340,1,0,0:0:0:0:
329,192,29517,1,0,0:0:0:0:
36,192,29517,1,0,0:0:0:0:
109,192,29693,1,0,0:0:0:0:
475,192,29693,1,0,0:0:0:0:
402,192,29870,1,0,0:0:0:0:
329,192,29870,1,0,0:0:0:0:
36,192,30046,1,0,0:0:0:0:
182,192,30046,1,0,0:0:0:0:
109,192,30223,1,0,0:0:0:0:
402,192,30223,1,0,0:0:0:0:
475,192,30399,1,0,0:0:0:0:
329,192,30399,1,0,0:0:0:0:
109,192,30575,1,0,0:0:0:0:
402,192,30575,1,0,0:0:0:0:
329,192,30752,1,0,0:0:0:0:
182,192,30752,1,0,0:0:0:0:
475,192,30928,128,0,31634:0:0:0:0:
36,192,30928,1,0,0:0:0:0:
182,192,30928,1,0,0:0:0:0:
329,192,31105,1,0,0:0:0:0:
109,192,31105,1,0,0:0:0:0:
402,192,31281,1,0,0:0:0:0:
182,192,31281,1,0,0:0:0:0:
329,192,31370,1,0,0:0:0:0:
36,192,31458,1,0,0:0:0:0:
256,192,31458,1,0,0:0:0:0:
329,192,31634,128,0,33752:0:0:0:0:
109,192,31634,1,0,0:0:0:0:
182,192,31634,1,0,0:0:0:0:
402,192,31811,1,0,0:0:0:0:
256,192,31811,1,0,0:0:0:0:
36,192,31987,1,0,0:0:0:0:
475,192,31987,1,0,0:0:0:0:
109,192,32164,1,0,0:0:0:0:
182,192,32164,1,0,0:0:0:0:
402,192,32340,1,0,0:0:0:0:
256,192,32340,1,0,0:0:0:0:
36,192,32517,1,0,0:0:0:0:
475,192,32517,1,0,0:0:0:0:
109,192,32693,1,0,0:0:0:0:
256,192,32693,1,0,0:0:0:0:
36,192,32870,1,0,0:0:0:0:
475,192,32870,1,0,0:0:0:0:
402,192,33046,1,0,0:0:0:0:
256,192,33046,1,0,0:0:0:0:
36,192,33223,1,0,0:0:0:0:
109,192,33223,1,0,0:0:0:0:
182,192,33399,1,0,0:0:0:0:
475,192,33399,1,0,0:0:0:0:
402,192,33575,1,0,0:0:0:0:
36,192,33575,1,0,0:0:0:0:
109,192,33752,128,0,34458:0:0:0:0:
182,192,33752,1,0,0:0:0:0:
475,192,33752,1,0,0:0:0:0:
402,192,33928,1,0,0:0:0:0:
256,192,33928,1,0,0:0:0:0:
36,192,34105,1,0,0:0:0:0:
329,192,34105,1,0,0:0:0:0:
182,192,34281,1,0,0:0:0:0:
475,192,34281,1,0,0:0:0:0:
36,192,34458,128,0,34987:0:0:0:0:
402,192,34458,1,0,0:0:0:0:
256,192,34458,1,0,0:0:0:0:
329,192,34546,1,0,0:0:0:0:
109,192,34634,1,0,0:0:0:0:
475,192,34634,1,0,0:0:0:0:
182,192,34723,1,0,0:0:0:0:
402,192,34811,1,0,0:0:0:0:
256,192,34811,1,0,0:0:0:0:
475,192,34899,1,0,0:0:0:0:
109,192,34987,128,0,35517:0:0:0:0:
182,192,34987,1,0,0:0:0:0:
329,192,34987,1,0,0:0:0:0:
402,192,35075,1,0,0:0:0:0:
475,192,35164,1,0,0:0:0:0:
36,192,35164,1,0,0:0:0:0:
329,192,35252,1,0,0:0:0:0:
182,192,35340,1,0,0:0:0:0:
402,192,35340,1,0,0:0:0:0:
36,192,35428,1,0,0:0:0:0:
256,192,35517,128,0,35870:0:0:0:0:
329,192,35517,1,0,0:0:0:0:
475,192,35517,1,0,0:0:0:0:
402,192,35605,1,0,0:0:0:0:
182,192,35693,1,0,0:0:0:0:
36,192,35693,1,0,0:0:0:0:
475,192,35781,1,0,0:0:0:0:
402,192,35870,128,0,36575:0:0:0:0:
109,192,35870,1,0,0:0:0:0:
329,192,35870,1,0,0:0:0:0:
182,192,35958,1,0,0:0:0:0:
109,192,36002,1,0,0:0:0:0:
475,192,36046,1,0,0:0:0:0:
256,192,36046,1,0,0:0:0:0:
329,192,36090,1,0,0:0:0:0:
109,192,36134,1,0,0:0:0:0:
36,192,36223,1,0,0:0:0:0:
182,192,36223,1,0,0:0:0:0:
256,192,36311,1,0,0:0:0:0:
475,192,36355,1,0,0:0:0:0:
329,192,36399,1,0,0:0:0:0:
109,192,36399,1,0,0:0:0:0:
256,192,36443,1,0,0:0:0:0:
182,192,36487,1,0,0:0:0:0:
36,192,36531,1,0,0:0:0:0:
475,192,36575,128,0,37281:0:0:0:0:
182,192,36575,1,0,0:0:0:0:
256,192,36575,1,0,0:0:0:0:
329,192,36752,1,0,0:0:0:0:
36,192,36752,1,0,0:0:0:0:
109,192,36928,1,0,0:0:0:0:
402,192,36928,1,0,0:0:0:0:
329,192,37105,1,0,0:0:0:0:
36,192,37105,1,0,0:0:0:0:
256,192,37281,128,0,38517:0:0:0:0:
182,192,37281,1,0,0:0:0:0:
402,192,37281,1,0,0:0:0:0:
329,192,37458,1,0,0:0:0:0:
36,192,37458,1,0,0:0:0:0:
109,192,37634,1,0,0:0:0:0:
475,192,37634,1,0,0:0:0:0:
402,192,37811,1,0,0:0:0:0:
182,192,37811,1,0,0:0:0:0:
36,192,37987,1,0,0:0:0:0:
329,192,37987,1,0,0:0:0:0:
402,192,38164,1,0,0:0:0:0:
475,192,38164,1,0,0:0:0:0:
36,192,38340,1,0,0:0:0:0:
182,192,38340,1,0,0:0:0:0:
475,192,38517,128,0,39752:0:0:0:0:
109,192,38517,1,0,0:0:0:0:
329,192,38517,1,0,0:0:0:0:
402,192,38693,1,0,0:0:0:0:
182,192,38693,1,0,0:0:0:0:
36,192,38870,1,0,0:0:0:0:
329,192,38870,1,0,0:0:0:0:
109,192,39046,1,0,0:0:0:0:
182,192,39046,1,0,0:0:0:0:
402,192,39223,1,0,0:0:0:0:
256,192,39223,1,0,0:0:0:0:
36,192,39399,1,0,0:0:0:0:
329,192,39399,1,0,0:0:0:0:
182,192,39575,1,0,0:0:0:0:
109,192,39575,1,0,0:0:0:0:
36,192,39752,1,0,0:0:0:0:
256,192,39752,1,0,0:0:0:0:
329,192,39928,128,0,40017:0:0:0:0:
182,192,39928,1,0,0:0:0:0:
109,192,39928,1,0,0:0:0:0:
402,192,40017,128,0,40105:0:0:0:0:
475,192,40105,128,0,40193:0:0:0:0:
36,192,40105,1,0,0:0:0:0:
256,192,40105,1,0,0:0:0:0:
402,192,40281,1,0,0:0:0:0:
182,192,40281,1,0,0:0:0:0:
109,192,40458,1,0,0:0:0:0:
475,192,40458,1,0,0:0:0:0:
329,192,40634,1,0,0:0:0:0:
256,192,40634,1,0,0:0:0:0:
36,192,40811,1,0,0:0:0:0:
475,192,40811,1,0,0:0:0:0:
109,192,40987,1,0,0:0:0:0:
256,192,40987,1,0,0:0:0:0:
329,192,41164,1,0,0:0:0:0:
402,192,41164,1,0,0:0:0:0:
36,192,41340,128,0,41428:0:0:0:0:
182,192,41340,1,0,0:0:0:0:
475,192,41340,1,0,0:0:0:0:
402,192,41517,1,0,0:0:0:0:
109,192,41517,1,0,0:0:0:0:
36,192,41693,1,0,0:0:0:0:
256,192,41693,1,0,0:0:0:0:
182,192,41870,1,0,0:0:0:0:
475,192,41870,1,0,0:0:0:0:
402,192,42046,1,0,0:0:0:0:
329,192,42046,1,0,0:0:0:0:
109,192,42223,1,0,0:0:0:0:
256,192,42223,1,0,0:0:0:0:
475,192,42399,1,0,0:0:0:0:
329,192,42399,1,0,0:0:0:0:
36,192,42575,1,0,0:0:0:0:
256,192,42575,1,0,0:0:0:0:
182,192,42752,128,0,42840:0:0:0:0:
402,192,42752,1,0,0:0:0:0:
475,192,42752,1,0,0:0:0:0:
256,192,42840,128,0,42928:0:0:0:0:
329,192,42928,128,0,43017:0:0:0:0:
36,192,42928,1,0,0:0:0:0:
109,192,42928,1,0,0:0:0:0:
182,192,43105,1,0,0:0:0:0:
475,192,43105,1,0,0:0:0:0:
402,192,43281,1,0,0:0:0:0:
36,192,43281,1,0,0:0:0:0:
182,192,43458,1,0,0:0:0:0:
256,192,43458,1,0,0:0:0:0:
475,192,43634,1,0,0:0:0:0:
109,192,43634,1,0,0:0:0:0:
36,192,43811,1,0,0:0:0:0:
329,192,43811,1,0,0:0:0:0:
402,192,43987,1,0,0:0:0:0:
182,192,43987,1,0,0:0:0:0:
475,192,44164,128,0,44252:0:0:0:0:
109,192,44164,1,0,0:0:0:0:
256,192,44164,1,0,0:0:0:0:
36,192,44340,1,0,0:0:0:0:
402,192,44340,1,0,0:0:0:0:
475,192,44517,1,0,0:0:0:0:
256,192,44517,1,0,0:0:0:0:
402,192,44693,1,0,0:0:0:0:
36,192,44693,1,0,0:0:0:0:
109,192,44870,1,0,0:0:0:0:
475,192,44870,1,0,0:0:0:0:
329,192,45046,1,0,0:0:0:0:
402,192,45046,1,0,0:0:0:0:
109,192,45223,1,0,0:0:0:0:
182,192,45223,1,0,0:0:0:0:
475,192,45399,1,0,0:0:0:0:
256,192,45399,1,0,0:0:0:0:
109,192,45575,1,0,0:0:0:0:
402,192,45575,1,0,0:0:0:0:
36,192,45752,1,0,0:0:0:0:
329,192,45752,1,0,0:0:0:0:
256,192,45752,128,0,46105:0:0:0:0:
109,192,45840,1,0,0:0:0:0:
402,192,45840,1,0,0:0:0:0:
182,192,45928,1,0,0:0:0:0:
475,192,45928,1,0,0:0:0:0:
402,192,46017,1,0,0:0:0:0:
36,192,46017,1,0,0:0:0:0:
329,192,46105,1,0,0:0:0:0:
109,192,46105,1,0,0:0:0:0:
182,192,46193,1,0,0:0:0:0:
256,192,46193,1,0,0:0:0:0:
475,192,46281,128,0,46634:0:0:0:0:
109,192,46281,1,0,0:0:0:0:
329,192,46281,1,0,0:0:0:0:
402,192,46370,1,0,0:0:0:0:
36,192,46370,1,0,0:0:0:0:
109,192,46458,1,0,0:0:0:0:
329,192,46458,1,0,0:0:0:0:
402,192,46546,1,0,0:0:0:0:
182,192,46546,1,0,0:0:0:0:
256,192,46634,1,0,0:0:0:0:
329,192,46634,1,0,0:0:0:0:
402,192,46723,1,0,0:0:0:0:
182,192,46723,1,0,0:0:0:0:
36,192,46811,1,0,0:0:0:0:
475,192,46811,1,0,0:0:0:0:
109,192,46899,1,0,0:0:0:0:
402,192,46899,1,0,0:0:0:0:
329,192,46987,1,0,0:0:0:0:
36,192,46987,1,0,0:0:0:0:
109,192,47075,1,0,0:0:0:0:
402,192,47075,1,0,0:0:0:0:
475,192,47164,1,0,0:0:0:0:
182,192,47164,1,0,0:0:0:0:
36,192,47164,128,0,47870:0:0:0:0:
256,192,47252,1,0,0:0:0:0:
109,192,47384,1,0,0:0:0:0:
182,192,47428,1,0,0:0:0:0:
256,192,47473,1,0,0:0:0:0:
329,192,47517,1,0,0:0:0:0:
402,192,47561,1,0,0:0:0:0:
475,192,47605,1,0,0:0:0:0:
475,192,47693,1,0,0:0:0:0:
402,192,47737,1,0,0:0:0:0:
329,192,47781,1,0,0:0:0:0:
256,192,47825,1,0,0:0:0:0:
182,192,47870,1,0,0:0:0:0:
475,192,47870,128,0,48223:0:0:0:0:
109,192,47914,1,0,0:0:0:0:
36,192,47958,1,0,0:0:0:0:
109,192,48046,1,0,0:0:0:0:
109,192,48134,1,0,0:0:0:0:
402,192,48223,1,0,0:0:0:0:
256,192,48399,1,0,0:0:0:0:
329,192,48487,1,0,0:0:0:0:
402,192,48575,1,0,0:0:0:0:
475,192,48575,128,0,49281:0:0:0:0:
329,192,48752,1,0,0:0:0:0:
109,192,48752,1,0,0:0:0:0:
182,192,48928,1,0,0:0:0:0:
402,192,48928,1,0,0:0:0:0:
329,192,49105,1,0,0:0:0:0:
256,192,49105,1,0,0:0:0:0:
36,192,49281,1,0,0:0:0:0:
182,192,49281,1,0,0:0:0:0:
256,192,49458,1,0,0:0:0:0:
402,192,49458,1,0,0:0:0:0:
36,192,49634,128,0,49811:0:0:0:0:
109,192,49634,1,0,0:0:0:0:
329,192,49634,1,0,0:0:0:0:
109,192,49811,128,0,49987:0:0:0:0:
256,192,49811,1,0,0:0:0:0:
475,192,49811,1,0,0:0:0:0:
402,192,49987,1,0,0:0:0:0:
329,192,49987,1,0,0:0:0:0:
36,192,50164,1,0,0:0:0:0:
182,192,50164,1,0,0:0:0:0:
402,192,50340,1,0,0:0:0:0:
256,192,50340,1,0,0:0:0:0:
475,192,50517,128,0,50693:0:0:0:0:
36,192,50517,1,0,0:0:0:0:
256,192,50517,1,0,0:0:0:0:
329,192,50693,128,0,50870:0:0:0:0:
109,192,50693,1,0,0:0:0:0:
402,192,50693,1,0,0:0:0:0:
402,192,50870,128,0,51046:0:0:0:0:
256,192,50870,1,0,0:0:0:0:
182,192,50870,1,0,0:0:0:0:
475,192,51046,128,0,51223:0:0:0:0:
36,192,51046,1,0,0:0:0:0:
329,192,51046,1,0,0:0:0:0:
36,192,51223,128,0,51399:0:0:0:0:
256,192,51223,1,0,0:0:0:0:
402,192,51223,1,0,0:0:0:0:
256,192,51399,128,0,51752:0:0:0:0:
475,192,51399,1,0,0:0:0:0:
182,192,51399,1,0,0:0:0:0:
36,192,51575,1,0,0:0:0:0:
402,192,51575,1,0,0:0:0:0:
329,192,51752,128,0,51928:0:0:0:0:
182,192,51752,1,0,0:0:0:0:
109,192,51752,1,0,0:0:0:0:
475,192,51928,128,0,52105:0:0:0:0:
36,192,51928,1,0,0:0:0:0:
402,192,51928,1,0,0:0:0:0:
329,192,52105,1,0,0:0:0:0:
109,192,52105,1,0,0:0:0:0:
256,192,52281,1,0,0:0:0:0:
475,192,52281,1,0,0:0:0:0:
402,192,52458,1,0,0:0:0:0:
36,192,52458,1,0,0:0:0:0:
36,192,52634,128,0,52723:0:0:0:0:
182,192,52634,1,0,0:0:0:0:
329,192,52634,1,0,0:0:0:0:
475,192,52723,128,0,52811:0:0:0:0:
256,192,52811,1,0,0:0:0:0:
109,192,52811,1,0,0:0:0:0:
475,192,52987,1,0,0:0:0:0:
329,192,52987,1,0,0:0:0:0:
36,192,53164,1,0,0:0:0:0:
402,192,53164,1,0,0:0:0:0:
109,192,53340,1,0,0:0:0:0:
182,192,53340,1,0,0:0:0:0:
256,192,53517,1,0,0:0:0:0:
475,192,53517,1,0,0:0:0:0:
402,192,53693,1,0,0:0:0:0:
182,192,53693,1,0,0:0:0:0:
36,192,53870,1,0,0:0:0:0:
256,192,53870,1,0,0:0:0:0:
109,192,54046,1,0,0:0:0:0:
402,192,54046,1,0,0:0:0:0:
256,192,54223,128,0,54311:0:0:0:0:
475,192,54223,1,0,0:0:0:0:
329,192,54223,1,0,0:0:0:0:
36,192,54399,1,0,0:0:0:0:
182,192,54399,1,0,0:0:0:0:
402,192,54575,1,0,0:0:0:0:
256,192,54575,1,0,0:0:0:0:
36,192,54752,1,0,0:0:0:0:
329,192,54752,1,0,0:0:0:0:
109,192,54928,1,0,0:0:0:0:
475,192,54928,1,0,0:0:0:0:
402,192,55105,1,0,0:0:0:0:
256,192,55105,1,0,0:0:0:0:
109,192,55281,1,0,0:0:0:0:
256,192,55281,1,0,0:0:0:0:
475,192,55458,1,0,0:0:0:0:
36,192,55458,1,0,0:0:0:0:
182,192,55458,1,0,0:0:0:0:
329,192,55458,1,0,0:0:0:0:
36,192,55634,1,0,0:0:0:0:
475,192,55634,1,0,0:0:0:0:
182,192,55634,1,0,0:0:0:0:
329,192,55634,1,0,0:0:0:0:
256,192,55811,1,0,0:0:0:0:
475,192,55899,1,0,0:0:0:0:
36,192,55987,1,0,0:0:0:0:
109,192,56164,1,0,0:0:0:0:
182,192,56164,1,0,0:0:0:0:
402,192,56164,1,0,0:0:0:0:
329,192,56164,1,0,0:0:0:0:
402,192,56340,1,0,0:0:0:0:
109,192,56340,1,0,0:0:0:0:
329,192,56340,1,0,0:0:0:0:
182,192,56340,1,0,0:0:0:0:
475,192,56428,1,0,0:0:0:0:
402,192,56517,1,0,0:0:0:0:
329,192,56605,1,0,0:0:0:0:
402,192,56693,1,0,0:0:0:0:
256,192,56781,1,0,0:0:0:0:
329,192,56870,1,0,0:0:0:0:
182,192,56958,1,0,0:0:0:0:
475,192,57046,128,0,57664:0:0:0:0:
109,192,57046,1,0,0:0:0:0:
402,192,57134,128,0,57575:0:0:0:0:
329,192,57223,128,0,57487:0:0:0:0:
36,192,57223,1,0,0:0:0:0:
256,192,57311,128,0,57399:0:0:0:0:
182,192,57399,128,0,58017:0:0:0:0:
109,192,57399,1,0,0:0:0:0:
256,192,57487,128,0,57928:0:0:0:0:
329,192,57575,128,0,57840:0:0:0:0:
36,192,57575,1,0,0:0:0:0:
402,192,57664,128,0,57752:0:0:0:0:
475,192,57752,128,0,58370:0:0:0:0:
109,192,57752,1,0,0:0:0:0:
402,192,57840,128,0,58281:0:0:0:0:
329,192,57928,128,0,58193:0:0:0:0:
36,192,57928,1,0,0:0:0:0:
256,192,58017,128,0,58105:0:0:0:0:
182,192,58105,128,0,58723:0:0:0:0:
109,192,58105,1,0,0:0:0:0:
256,192,58193,128,0,58634:0:0:0:0:
329,192,58281,128,0,58546:0:0:0:0:
36,192,58281,1,0,0:0:0:0:
402,192,58370,128,0,58458:0:0:0:0:
109,192,58458,1,0,0:0:0:0:
475,192,58458,128,0,59075:0:0:0:0:
402,192,58546,128,0,58987:0:0:0:0:
36,192,58634,1,0,0:0:0:0:
329,192,58634,128,0,58899:0:0:0:0:
256,192,58723,128,0,58811:0:0:0:0:
109,192,58811,1,0,0:0:0:0:
182,192,58811,128,0,59428:0:0:0:0:
256,192,58899,128,0,59340:0:0:0:0:
36,192,58987,1,0,0:0:0:0:
329,192,58987,128,0,59252:0:0:0:0:
402,192,59075,128,0,59164:0:0:0:0:
109,192,59164,1,0,0:0:0:0:
475,192,59164,128,0,59781:0:0:0:0:
402,192,59252,128,0,59693:0:0:0:0:
36,192,59340,1,0,0:0:0:0:
329,192,59340,128,0,59605:0:0:0:0:
256,192,59428,128,0,59517:0:0:0:0:
109,192,59517,1,0,0:0:0:0:
182,192,59517,128,0,59870:0:0:0:0:
256,192,59605,128,0,59870:0:0:0:0:
36,192,59693,1,0,0:0:0:0:
329,192,59693,128,0,59870:0:0:0:0:
402,192,59781,128,0,59870:0:0:0:0:
475,192,59870,1,0,0:0:0:0:
36,192,59870,128,0,60281:0:0:0:0:
109,192,59928,128,0,60223:0:0:0:0:
182,192,59987,128,0,60164:0:0:0:0:
256,192,60046,128,0,60105:0:0:0:0:
475,192,60046,1,0,0:0:0:0:
329,192,60105,128,0,60517:0:0:0:0:
256,192,60164,128,0,60458:0:0:0:0:
182,192,60223,128,0,60399:0:0:0:0:
402,192,60223,1,0,0:0:0:0:
109,192,60281,128,0,60340:0:0:0:0:
36,192,60340,128,0,60752:0:0:0:0:
109,192,60399,128,0,60693:0:0:0:0:
475,192,60399,1,0,0:0:0:0:
182,192,60458,128,0,60634:0:0:0:0:
256,192,60517,128,0,60575:0:0:0:0:
329,192,60575,128,0,60987:0:0:0:0:
402,192,60575,1,0,0:0:0:0:
256,192,60634,128,0,60928:0:0:0:0:
182,192,60693,128,0,60870:0:0:0:0:
109,192,60752,128,0,60811:0:0:0:0:
475,192,60752,1,0,0:0:0:0:
36,192,60811,128,0,61223:0:0:0:0:
109,192,60870,128,0,61164:0:0:0:0:
182,192,60928,128,0,61105:0:0:0:0:
402,192,60928,1,0,0:0:0:0:
256,192,60987,128,0,61046:0:0:0:0:
329,192,61046,128,0,61281:0:0:0:0:
256,192,61105,128,0,61281:0:0:0:0:
475,192,61105,1,0,0:0:0:0:
182,192,61164,128,0,61281:0:0:0:0:
109,192,61223,128,0,61281:0:0:0:0:
36,192,61281,1,0,0:0:0:0:
475,192,61281,1,0,0:0:0:0:
36,192,61370,1,0,0:0:0:0:
475,192,61370,1,0,0:0:0:0:
182,192,61546,1,0,0:0:0:0:
329,192,61546,1,0,0:0:0:0:
402,192,61634,1,0,0:0:0:0:
109,192,61634,1,0,0:0:0:0:
329,192,61811,1,0,0:0:0:0:
182,192,61811,1,0,0:0:0:0:
36,192,61899,1,0,0:0:0:0:
475,192,61899,1,0,0:0:0:0:
36,192,62075,1,0,0:0:0:0:
256,192,62075,1,0,0:0:0:0:
475,192,62075,1,0,0:0:0:0:
329,192,62164,1,0,0:0:0:0:
182,192,62164,1,0,0:0:0:0:
256,192,62340,1,0,0:0:0:0:
36,192,62340,1,0,0:0:0:0:
475,192,62340,1,0,0:0:0:0:
109,192,62340,1,0,0:0:0:0:
402,192,62340,1,0,0:0:0:0:
475,192,62693,128,0,64811:0:0:0:0:
402,192,62693,1,0,0:0:0:0:
182,192,62693,1,0,0:0:0:0:
36,192,62870,1,0,0:0:0:0:
256,192,62870,1,0,0:0:0:0:
109,192,63046,1,0,0:0:0:0:
329,192,63046,1,0,0:0:0:0:
402,192,63223,1,0,0:0:0:0:
256,192,63223,1,0,0:0:0:0:
36,192,63399,1,0,0:0:0:0:
109,192,63399,1,0,0:0:0:0:
182,192,63575,1,0,0:0:0:0:
329,192,63575,1,0,0:0:0:0:
402,192,63752,1,0,0:0:0:0:
109,192,63752,1,0,0:0:0:0:
36,192,63928,1,0,0:0:0:0:
256,192,63928,1,0,0:0:0:0:
329,192,64105,1,0,0:0:0:0:
182,192,64105,1,0,0:0:0:0:
36,192,64281,1,0,0:0:0:0:
256,192,64281,1,0,0:0:0:0:
402,192,64458,1,0,0:0:0:0:
329,192,64458,1,0,0:0:0:0:
109,192,64634,1,0,0:0:0:0:
329,192,64634,1,0,0:0:0:0:
402,192,64811,128,0,65517:0:0:0:0:
256,192,64811,1,0,0:0:0:0:
109,192,64811,1,0,0:0:0:0:
36,192,64987,1,0,0:0:0:0:
329,192,64987,1,0,0:0:0:0:
475,192,65164,1,0,0:0:0:0:
256,192,65164,1,0,0:0:0:0:
109,192,65340,1,0,0:0:0:0:
182,192,65340,1,0,0:0:0:0:
109,192,65517,128,0,66928:0:0:0:0:
329,192,65517,1,0,0:0:0:0:
475,192,65517,1,0,0:0:0:0:
182,192,65693,1,0,0:0:0:0:
256,192,65693,1,0,0:0:0:0:
402,192,65870,1,0,0:0:0:0:
36,192,65870,1,0,0:0:0:0:
182,192,66046,1,0,0:0:0:0:
329,192,66046,1,0,0:0:0:0:
402,192,66223,1,0,0:0:0:0:
36,192,66223,1,0,0:0:0:0:
182,192,66399,1,0,0:0:0:0:
329,192,66399,1,0,0:0:0:0:
256,192,66575,1,0,0:0:0:0:
475,192,66575,1,0,0:0:0:0:
402,192,66752,1,0,0:0:0:0:
36,192,66752,1,0,0:0:0:0:
182,192,66928,1,0,0:0:0:0:
256,192,66928,1,0,0:0:0:0:
329,192,67105,1,0,0:0:0:0:
475,192,67105,1,0,0:0:0:0:
402,192,67281,1,0,0:0:0:0:
182,192,67281,1,0,0:0:0:0:
256,192,67458,1,0,0:0:0:0:
109,192,67458,1,0,0:0:0:0:
36,192,67634,128,0,68340:0:0:0:0:
402,192,67634,1,0,0:0:0:0:
256,192,67634,1,0,0:0:0:0:
109,192,67811,1,0,0:0:0:0:
475,192,67811,1,0,0:0:0:0:
402,192,67987,1,0,0:0:0:0:
329,192,67987,1,0,0:0:0:0:
109,192,68164,1,0,0:0:0:0:
256,192,68164,1,0,0:0:0:0:
329,192,68340,128,0,69752:0:0:0:0:
182,192,68340,1,0,0:0:0:0:
256,192,68340,1,0,0:0:0:0:
475,192,68517,1,0,0:0:0:0:
109,192,68517,1,0,0:0:0:0:
36,192,68693,1,0,0:0:0:0:
182,192,68693,1,0,0:0:0:0:
109,192,68870,1,0,0:0:0:0:
402,192,68870,1,0,0:0:0:0:
256,192,69046,1,0,0:0:0:0:
475,192,69046,1,0,0:0:0:0:
36,192,69223,1,0,0:0:0:0:
182,192,69223,1,0,0:0:0:0:
109,192,69399,1,0,0:0:0:0:
402,192,69399,1,0,0:0:0:0:
256,192,69575,1,0,0:0:0:0:
182,192,69575,1,0,0:0:0:0:
36,192,69752,1,0,0:0:0:0:
109,192,69752,1,0,0:0:0:0:
402,192,69928,1,0,0:0:0:0:
182,192,69928,1,0,0:0:0:0:
402,192,70105,1,0,0:0:0:0:
475,192,70105,1,0,0:0:0:0:
36,192,70281,1,0,0:0:0:0:
256,192,70281,1,0,0:0:0:0:
475,192,70458,128,0,71164:0:0:0:0:
109,192,70458,1,0,0:0:0:0:
402,192,70458,1,0,0:0:0:0:
329,192,70634,1,0,0:0:0:0:
256,192,70634,1,0,0:0:0:0:
36,192,70811,1,0,0:0:0:0:
182,192,70811,1,0,0:0:0:0:
109,192,70987,1,0,0:0:0:0:
402,192,70987,1,0,0:0:0:0:
329,192,71164,128,0,71693:0:0:0:0:
256,192,71164,1,0,0:0:0:0:
182,192,71164,1,0,0:0:0:0:
36,192,71340,1,0,0:0:0:0:
402,192,71340,1,0,0:0:0:0:
475,192,71517,1,0,0:0:0:0:
402,192,71517,1,0,0:0:0:0:
109,192,71693,128,0,72223:0:0:0:0:
182,192,71693,1,0,0:0:0:0:
256,192,71693,1,0,0:0:0:0:
36,192,71870,1,0,0:0:0:0:
329,192,71870,1,0,0:0:0:0:
256,192,72046,1,0,0:0:0:0:
402,192,72046,1,0,0:0:0:0:
36,192,72223,128,0,72575:0:0:0:0:
475,192,72223,1,0,0:0:0:0:
182,192,72223,1,0,0:0:0:0:
109,192,72399,1,0,0:0:0:0:
256,192,72399,1,0,0:0:0:0:
182,192,72575,128,0,73105:0:0:0:0:
329,192,72575,1,0,0:0:0:0:
402,192,72575,1,0,0:0:0:0:
256,192,72752,1,0,0:0:0:0:
36,192,72752,1,0,0:0:0:0:
109,192,72928,1,0,0:0:0:0:
402,192,72928,1,0,0:0:0:0:
402,192,73105,128,0,73193:0:0:0:0:
329,192,73105,1,0,0:0:0:0:
256,192,73105,1,0,0:0:0:0:
475,192,73193,128,0,73281:0:0:0:0:
402,192,73281,128,0,73370:0:0:0:0:
36,192,73281,1,0,0:0:0:0:
109,192,73281,1,0,0:0:0:0:
182,192,73458,1,0,0:0:0:0:
329,192,73458,1,0,0:0:0:0:
402,192,73634,1,0,0:0:0:0:
109,192,73634,1,0,0:0:0:0:
475,192,73811,1,0,0:0:0:0:
329,192,73811,1,0,0:0:0:0:
36,192,73987,128,0,74340:0:0:0:0:
402,192,73987,1,0,0:0:0:0:
182,192,73987,1,0,0:0:0:0:
256,192,74164,1,0,0:0:0:0:
109,192,74164,1,0,0:0:0:0:
182,192,74340,128,0,74517:0:0:0:0:
402,192,74340,1,0,0:0:0:0:
329,192,74340,1,0,0:0:0:0:
329,192,74517,128,0,74693:0:0:0:0:
256,192,74517,1,0,0:0:0:0:
36,192,74517,1,0,0:0:0:0:
109,192,74693,1,0,0:0:0:0:
182,192,74693,1,0,0:0:0:0:
475,192,74870,1,0,0:0:0:0:
402,192,74870,1,0,0:0:0:0:
36,192,75046,1,0,0:0:0:0:
256,192,75046,1,0,0:0:0:0:
475,192,75223,1,0,0:0:0:0:
402,192,75223,1,0,0:0:0:0:
475,192,75311,1,0,0:0:0:0:
402,192,75311,1,0,0:0:0:0:
402,192,75399,1,0,0:0:0:0:
329,192,75399,1,0,0:0:0:0:
36,192,75575,1,0,0:0:0:0:
109,192,75575,1,0,0:0:0:0:
36,192,75664,1,0,0:0:0:0:
109,192,75664,1,0,0:0:0:0:
109,192,75752,1,0,0:0:0:0:
182,192,75752,1,0,0:0:0:0:
182,192,75840,1,0,0:0:0:0:
329,192,75840,1,0,0:0:0:0:
475,192,75928,1,0,0:0:0:0:
402,192,75928,1,0,0:0:0:0:
329,192,76017,1,0,0:0:0:0:
256,192,76017,1,0,0:0:0:0:
402,192,76105,1,0,0:0:0:0:
329,192,76105,1,0,0:0:0:0:
475,192,76193,1,0,0:0:0:0:
402,192,76193,1,0,0:0:0:0:
402,192,76281,1,0,0:0:0:0:
329,192,76281,1,0,0:0:0:0:
475,192,76370,1,0,0:0:0:0:
256,192,76370,1,0,0:0:0:0:
36,192,76458,1,0,0:0:0:0:
109,192,76458,1,0,0:0:0:0:
182,192,76634,1,0,0:0:0:0:
256,192,76634,1,0,0:0:0:0:
256,192,76811,1,0,0:0:0:0:
402,192,76811,1,0,0:0:0:0:
36,192,76811,128,0,76987:0:0:0:0:
182,192,76899,1,0,0:0:0:0:
475,192,76987,1,0,0:0:0:0:
329,192,76987,1,0,0:0:0:0:
256,192,76987,128,0,77340:0:0:0:0:
109,192,77075,1,0,0:0:0:0:
329,192,77164,1,0,0:0:0:0:
182,192,77164,1,0,0:0:0:0:
475,192,77252,1,0,0:0:0:0:
109,192,77340,1,0,0:0:0:0:
475,192,77340,128,0,77517:0:0:0:0:
182,192,77340,1,0,0:0:0:0:
402,192,77428,1,0,0:0:0:0:
109,192,77517,1,0,0:0:0:0:
36,192,77517,1,0,0:0:0:0:
402,192,77517,128,0,77693:0:0:0:0:
329,192,77605,1,0,0:0:0:0:
182,192,77693,1,0,0:0:0:0:
256,192,77693,1,0,0:0:0:0:
475,192,77781,1,0,0:0:0:0:
109,192,77870,1,0,0:0:0:0:
36,192,77870,1,0,0:0:0:0:
109,192,78046,1,0,0:0:0:0:
182,192,78046,128,0,78134:0:0:0:0:
329,192,78134,1,0,0:0:0:0:
256,192,78134,128,0,78223:0:0:0:0:
475,192,78223,1,0,0:0:0:0:
402,192,78223,128,0,78399:0:0:0:0:
329,192,78399,128,0,78575:0:0:0:0:
36,192,78399,1,0,0:0:0:0:
475,192,78575,128,0,78752:0:0:0:0:
402,192,78575,1,0,0:0:0:0:
402,192,78752,128,0,78928:0:0:0:0:
109,192,78752,1,0,0:0:0:0:
256,192,78928,128,0,79105:0:0:0:0:
329,192,78928,1,0,0:0:0:0:
36,192,79105,128,0,79281:0:0:0:0:
109,192,79105,1,0,0:0:0:0:
109,192,79281,128,0,79458:0:0:0:0:
256,192,79281,1,0,0:0:0:0:
182,192,79458,128,0,79634:0:0:0:0:
475,192,79458,1,0,0:0:0:0:
475,192,79634,128,0,79811:0:0:0:0:
329,192,79634,1,0,0:0:0:0:
402,192,79811,128,0,79987:0:0:0:0:
36,192,79811,1,0,0:0:0:0:
475,192,79987,128,0,80164:0:0:0:0:
256,192,79987,1,0,0:0:0:0:
256,192,80164,128,0,80340:0:0:0:0:
36,192,80164,1,0,0:0:0:0:
109,192,80340,128,0,80517:0:0:0:0:
182,192,80340,1,0,0:0:0:0:
182,192,80517,128,0,80693:0:0:0:0:
402,192,80517,1,0,0:0:0:0:
256,192,80693,128,0,80870:0:0:0:0:
475,192,80693,1,0,0:0:0:0:
36,192,80870,128,0,81046:0:0:0:0:
182,192,80870,1,0,0:0:0:0:
109,192,81046,128,0,81223:0:0:0:0:
329,192,81046,1,0,0:0:0:0:
256,192,81223,128,0,81399:0:0:0:0:
402,192,81223,1,0,0:0:0:0:
402,192,81399,128,0,81575:0:0:0:0:
36,192,81399,1,0,0:0:0:0:
475,192,81575,128,0,81752:0:0:0:0:
256,192,81575,1,0,0:0:0:0:
36,192,81752,1,0,0:0:0:0:
402,192,81752,1,0,0:0:0:0:
109,192,81840,1,0,0:0:0:0:
256,192,81840,1,0,0:0:0:0:
36,192,81928,1,0,0:0:0:0:
329,192,81928,1,0,0:0:0:0:
182,192,82017,1,0,0:0:0:0:
475,192,82017,1,0,0:0:0:0:
109,192,82105,1,0,0:0:0:0:
402,192,82105,1,0,0:0:0:0:
36,192,82193,1,0,0:0:0:0:
329,192,82193,1,0,0:0:0:0:
182,192,82281,1,0,0:0:0:0:
256,192,82281,1,0,0:0:0:0:
109,192,82370,1,0,0:0:0:0:
402,192,82370,1,0,0:0:0:0:
182,192,82458,1,0,0:0:0:0:
475,192,82458,1,0,0:0:0:0:
109,192,82546,1,0,0:0:0:0:
329,192,82546,1,0,0:0:0:0:
402,192,82634,1,0,0:0:0:0:
256,192,82634,1,0,0:0:0:0:
329,192,82723,1,0,0:0:0:0:
182,192,82723,1,0,0:0:0:0:
256,192,82811,1,0,0:0:0:0:
36,192,82811,1,0,0:0:0:0:
182,192,82899,1,0,0:0:0:0:
109,192,82899,1,0,0:0:0:0:
475,192,82987,1,0,0:0:0:0:
329,192,82987,1,0,0:0:0:0:
402,192,83075,1,0,0:0:0:0:
256,192,83075,1,0,0:0:0:0:
329,192,83164,1,0,0:0:0:0:
182,192,83164,1,0,0:0:0:0:
109,192,83252,1,0,0:0:0:0:
36,192,83252,1,0,0:0:0:0:
256,192,83340,1,0,0:0:0:0:
402,192,83340,1,0,0:0:0:0:
182,192,83428,1,0,0:0:0:0:
475,192,83428,1,0,0:0:0:0:
109,192,83517,1,0,0:0:0:0:
402,192,83517,1,0,0:0:0:0:
36,192,83605,1,0,0:0:0:0:
329,192,83605,1,0,0:0:0:0:
475,192,83693,1,0,0:0:0:0:
256,192,83693,1,0,0:0:0:0:
402,192,83781,1,0,0:0:0:0:
109,192,83781,1,0,0:0:0:0:
329,192,83870,1,0,0:0:0:0:
182,192,83870,1,0,0:0:0:0:
402,192,83958,1,0,0:0:0:0:
109,192,83958,1,0,0:0:0:0:
256,192,84046,1,0,0:0:0:0:
36,192,84046,1,0,0:0:0:0:
475,192,84090,5,0,0:0:0:0:
329,192,84134,5,0,0:0:0:0:
182,192,84134,1,0,0:0:0:0:
182,192,84223,1,0,0:0:0:0:
402,192,84223,1,0,0:0:0:0:
256,192,84311,1,0,0:0:0:0:
36,192,84311,1,0,0:0:0:0:
329,192,84399,1,0,0:0:0:0:
109,192,84399,1,0,0:0:0:0:
402,192,84487,1,0,0:0:0:0:
256,192,84487,1,0,0:0:0:0:
182,192,84531,1,0,0:0:0:0:
256,192,84575,1,0,0:0:0:0:
475,192,84575,1,0,0:0:0:0:
109,192,84664,1,0,0:0:0:0:
329,192,84664,1,0,0:0:0:0:
36,192,84752,1,0,0:0:0:0:
256,192,84752,1,0,0:0:0:0:
182,192,84840,1,0,0:0:0:0:
329,192,84840,1,0,0:0:0:0:
256,192,84928,1,0,0:0:0:0:
36,192,84928,1,0,0:0:0:0:
329,192,85017,1,0,0:0:0:0:
109,192,85017,1,0,0:0:0:0:
402,192,85105,1,0,0:0:0:0:
182,192,85105,1,0,0:0:0:0:
182,192,85193,1,0,0:0:0:0:
36,192,85193,1,0,0:0:0:0:
475,192,85281,128,0,85458:0:0:0:0:
256,192,85281,128,0,86340:0:0:0:0:
36,192,85281,128,0,87399:0:0:0:0:
402,192,85458,128,0,85634:0:0:0:0:
329,192,85634,128,0,85811:0:0:0:0:
182,192,85811,128,0,86164:0:0:0:0:
475,192,86164,128,0,86340:0:0:0:0:
402,192,86340,128,0,86517:0:0:0:0:
256,192,86517,128,0,86693:0:0:0:0:
475,192,86693,128,0,86870:0:0:0:0:
329,192,86870,128,0,87046:0:0:0:0:
182,192,87046,128,0,87223:0:0:0:0:
402,192,87223,128,0,87399:0:0:0:0:
182,192,87399,128,0,88105:0:0:0:0:
475,192,87399,128,0,87575:0:0:0:0:
402,192,87575,128,0,87752:0:0:0:0:
256,192,87752,128,0,87928:0:0:0:0:
109,192,87928,128,0,88105:0:0:0:0:
475,192,88105,128,0,90223:0:0:0:0:
36,192,88105,128,0,88281:0:0:0:0:
256,192,88281,128,0,88458:0:0:0:0:
402,192,88458,128,0,88634:0:0:0:0:
329,192,88634,128,0,88987:0:0:0:0:
256,192,88987,128,0,89164:0:0:0:0:
109,192,89164,128,0,89340:0:0:0:0:
36,192,89340,128,0,89517:0:0:0:0:
182,192,89517,128,0,89693:0:0:0:0:
256,192,89693,128,0,89870:0:0:0:0:
109,192,89870,128,0,90046:0:0:0:0:
329,192,90046,128,0,90223:0:0:0:0:
36,192,90223,128,0,90928:0:0:0:0:
182,192,90223,128,0,90399:0:0:0:0:
329,192,90399,128,0,90575:0:0:0:0:
475,192,90575,128,0,90752:0:0:0:0:
402,192,90752,128,0,90928:0:0:0:0:
256,192,90928,128,0,93046:0:0:0:0:
182,192,90928,128,0,91105:0:0:0:0:
36,192,91105,128,0,91281:0:0:0:0:
109,192,91281,128,0,91458:0:0:0:0:
329,192,91458,128,0,91811:0:0:0:0:
475,192,91811,128,0,91987:0:0:0:0:
402,192,91987,128,0,92164:0:0:0:0:
109,192,92164,128,0,92340:0:0:0:0:
36,192,92340,128,0,92517:0:0:0:0:
182,192,92517,128,0,92693:0:0:0:0:
402,192,92693,128,0,92870:0:0:0:0:
109,192,92870,128,0,93046:0:0:0:0:
475,192,93046,128,0,93752:0:0:0:0:
329,192,93046,128,0,93223:0:0:0:0:
402,192,93223,128,0,93399:0:0:0:0:
36,192,93399,128,0,93575:0:0:0:0:
109,192,93575,128,0,93752:0:0:0:0:
402,192,93752,128,0,94281:0:0:0:0:
329,192,93752,128,0,93928:0:0:0:0:
182,192,93928,128,0,94105:0:0:0:0:
36,192,94105,128,0,94281:0:0:0:0:
256,192,94281,128,0,94987:0:0:0:0:
329,192,94281,128,0,94458:0:0:0:0:
475,192,94546,128,0,94723:0:0:0:0:
402,192,94899,128,0,95075:0:0:0:0:
109,192,94899,128,0,95340:0:0:0:0:
36,192,95340,128,0,96311:0:0:0:0:
475,192,95340,128,0,95517:0:0:0:0:
402,192,95605,128,0,95781:0:0:0:0:
109,192,95870,128,0,96046:0:0:0:0:
475,192,96105,128,0,96281:0:0:0:0:
329,192,96311,128,0,97987:0:0:0:0:
182,192,96370,128,0,96546:0:0:0:0:
402,192,96620,128,0,96796:0:0:0:0:
256,192,96928,128,0,97105:0:0:0:0:
109,192,97370,128,0,97458:0:0:0:0:
36,192,97458,128,0,97634:0:0:0:0:
36,192,98340,128,0,99223:0:0:0:0:
109,192,98384,128,0,99134:0:0:0:0:
182,192,98428,128,0,99046:0:0:0:0:
256,192,98473,128,0,98958:0:0:0:0:
329,192,98517,128,0,98870:0:0:0:0:
402,192,98561,128,0,98781:0:0:0:0:
475,192,98605,128,0,98693:0:0:0:0:
475,192,99399,128,0,100105:0:0:0:0:
256,192,100811,128,0,101164:0:0:0:0:
