osu file format v5

[General]
AudioFilename: smx (296).mp3
AudioLeadIn: 0
PreviewTime: -1
Countdown: 0
SampleSet: Normal
EditorBookmarks: 69470

[Metadata]
Title:Team Galactic Battle!
Artist:Super Smash Bros. Brawl
Creator:Terrapin
Version:Normal

[Difficulty]
HPDrainRate:5
CircleSize:5
OverallDifficulty:5
SliderMultiplier:0.6
SliderTickRate:1

[Events]
//Background and Video events
0,0,"Rosette_Nebula_web.jpg"
//Break Periods
2,64481,74107
//Storyboard Layer 0 (Background)
//Storyboard Layer 1 (Failing)
//Storyboard Layer 2 (Passing)
//Storyboard Layer 3 (Foreground)
//Storyboard Sound Samples
//Background Colour Transformations
3,100,163,162,255

[TimingPoints]
13060,324.289266025295,4,1,0,100

[Colours]
Combo1 : 244,0,184
Combo2 : 147,0,225

[HitObjects]
144,88,13059,1,0
368,88,14357,1,0
368,288,15654,2,0,B|120:288,1,240
256,72,18248,5,0
376,192,19545,1,0
256,328,20842,2,0,B|120:328|119:209|119:104|256:104,1,360
392,80,23437,5,2
392,176,23923,1,0
288,176,24410,1,0
288,240,24734,1,2
288,336,25220,1,0
152,264,26031,5,0
104,216,26355,1,0
152,168,26680,1,0
104,120,27004,1,0
152,72,27328,2,2,B|232:24|248:137|328:72,1,180
376,144,28625,5,2
304,216,29112,1,0
232,288,29598,1,0
184,240,29923,1,2
120,312,30409,1,0
80,216,30895,1,0
80,152,31220,2,0,B|201:193|200:64|336:152,2,240
144,320,35111,6,0,B|288:319|376:232,1,240
336,64,37705,2,2,B|192:65|112:144,1,240
88,328,40300,5,0
256,192,41597,1,0
424,48,42894,1,2
432,192,44191,5,2
432,192,44353,1,2
256,304,45488,1,2
256,304,45651,1,2
256,72,46786,1,2
256,72,46948,1,2
72,192,48083,1,2
72,192,48245,1,2
256,192,49380,5,0
256,96,49866,1,0
320,96,50191,1,0
416,96,50677,1,0
416,192,51163,1,0
416,256,51488,1,0
320,256,51974,1,0
216,256,52461,1,0
152,224,52785,2,0,B|58:195|65:42|200:40,1,270
256,96,54569,5,0
344,128,55055,1,2
296,216,55541,1,0
360,240,55866,1,2
312,328,56352,1,0
208,328,56839,1,0
160,280,57163,1,2
232,216,57649,1,0
304,144,58136,1,0
256,96,58460,1,2
192,168,58946,1,0
120,96,59433,1,2
72,192,59757,5,0
72,192,59919,1,0
72,256,60244,1,0
232,216,61054,2,2,B|296:152,2,60
232,344,62351,1,0
232,344,62514,1,0
280,296,62838,1,0
400,184,63649,1,2
448,136,63973,1,2
400,88,64297,1,2
120,200,75323,6,0,B|138:146|200:120,2,90
192,248,76620,6,0,B|210:194|272:168,1,90
328,128,77593,1,0
376,176,77917,1,0
328,224,78242,1,0
376,272,78566,1,0
320,312,78890,1,0
248,312,79215,2,0,B|161:325|152:232,1,120
256,112,80512,6,0,B|176:32,2,90
208,160,81809,2,0,B|128:240,2,90
256,112,83106,1,0
256,40,83430,2,0,B|374:68|374:296|256:336,1,360
176,336,85700,5,2
120,248,86187,1,0
64,168,86673,1,0
128,168,86997,1,2
88,80,87484,1,0
256,80,88295,5,0
320,88,88619,1,0
376,120,88943,1,0
408,176,89267,1,0
408,240,89592,2,0,B|399:311|329:336|296:336|264:304,1,180
256,224,90889,6,2,B|256:192|256:128,2,90
320,224,92186,1,0
304,320,92673,1,0
208,320,93159,1,0
160,272,93483,2,2,B|112:224|112:103|168:48,2,240
256,280,97375,5,0
352,248,97861,2,0,B|408:192|408:112,1,150
256,80,99645,1,0
256,80,99969,2,2,B|256:224,1,120
168,192,101266,6,2,B|172:281|264:272,1,120
240,208,102239,1,0
296,240,102563,1,2
384,288,103050,1,0
384,192,103536,1,0
384,128,103860,1,0
384,128,105158,2,2,B|322:68|264:200|200:120,1,180
120,192,106455,5,2
120,192,106617,1,2
328,288,107752,1,2
328,288,107914,1,2
400,72,109049,1,2
400,72,109211,1,2
192,168,110346,1,2
192,168,110508,1,2
336,72,111643,5,2
336,72,111806,1,2
384,120,112130,1,0
336,168,112454,1,0
336,264,112941,1,2
256,320,113427,1,0
216,264,113751,1,0
136,320,114238,1,2
136,320,114400,1,2
96,264,114724,1,0
136,208,115048,1,0
160,112,115535,5,0
216,152,115859,1,0
264,104,116183,1,2
264,104,116346,1,2
256,192,116832,5,0
336,136,117318,1,2
312,232,117805,1,0
360,272,118129,1,2
272,320,118616,1,0
176,280,119102,1,0
208,224,119426,1,2
112,184,119913,1,0
208,152,120399,1,0
160,104,120724,1,2
256,72,121210,1,0
344,104,121696,1,0
344,192,122021,5,2
344,192,122183,1,2
296,240,122507,1,0
144,312,123318,1,0
96,264,123642,1,0
80,200,123966,1,0
256,192,124615,12,4,127209
