osu file format v4

[General]
AudioFilename: Song of Ashley.mp3
AudioLeadIn: 0
AudioHash: 7fbb9d63ec6f70c7b5c22ce1898063d6
PreviewTime: 12469
Countdown: 1
SampleSet: Soft
EditorBookmarks: 3690,41974,51661,96356,112971,134652

[Metadata]
Title:Song of Ashley
Artist:Super Smash Bros. Brawl
Creator:Sinistro
Version:Normal

[Difficulty]
HPDrainRate:5
CircleSize:5
OverallDifficulty:5
SliderMultiplier: 1.4
SliderTickRate: 2

[Events]
//Background and Video events
0,-100000,"ashley.jpg"
//Break Periods
2,40789,50461
2,96556,111771
//Storyboard Layer 0 (Background)
//Storyboard Layer 1 (Failing)
//Storyboard Layer 2 (Passing)
//Storyboard Layer 3 (Foreground)
//Storyboard Sound Samples
//Background Colour Transformations

[TimingPoints]
3690,461.538461538462,4,1,0,100
16150,461.538461538462,4,2,0,100
19840,461.538461538462,4,1,0,100
23530,461.538461538462,4,2,0,100
26290,461.538461538462,4,1,0,100
30900,461.538461538462,4,2,0,100
34590,461.538461538462,4,1,0,100
38280,461.538461538462,4,2,0,100
64120,461.538461538462,4,1,0,100
69650,461.538461538462,4,2,0,100
73340,461.538461538462,4,1,0,100
77030,461.538461538462,4,2,0,100
88570,333.333333333333,3,2,0,100
91600,461.538461538462,3,2,0,100
94510,461.538461538462,4,1,0,100
116200,461.538461538462,4,2,0,100
119890,461.538461538462,4,1,0,100
123580,461.538461538462,4,2,0,100
130960,461.538461538462,4,1,0,100

[Colours]
Combo1 : 240,5,5
Combo2 : 0,0,0
Combo3 : 255,150,0
Combo4 : 255,250,26

[HitObjects]
32,45,3690,2,0,C|32:45|39:78|61:99|93:102|121:82|129:40,1,175
213,40,4613,6,0,C|213:40|220:73|242:94|274:97|302:77|310:35,1,175
394,35,5536,5,0
395,118,5882,1,2
395,201,6228,2,0,B|395:201|357:328|237:328|191:200,1,280
198,161,7382,6,0,C|198:161|191:128|169:107|137:104|109:124|101:166,1,175
102,249,8305,6,0,C|102:249|109:282|131:303|163:306|191:286|199:244,1,175
256,192,9805,12,4,11190
47,29,12920,1,0
103,29,13151,1,0
159,29,13382,2,0,C|159:29|175:175,1,140
109,259,14305,5,0
109,315,14536,1,0
164,312,14766,2,0,B|164:312|228:312|286:266|316:222|323:167|319:108,1,280
320,31,16036,1,4
403,31,16380,5,0
405,86,16611,2,2,B|405:86|434:97|453:124|453:157|436:185|392:199,1,140
294,194,17534,2,2,B|294:194|265:183|246:156|246:123|263:95|307:81,1,140
350,182,18457,5,2
350,265,18803,1,2
350,349,19150,1,4
254,147,20070,5,0
253,203,20301,2,2,B|253:203|132:290,1,140
55,284,21109,1,2
55,143,21686,5,0
110,142,21916,1,0
112,85,22147,2,2,B|112:85|259:85,2,140
172,143,23416,1,4
172,226,23760,5,0
173,282,23991,2,2,B|173:282|184:311|211:330|244:330|272:313|286:269,3,140
392,283,25837,1,4
389,117,26520,6,0,B|389:117|293:213|277:123|260:36|153:143,1,280
110,173,27674,2,0,B|110:173|81:184|62:211|62:244|79:272|123:286,2,140
222,174,29059,5,0
263,136,29290,1,0
305,99,29520,2,0,B|305:99|316:70|343:51|376:51|404:68|418:112,2,140
360,161,30790,1,4
361,243,31130,5,0
317,278,31361,2,2,B|317:278|306:307|279:326|246:326|218:309|204:265,3,140
254,176,33207,5,2
298,105,33553,1,2
214,106,33899,1,4
186,327,34820,5,0
129,326,35051,2,0,B|129:326|100:315|81:288|81:255|98:227|142:213,3,140
128,162,36666,1,0
128,105,36897,2,0,B|128:105|139:76|166:57|199:57|227:74|241:118,2,140
296,102,38513,5,0
296,157,38743,2,2,B|296:157|307:186|334:205|367:205|395:188|409:144,2,140
183,157,40128,2,4,B|183:157|221:297,1,140
64,64,51661,5,2
66,176,52123,1,2
154,115,52584,1,4
321,115,53276,5,0
321,171,53507,2,2,B|321:171|351:219|407:219|436:166,2,140
329,338,55123,5,0
273,338,55353,1,2
298,228,55815,1,2
296,116,56276,1,4
127,114,56969,1,0
126,170,57200,2,2,B|126:170|151:225|210:221|237:167,2,140
264,74,58815,5,0
320,74,59046,1,2
431,73,59507,1,2
372,168,59969,1,4
204,166,60661,1,0
203,222,60892,2,2,B|203:222|173:270|117:270|88:217,2,140
92,95,62507,5,0
148,95,62738,5,4
282,194,63430,5,0
338,194,63661,5,4
170,194,64350,5,0
171,250,64581,1,0
172,333,64927,1,0
255,332,65273,1,4
258,51,66427,5,4
258,107,66658,1,0
258,163,66889,2,0,B|258:163|258:314,1,140
145,301,67812,5,0
147,245,68043,1,0
149,189,68273,2,0,B|149:189|149:47,2,140
233,191,69543,1,4
314,187,69880,5,0
313,243,70111,2,2,B|313:243|302:272|275:291|242:291|214:274|200:230,3,140
155,143,71957,5,2
114,69,72303,1,2
198,69,72650,1,4
421,67,73570,5,0
407,121,73801,2,2,B|407:121|393:185|354:235|342:249,2,140
294,119,75186,5,0
252,81,75417,1,0
210,118,75648,2,2,B|210:118|199:147|172:166|139:166|111:149|97:105,2,140
42,119,77263,5,0
42,174,77493,2,0,B|42:174|42:226|42:261|42:322,2,140
127,245,78878,1,0
239,245,79340,2,2,B|239:245|264:294|326:294|349:240,2,140
239,133,80724,1,4
399,82,81416,5,0
452,147,81763,2,0,B|452:147|340:147,1,105
402,209,82455,1,0
255,78,83263,5,0
205,145,83610,2,0,B|205:145|317:145,1,105
256,209,84302,1,0
395,209,84878,5,0
396,292,85224,1,0
312,294,85570,1,0
255,295,85801,1,2
87,292,86493,5,0
87,235,86724,1,2
87,122,87186,1,0
89,38,87532,1,2
413,279,88736,6,2,B|413:279|388:305|343:324|299:324|271:312,2,140
341,234,89653,6,2,B|341:234|366:208|411:189|455:189|483:201,2,140
382,129,90653,1,0
290,65,90986,1,0
177,64,91320,1,0
71,128,91830,2,0,B|71:128|369:128|419:178|369:228|272:228|159:228|64:228|15:277|64:323|271:323|371:322|392:325,1,805
448,192,95086,6,0,B|448:192|451:131|396:91,1,105
294,99,95894,1,0
256,204,96356,1,4
256,48,112971,5,0
256,104,113202,1,0
258,159,113433,2,2,B|258:159|287:170|306:197|306:230|289:258|245:272,1,140
147,266,114356,5,0
148,210,114586,1,0
149,153,114817,2,2,B|149:153|120:142|101:115|101:82|118:54|162:40,1,140
204,44,115510,1,4
259,44,115740,1,4
342,45,116086,1,4
345,128,116430,5,0
343,184,116661,2,2,B|343:184|332:213|305:232|272:232|244:215|230:171,1,140
233,129,117353,1,0
176,127,117584,2,2,B|176:127|165:98|138:79|105:79|77:96|63:140,1,140
70,181,118276,1,0
70,237,118507,5,0
72,320,118853,1,0
143,275,119200,1,4
257,83,120120,5,0
313,81,120351,2,2,B|313:81|335:39|366:39|392:39|408:54|425:82,1,140
371,101,121043,1,0
424,119,121274,2,2,B|424:119|402:161|371:161|345:161|329:146|312:118,1,140
257,123,121966,5,0
257,179,122197,1,0
255,235,122428,1,0
198,234,122659,2,2,B|198:234|176:276|145:276|119:276|103:261|86:233,1,140
87,66,123813,5,0
142,66,124043,2,0,B|142:66|288:66,1,140
338,68,124736,1,0
338,123,124966,2,0,B|338:123|338:280,2,140
256,199,126350,5,2
256,310,126811,1,2
157,257,127273,1,4
157,201,127503,5,0
157,144,127734,2,2,B|157:144|180:91|222:91|271:91|272:129|272:166|311:166|350:166|389:109,1,280
389,224,129119,1,0
390,335,129580,1,4
291,281,130042,5,2
179,282,130503,1,4
256,192,131190,12,4,134652
