osu file format v5

[General]
AudioFilename: My Dinner.mp3
AudioLeadIn: 0
PreviewTime: -1
Countdown: 1
SampleSet: Normal
EditorBookmarks: 10307,26640,37307,54974,67307,77974,88640,104140,123640,148974,173974

[Metadata]
Title:Gourmet Race
Artist:Super Smash Bros. Brawl
Creator:GSGold
Version:Normal

[Difficulty]
HPDrainRate:5
CircleSize:4
OverallDifficulty:4
SliderMultiplier:1.4
SliderTickRate:1

[Events]
//Background and Video events
//Break Periods
2,30840,34414
2,46174,55987
2,94507,103987
2,115506,123987
2,146174,150654
//Storyboard Layer 0 (Background)
//Storyboard Layer 1 (Failing)
//Storyboard Layer 2 (Passing)
//Storyboard Layer 3 (Foreground)
//Storyboard Sound Samples
//Background Colour Transformations
3,100,163,162,255

[TimingPoints]
10641,333.333333333333,4,1,0,100

[HitObjects]
96,64,10641,2,0,B|416:64|384:64,1,280
384,160,11974,2,0,B|96:160,1,280
160,256,13307,1,0
256,256,13974,1,0
352,256,14640,1,0
256,64,15974,5,0
64,288,17307,1,0
448,288,18640,1,0
320,288,19307,1,0
192,288,19974,1,0
96,192,21307,5,0
192,192,21974,1,0
288,192,22640,1,0
384,192,23307,1,0
320,288,23974,2,0,B|256:288,6,140
160,160,26640,5,0
320,160,27974,1,0
384,160,28640,1,0
256,192,29307,12,0,30640
160,96,35974,5,0
160,288,37307,1,0
352,288,38640,1,0
352,96,39974,1,0
256,192,40640,1,2
96,160,41307,5,0
224,160,42640,1,2
288,160,42974,1,2
352,160,43307,1,2
352,288,43974,1,0
224,288,45307,1,2
160,288,45640,1,2
96,288,45974,1,2
160,96,57307,6,0,B|320:96|448:96,3,280
448,64,59974,6,0,B|448:352,3,280
320,320,62640,5,0
192,320,63307,1,0
64,320,63974,1,0
64,192,64640,1,0
64,128,64974,1,0
64,64,67974,5,0
128,64,68307,1,0
192,64,68640,1,0
256,64,68974,1,0
320,64,69307,1,0
384,64,69640,1,0
448,64,69974,1,2
448,192,70640,5,0
384,192,70974,1,0
320,192,71307,1,0
256,192,71640,1,0
192,192,71974,1,0
128,192,72307,1,0
64,192,72640,1,2
64,320,73307,5,0
128,320,73640,1,0
192,320,73974,1,0
256,320,74307,1,0
320,320,74640,1,0
384,320,74974,1,0
448,320,75307,1,2
256,192,75974,12,2,77974
64,96,78640,5,0
192,96,79974,1,0
320,96,81307,1,0
448,96,82640,1,0
64,64,83974,2,2,B|64:352|480:352|448:96|128:64,3,560
192,96,88640,1,0
128,96,88974,1,0
128,192,89307,5,0
224,192,89807,1,0
320,192,90307,1,0
416,192,90807,1,0
448,288,91307,2,4,B|288:288,1,140
224,288,91974,5,0
128,288,92474,1,0
64,224,92974,1,0
64,128,93474,1,0
64,32,93974,2,0,B|224:32,1,140
192,64,105307,6,0,B|256:64,3,140
320,128,106640,6,0,B|224:128,3,140
64,192,107974,5,0
192,192,108640,1,0
320,192,109307,1,0
448,192,109974,1,0
448,64,110640,5,0
320,64,111307,1,0
192,64,111974,1,0
160,64,112307,1,0
128,64,112640,1,0
128,160,113307,1,0
256,160,113974,1,0
352,96,114640,6,0,B|352:160,2,140
64,64,125307,5,0
64,320,126640,1,0
448,320,127974,1,0
448,64,129307,1,0
192,192,130640,6,2,B|320:192,1,140
320,64,131974,2,2,B|256:64,1,140
192,192,133307,2,2,B|320:192,1,140
320,320,134640,2,2,B|192:320,1,140
96,320,135307,1,4
64,64,135974,5,0
448,64,137307,1,2
448,128,137640,1,2
448,192,137974,1,2
448,320,138640,1,0
64,320,139974,1,2
64,256,140307,1,2
64,192,140640,1,2
64,96,141307,6,0,B|160:96,1,140
288,96,141974,1,2
288,192,142640,2,0,B|192:192,1,140
64,192,143307,1,2
64,288,143974,2,0,B|160:288,1,140
288,288,144640,1,2
352,288,144974,1,2
416,288,145307,1,2
416,224,145640,1,2
416,160,145974,1,2
64,64,151974,5,0
128,128,152640,1,0
192,192,153307,1,0
256,256,153974,1,0
448,64,154640,5,0
384,128,155307,1,0
320,192,155974,1,0
256,256,156640,1,0
256,64,157307,5,0
256,160,157974,1,0
96,256,158640,2,4,B|384:256,1,280
256,192,159974,12,0,161974
96,64,162640,1,2
160,64,162974,1,2
224,64,163307,1,2
352,64,163974,5,2
384,128,164307,1,2
416,192,164640,1,2
416,288,165307,5,2
352,288,165640,1,2
288,288,165974,1,2
192,224,166640,5,2
160,160,166974,1,2
128,96,167307,1,2
256,96,167974,2,4,B|352:96,2,140
256,192,169307,6,4,B|256:320,2,140
256,192,170640,12,4,172974
