osu file format v5

[General]
AudioFilename: 69 - The Ultimate Show.mp3
AudioLeadIn: 0
PreviewTime: -1
Countdown: 1
SampleSet: Normal
StackLeniency: 0.7
Mode: 0
LetterboxInBreaks: 1
EditorBookmarks: 8200,21000,37400,47000,59400,72200,78600,90600

[Metadata]
Title:The Ultimate Show
Artist:Super Paper Mario
Creator:krackocloud
Version:Normal
Source:Super Paper Mario
Tags:super, paper, mario, nintendo, wii

[Difficulty]
HPDrainRate:6
CircleSize:5
OverallDifficulty:6
SliderMultiplier:1.4
SliderTickRate:1

[Events]
//Background and Video events
//Break Periods
2,46800,60200
2,72000,77550
//Storyboard Layer 0 (Background)
//Storyboard Layer 1 (Failing)
//Storyboard Layer 2 (Passing)
//Storyboard Layer 3 (Foreground)
//Storyboard Sound Samples
//Background Colour Transformations
3,100,163,162,255

[TimingPoints]
8200,400,4,1,0,100,1
59800,400,4,2,0,100,1
78600,400,4,1,0,100,1

[HitObjects]
128,192,8200,2,0,B|256:288|432:176,2,280
224,144,10200,1,0
336,112,10600,1,0
448,80,11000,1,0
448,192,11400,6,0,B|448:336,1,140
336,336,12200,2,0,B|336:192,1,140
224,192,13000,1,0
112,192,13400,1,0
112,192,13800,1,0
320,256,14600,5,0
320,144,15000,1,0
320,144,15400,1,0
208,144,15800,1,0
208,144,16200,1,0
208,256,16600,1,0
208,256,17000,1,0
256,160,17400,5,0
224,48,17800,1,0
192,160,18200,1,0
160,48,18600,1,0
128,160,19000,5,0
160,272,19400,1,0
192,160,19800,1,0
224,272,20200,1,0
384,112,21000,5,4
224,112,21800,1,4
64,112,22600,2,4,B|64:288|272:256,1,280
400,256,24200,5,4
400,96,25000,1,4
400,256,25800,1,4
240,256,26600,1,4
128,112,27400,5,4
288,112,28200,1,4
448,112,29000,2,4,B|432:288|240:256,1,280
112,256,30600,5,4
112,96,31400,1,4
112,256,32200,1,4
272,256,33000,1,4
368,144,33800,5,4
368,304,34600,1,4
224,288,35400,2,4,B|80:304|-32:176|80:0,2,280
224,128,37800,5,0
384,128,38600,2,0,B|384:272,2,140
384,288,40200,5,0
224,288,41000,1,0
64,288,41800,2,0,B|64:144,2,140
256,192,43000,12,0,46600
256,112,61400,5,0
256,224,61800,1,0
256,336,62200,1,0
368,336,62600,2,2,B|432:272|368:208,1,140
272,208,63400,2,2,B|208:144|272:80,1,140
368,80,64200,1,0
368,192,64600,2,2,B|64:192,1,280
80,304,65800,5,0
80,192,66200,1,2
80,192,66600,1,2
80,80,67000,2,2,B|224:80,3,140
336,80,68600,5,0
336,192,69000,2,2,B|336:336,1,140
224,336,69800,1,2
224,224,70200,1,0
224,112,70600,2,2,B|288:32|464:32|512:160,1,280
384,160,71800,1,4
128,192,78600,6,0,B|416:192,2,280
224,144,80600,1,0
336,112,81000,1,0
448,80,81400,1,0
448,192,81800,6,0,B|448:336,1,140
336,336,82600,2,0,B|336:192,1,140
224,192,83400,1,0
112,192,83800,1,0
112,192,84200,1,0
320,256,85000,5,0
320,144,85400,1,0
320,144,85800,1,0
208,144,86200,1,0
208,144,86600,1,0
208,256,87000,1,0
208,256,87400,1,0
256,192,87800,12,0,90600
