osu file format v5

[General]
AudioFilename: 69 - The Ultimate Show.mp3
AudioLeadIn: 0
PreviewTime: -1
Countdown: 1
SampleSet: Soft
StackLeniency: 0.7
Mode: 0
LetterboxInBreaks: 1
EditorBookmarks: 8200,21000,37400,47000,59400,72200,78600,90600

[Metadata]
Title:The Ultimate Show
Artist:Super Paper Mario
Creator:krackocloud
Version:Hard
Source:Super Paper Mario
Tags:super, paper, mario, nintendo, wii

[Difficulty]
HPDrainRate:7
CircleSize:5
OverallDifficulty:7
SliderMultiplier:1.4
SliderTickRate:1

[Events]
//Background and Video events
//Break Periods
2,46800,60200
2,72000,77550
//Storyboard Layer 0 (Background)
//Storyboard Layer 1 (Failing)
//Storyboard Layer 2 (Passing)
//Storyboard Layer 3 (Foreground)
//Storyboard Sound Samples
//Background Colour Transformations
3,100,163,162,255

[TimingPoints]
8200,400,4,1,0,100,1
59400,400,4,2,0,100,1
78600,400,4,1,0,100,1

[HitObjects]
112,192,8200,6,0,B|400:192,2,280
80,304,10200,1,0
128,304,10400,1,0
176,304,10600,1,0
304,304,11000,1,0
416,304,11400,5,0
416,192,11800,1,0
304,192,12200,2,0,B|304:48,1,140
192,48,13000,1,0
192,160,13400,2,0,B|192:304,1,140
368,160,14600,5,0
368,48,15000,1,0
368,48,15400,1,0
256,48,15800,1,0
224,96,16000,1,0
192,48,16200,1,0
160,96,16400,1,0
128,144,16600,1,0
64,240,17000,1,0
176,240,17400,5,0
288,240,17800,1,0
416,240,18200,1,0
416,240,18600,1,0
416,128,19000,5,0
304,128,19400,1,0
192,128,19800,1,0
192,128,20200,1,0
400,48,21000,5,4
288,48,21400,1,0
224,48,21600,1,0
176,48,21800,1,4
64,48,22200,1,0
64,96,22400,1,0
64,160,22600,2,4,B|64:304,2,140
224,160,24000,5,0
272,160,24200,1,4
384,160,24600,1,0
384,208,24800,1,0
384,272,25000,1,4
272,272,25400,1,0
208,272,25600,1,0
160,272,25800,1,4
160,160,26200,1,0
272,160,26600,1,4
96,320,27400,5,4
208,320,27800,1,0
256,320,28000,1,0
320,320,28200,1,4
432,320,28600,1,0
432,256,28800,1,0
432,208,29000,2,4,B|432:64,2,140
320,80,30400,5,0
256,64,30600,1,4
160,112,31000,1,0
160,160,31200,1,0
160,224,31400,1,4
256,272,31800,1,0
304,256,32000,1,0
352,224,32200,1,4
352,112,32600,1,0
256,176,33000,1,4
80,320,33800,5,4
80,208,34200,1,0
112,160,34400,1,0
160,128,34600,1,4
272,128,35000,1,0
208,224,35400,2,0,B|208:320|464:320|416:192,2,280
400,128,37800,5,0
288,128,38200,1,0
176,128,38600,2,0,B|32:128,2,140
256,48,39800,5,0
256,160,40200,1,0
160,224,40600,1,0
256,272,41000,1,0
368,272,41400,1,0
448,192,41800,2,0,B|448:48,2,140
256,192,43000,12,0,46600
256,320,61400,5,0
256,256,61600,1,0
256,192,61800,1,2
256,80,62200,1,2
368,80,62600,5,2
368,80,62800,1,0
368,80,63000,1,2
368,192,63400,1,2
368,192,63600,1,0
368,192,63800,1,2
368,304,64200,5,2
256,304,64600,1,2
192,304,64800,1,0
128,304,65000,1,2
128,64,65800,5,0
240,64,66200,1,2
240,64,66400,1,0
240,64,66600,1,2
352,64,67000,5,2
368,112,67200,1,0
384,160,67400,1,2
400,208,67600,1,0
416,256,67800,1,2
304,256,68200,1,2
256,160,68600,5,0
144,144,69000,2,2,B|144:288,2,140
256,160,70200,1,0
368,144,70600,2,2,B|368:288,2,140
256,96,71800,1,4
400,192,78600,6,0,B|112:192,2,280
432,304,80600,1,0
384,304,80800,1,0
336,304,81000,1,0
208,304,81400,1,0
96,304,81800,5,0
96,192,82200,1,0
208,192,82600,2,0,B|208:48,1,140
320,48,83400,1,0
320,160,83800,2,0,B|320:304,1,140
144,160,85000,5,0
144,48,85400,1,0
144,48,85800,1,0
256,48,86200,1,0
288,96,86400,1,0
320,48,86600,1,0
352,96,86800,1,0
384,144,87000,1,0
448,240,87400,1,0
256,192,87800,12,0,90600
