osu file format v4

[General]
AudioFilename: 09 - Dire, Dire Docks Theme.mp3
AudioLeadIn: 0
AudioHash: 721271b9b52b5c5c5bfbd347ad110c4f
PreviewTime: -1
SampleSet: Soft

[Metadata]
Title:Dire, Dire Docks Theme
Artist:Super Mario 64
Creator:Bonesnake
Version:easy

[Difficulty]
HPDrainRate:3
CircleSize:5
OverallDifficulty:4
SliderMultiplier: 1.4
SliderTickRate: 2

[Events]
1,0,"deep sea - 1.avi"
2,106597,117580
2,153509,163080

[TimingPoints]
370,434.404865334492,4,2,0

[Colours]
Combo1 : 13,242,219
Combo2 : 26,10,226
Combo3 : 71,201,87
Combo4 : 143,65,173

[HitObjects]
32,128,7320,1,0
128,128,7754,1,0
128,128,7972,1,0
128,224,8406,1,0
256,320,9058,1,0
352,320,9492,1,0
352,320,9709,1,2
448,64,10795,5,0
352,64,11230,1,0
352,64,11447,1,0
352,160,11881,1,0
256,288,12533,1,2
160,288,12967,1,0
160,288,13184,1,2
256,32,14270,5,0
160,32,14705,1,0
160,32,14922,1,0
64,32,15356,1,2
64,192,16008,1,0
64,288,16442,1,0
64,288,16660,1,2
416,352,17746,5,0
416,256,18180,1,0
416,256,18397,1,0
416,160,18832,1,2
256,160,19483,1,0
160,160,19918,1,0
160,160,20135,1,2
256,288,20787,5,0
192,128,21438,2,2,B|192:128|256:64|352:128,3,140
480,160,23393,5,0
480,256,23827,1,0
416,320,24262,1,0
320,320,24696,1,0
224,320,25131,1,0
224,320,25348,1,2
64,320,25999,5,0
64,224,26434,1,2
160,224,26868,1,2
160,224,27085,1,0
384,192,27954,6,2,B|384:192|448:256|416:352,2,140
384,96,29257,1,0
288,96,29692,1,0
64,128,31864,6,2,B|64:128|0:192|64:288,3,140
192,256,33819,5,0
288,256,34253,1,0
384,256,34688,1,0
480,256,35122,1,0
448,160,35557,1,0
448,160,35774,1,2
352,32,36425,5,0
256,32,36859,1,0
160,32,37294,1,0
160,32,37511,1,2
160,256,38380,6,0,B|160:256|384:256,1,210
384,96,39683,1,0
384,96,40118,1,0
224,352,42724,6,0,B|224:352|384:352,2,140
32,352,44462,1,0
288,32,46199,6,0,B|288:32|128:32,2,140
480,32,47937,1,0
192,224,49674,6,0,B|192:224|352:224,2,140
256,32,51412,1,0
256,320,52498,5,0
256,96,53367,5,0
256,192,53801,1,0
256,352,54670,1,0
256,256,55105,1,0
32,128,56191,6,0,B|32:128|160:32|256:0|480:160,1,490
480,256,58145,1,0
384,256,58580,1,0
288,256,59014,1,0
192,256,59449,6,2,B|192:256|192:32,1,210
384,32,61186,2,2,B|384:32|384:256,1,210
160,288,62707,6,2,B|160:288|96:192|160:64,1,210
320,96,64010,1,2
320,96,64444,1,2
32,32,66399,6,0,B|32:32|448:320,1,490
480,352,68137,2,0,B|480:352|480:32|160:32,1,490
128,32,69874,2,0,B|128:32|3:157|32:352|288:352,1,490
352,352,71612,2,0,B|352:352|480:320|512:192|480:32|352:0|192:32,1,560
128,32,73784,1,2
32,32,75087,6,0,B|32:32|258:305|512:32,1,560
480,224,77476,5,0
384,224,77911,1,0
288,224,78345,1,0
288,128,78780,6,0,B|288:128|128:128,1,140
160,32,79648,6,0,B|160:32|0:32,1,140
96,256,80952,5,0
192,256,81386,1,0
288,256,81820,1,0
384,256,82255,1,0
384,160,82689,6,2,B|384:160|384:63|295:2|160:32,1,280
288,288,84427,5,0
192,288,84861,1,0
192,192,85296,1,0
288,192,85730,1,0
288,96,86164,1,0
192,96,86599,1,0
256,192,87250,12,0,89857
256,192,90726,12,0,93332
256,192,94201,12,0,97242
0,320,99414,6,0,B|0:320|307:454|512:192,1,560
416,160,101586,1,0
352,96,102020,1,0
288,160,102455,1,0
352,224,102889,1,0
288,288,103323,1,0
224,224,103758,1,0
160,160,104192,1,0
224,96,104627,5,2
288,160,105061,1,2
352,224,105495,1,2
288,288,105930,1,2
224,352,106364,5,2
32,192,118745,6,0,B|32:192|256:384|480:192,1,490
480,96,120700,5,0
384,96,121134,1,0
384,192,121569,1,0
384,288,122003,1,0
288,288,122438,1,0
288,288,122655,1,2
288,128,123306,5,0
192,128,123740,1,0
96,128,124175,1,0
96,128,124392,1,2
96,224,124826,6,0,B|96:224|256:352|448:224,1,350
448,96,126564,5,0
480,192,126999,2,0,B|480:192|243:368|0:160,1,490
32,96,128953,5,0
256,128,129822,5,0
256,224,130257,1,2
256,320,130691,1,2
416,352,131343,6,0,B|416:352|522:207|384:0,1,350
192,32,133297,5,0
96,32,133732,1,0
96,128,134166,1,0
96,288,134818,6,0,B|96:288|226:480|384:256,1,350
480,64,136772,5,0
384,64,137207,1,0
288,64,137641,2,0,B|288:64|170:154|288:256,1,210
448,224,138945,5,0
448,320,139379,1,0
352,320,139813,1,0
256,320,140248,2,0,B|256:320|96:320|69:242|64:160,1,280
64,64,141551,1,0
160,64,141985,1,0
480,192,143071,6,0,B|480:192|317:35|187:32|64:192,1,490
64,288,145026,1,0
160,288,145461,1,2
256,288,145895,1,0
352,288,146330,1,0
352,192,146764,1,0
352,192,146981,1,2
192,192,147633,5,0
96,192,148067,1,0
96,96,148502,1,0
96,96,148719,1,2
480,192,149805,5,0
384,192,150239,1,0
384,320,150891,5,0
288,320,151325,2,2,B|288:320|160:320|-4:257|0:128,1,350
96,160,152846,1,2
192,160,153280,1,2
32,160,164357,5,0
128,160,164792,1,0
224,160,165226,1,0
224,256,165661,6,0,B|224:256|384:256,1,140
352,352,166529,6,0,B|352:352|512:352,1,140
416,128,167833,5,0
320,128,168267,1,0
224,128,168701,1,0
128,128,169136,1,0
128,224,169570,6,2,B|128:224|128:320|160:352|256:352|352:352,1,280
224,96,171308,5,0
320,96,171742,1,0
320,192,172177,1,0
224,192,172611,1,0
224,288,173045,1,0
320,288,173480,1,0
256,192,174131,12,0,177607
