osu file format v9

[General]
AudioFilename: 1.mp3
AudioLeadIn: 0
PreviewTime: 57725
Countdown: 0
SampleSet: Normal
StackLeniency: 0.7
Mode: 0
LetterboxInBreaks: 1

[Editor]
DistanceSpacing: 0.8
BeatDivisor: 4
GridSize: 8

[Metadata]
Title:Super Girl (Chinese Version)
Artist:Super Junior-M
Creator:JauiPlaY
Version:Normal
Source:
Tags:sj sjm k-pop

[Difficulty]
HPDrainRate:5
CircleSize:3
OverallDifficulty:5
ApproachRate:5
SliderMultiplier:1.6
SliderTickRate:1

[Events]
//Background and Video events
0,0,"bg2.jpg"
//Break Periods
2,88665,102625
2,150105,161905
//Storyboard Layer 0 (Background)
//Storyboard Layer 1 (Fail)
//Storyboard Layer 2 (Pass)
//Storyboard Layer 3 (Foreground)
//Storyboard Sound Samples
//Background Colour Transformations
3,100,163,162,255

[TimingPoints]
3985.79527559055,480,4,1,0,80,1,0
40705,-100,4,1,0,50,0,0
41905,-100,4,1,0,80,0,0
57745,-100,4,1,0,80,0,1
73105,-100,4,1,0,80,0,0
73225,-100,4,2,0,80,0,0
80665,-100,4,1,0,80,0,0
119185,-100,4,1,0,80,0,1
134545,-100,4,1,0,80,0,0
165265,-100,4,1,0,80,0,1
180505,-100,4,1,0,80,0,0
180625,-100,4,1,0,80,0,1
195865,-100,4,1,0,80,0,0
195985,-100,4,1,0,80,0,1
196105,-100,4,1,0,80,0,0

[Colours]
Combo1 : 255,255,128
Combo2 : 128,255,128
Combo3 : 128,255,255
Combo4 : 255,128,255

[HitObjects]
256,192,27025,1,0
256,192,27505,1,0
384,192,27985,2,0,B|384:280,2,80
344,72,28945,2,0,B|152:72,1,160
152,128,29665,1,0
184,184,29905,2,0,B|360:184,1,160
376,312,30865,6,0,B|432:336|504:296|480:208,1,160
472,176,31585,1,0
408,192,31825,2,0,B|357:170|285:210|304:269,1,160
256,312,32545,1,0
207,268,32785,2,0,B|226:210|154:170|104:192,1,160
40,176,33505,1,0
27,236,33745,2,0,B|8:296|80:336|136:312,1,160
220,223,34705,6,0,B|257:191|296:227,1,80
356,232,35185,2,0,B|366:314|293:351|188:349|144:291|156:222,1,320
220,118,36625,2,0,B|257:86|296:122,1,80
355,125,37105,2,0,B|365:43|292:6|187:8|143:66|155:135,1,320
40,192,38545,5,0
104,192,38785,2,0,B|128:248|192:256,1,80
216,272,39265,2,0,B|246:272|270:216,1,80
242,165,39745,2,0,B|265:111|296:112,1,80
353,136,40225,2,0,B|384:136|408:192,1,80
256,192,40705,12,0,41905
256,192,42385,6,0,B|328:256|404:190,1,160,6|0
312,96,43345,2,0,B|256:56|200:96,2,120,2|0|0
330,157,44305,1,2
330,157,44785,1,0
248,256,45265,2,0,B|303:295|359:255,2,120,2|2|2
256,192,46225,6,0,B|184:128|108:194,1,160,2|0
200,288,47185,2,0,B|256:328|312:288,2,120,2|0|0
182,227,48145,1,2
182,227,48625,1,0
272,136,49105,2,0,B|216:96|160:136,2,120,2|2|2
328,176,50065,6,0,B|392:248|326:324,1,160,2|0
208,272,51025,2,0,B|80:272,2,120,2|0|0
184,208,51985,2,0,B|120:136|186:60,1,160,2|0
304,112,52945,2,0,B|432:112,2,120,2|2|2
240,112,53905,5,2
256,240,54385,1,2
128,248,54865,1,2
192,176,55225,1,2
112,120,55585,1,2
136,176,55825,5,2
152,304,56305,1,2
24,312,56785,2,0,B|48:232,1,80,2|2
8,184,57265,2,0,B|16:96,1,80,2|0
40,48,57745,5,4
168,80,58225,1,8
160,208,58705,2,0,B|176:304,2,80,0|0|8
288,208,59665,1,0
408,160,60145,1,8
488,64,60625,2,0,B|416:-8,3,80,0|0|8|0
376,40,61585,5,0
256,80,62065,2,0,B|208:168,1,80,8|0
168,112,62545,1,0
288,160,63025,1,8
376,256,63505,5,0
248,256,63985,2,0,B|328:296,1,80,8|0
376,256,64465,2,0,B|456:240,1,80,0|8
432,176,64945,2,0,B|496:104,1,80,8|0
456,56,65425,6,0,B|368:8|296:72,1,160,4|8
280,120,66145,1,0
296,184,66385,2,0,B|216:216|192:312,1,160,0|8
136,184,67345,2,0,B|136:264,3,80,0|0|8|0
136,328,68305,2,0,B|51:307|19:227,1,160,0|8
64,112,69265,5,0
184,64,69745,1,8
304,112,70225,1,0
280,240,70705,2,0,B|192:272,1,80,8|0
152,232,71185,5,0
200,112,71665,1,8
320,160,72145,1,0
320,224,72385,1,0
288,280,72625,2,0,B|272:360,2,80,8|0|4
96,56,74545,5,0
136,176,75025,1,0
240,248,75505,1,0
368,232,75985,1,0
416,112,76465,5,0
304,48,76945,1,0
185,100,77425,1,0
174,228,77905,1,0
249,330,78385,5,0
376,336,78865,1,0
456,240,79345,1,0
384,136,79825,2,0,B|360:216,1,80
296,200,80305,2,0,B|248:264,1,80,8|0
192,304,80785,5,0
128,192,81265,1,8
192,80,81745,2,0,B|112:80,2,80,0|0|8
320,80,82705,1,0
384,192,83185,1,8
320,304,83665,2,0,B|424:304,3,80,0|0|8|0
464,304,84625,5,0
400,192,85105,1,8
281,133,85585,2,0,B|213:65,2,80,0|0|8
230,250,86545,2,0,B|298:318,2,80,0|0|8
112,192,87505,1,0
48,80,87985,1,8
48,80,88465,1,4
256,192,103825,6,0,B|184:128|108:194,1,160,6|0
184,296,104785,2,0,B|240:336|296:296,2,120,2|0|0
120,296,105745,1,2
48,192,106225,1,0
48,64,106705,2,0,B|104:23|159:62,2,120,2|2|2
48,128,107665,6,0,B|120:192|196:126,1,160,2|0
312,184,108625,2,0,B|352:128|312:72,2,120,2|0|0
248,184,109585,1,2
120,184,110065,1,0
64,304,110545,2,0,B|120:344|176:304,2,120,2|2|2
16,264,111505,6,0,B|-48:192|18:116,1,160,2|0
144,144,112465,2,0,B|272:144,2,120,2|0|0
104,192,113425,2,0,B|168:264|102:340,1,160,2|0
232,304,114385,2,0,B|288:192,2,120,2|2|2
288,336,115345,5,2
384,256,115825,1,2
256,256,116305,1,2
328,192,116665,1,2
240,160,117025,1,2
176,160,117265,5,2
272,72,117745,1,2
400,72,118225,2,0,B|480:112,1,80,2|2
432,160,118705,2,0,B|480:232,1,80,2|0
448,280,119185,5,4
328,320,119665,1,8
198,297,120145,2,0,B|158:193,1,80
120,184,120625,1,8
24,96,121105,6,0,B|104:128,1,80
120,184,121585,2,0,B|192:240,1,80,8|0
232,192,122065,2,0,B|296:136|392:168,1,160,0|8
280,88,123025,6,0,B|254:175|312:237,1,160,0|8
376,256,123745,1,0
400,312,123985,2,0,B|338:369|251:343,1,160,0|8
136,296,124945,2,0,B|72:232,1,80
128,192,125425,2,0,B|96:104,1,80,8|0
144,72,125905,1,0
192,112,126145,2,0,B|248:24,2,80,8|8|0
232,160,126865,5,4
104,152,127345,1,8
202,232,127825,1,0
121,330,128305,1,8
24,249,128785,5,0
48,189,129025,1,0
104,152,129265,2,0,B|200:176,1,80,8|0
202,232,129745,2,0,B|288:240,1,80
280,304,130225,2,0,B|440:288,1,160,8|0
392,168,131185,5,8
312,72,131665,1,0
184,40,132145,2,0,B|120:88,2,80,8|0|0
232,160,133105,1,8
216,288,133585,2,0,B|128:272,1,80
128,208,134065,2,0,B|64:128,1,80,8|0
32,104,134545,5,4
152,64,135025,1,0
272,96,135505,2,0,B|312:208,2,120
224,144,136465,1,0
352,152,136945,1,0
472,112,137425,2,0,B|472:224,3,80
472,256,138385,5,0
360,200,138865,1,0
248,264,139345,2,0,B|120:304,2,120
296,312,140305,1,0
360,200,140785,1,0
232,184,141265,2,0,B|144:136,3,80
96,160,142225,5,0
136,280,142705,2,0,B|208:320,1,80
248,368,143185,1,0
288,248,143665,2,0,B|360:208,1,80
376,144,144145,2,0,B|272:152|224:64,3,160
184,48,145825,2,0,B|160:136,1,80
256,192,146305,12,4,149905
256,192,163105,12,0,164785
256,192,165265,5,4
128,176,165745,1,8
56,72,166225,2,0,B|136:32,2,80,0|0|8
168,136,167185,2,0,B|216:208|200:296,1,160,0|8
256,320,167905,1,0
296,272,168145,2,0,B|368:232,2,80,0|0|8
408,336,169105,5,0
472,224,169585,2,0,B|424:144,1,80,8|0
456,96,170065,1,0
328,80,170545,1,8
456,96,171025,6,0,B|360:128,1,80
328,80,171505,2,0,B|256:136,1,80,8|0
200,120,171985,2,0,B|100:149|24:66,1,160,0|8
168,48,172945,6,0,B|85:111|108:221,1,160,4|8
160,216,173665,1,0
224,200,173905,2,0,B|206:302|298:368,1,160,0|8
400,320,174865,2,0,B|472:272,3,80,0|0|8|0
488,216,175825,2,0,B|410:205|381:105,1,160,0|8
256,72,176785,5,0
152,152,177265,1,8
256,232,177745,1,0
152,312,178225,2,0,B|240:312,1,80,8|0
296,312,178705,5,0
400,232,179185,1,8
296,152,179665,2,0,B|392:120,1,80
400,72,180145,2,0,B|472:16,1,80,8|0
496,80,180625,5,4
472,208,181105,1,8
344,176,181585,2,0,B|360:272,2,80,0|0|8
304,296,182545,2,0,B|248:224|144:240,1,160,0|8
120,360,183505,2,0,B|120:272,3,80,0|0|8|0
64,248,184465,5,0
168,176,184945,1,8
208,56,185425,2,0,B|296:96,2,80,0|0|8
288,152,186385,2,0,B|370:201|452:143,1,160,0|8
488,32,187345,2,0,B|488:136,3,80,0|8|0|8
488,176,188305,5,4
448,296,188785,2,0,B|368:328,1,80,8|0
312,304,189265,1,0
208,232,189745,1,8
104,304,190225,2,0,B|180:241|161:147,1,160,0|8
88,64,191185,2,0,B|168:104,3,80,0|0|8|0
224,96,192145,5,0
328,176,192625,1,8
432,96,193105,1,0
328,176,193585,1,8
288,296,194065,2,0,B|211:328|137:270,1,160,0|8
160,144,195025,2,0,B|208:72,3,80,0|8|0|8
264,104,195985,1,4
