osu file format v9

[General]
AudioFilename: 1.mp3
AudioLeadIn: 0
PreviewTime: 57725
Countdown: 0
SampleSet: Soft
StackLeniency: 0.7
Mode: 0
LetterboxInBreaks: 1

[Editor]
DistanceSpacing: 1.1
BeatDivisor: 2
GridSize: 8

[Metadata]
Title:Super Girl (Chinese Version)
Artist:Super Junior-M
Creator:JauiPlaY
Version:Easy
Source:
Tags:sj sjm k-pop

[Difficulty]
HPDrainRate:2
CircleSize:3
OverallDifficulty:2
ApproachRate:3
SliderMultiplier:1
SliderTickRate:1

[Events]
//Background and Video events
0,0,"bg3.jpg"
//Break Periods
2,88665,102385
2,150105,163825
//Storyboard Layer 0 (Background)
//Storyboard Layer 1 (Fail)
//Storyboard Layer 2 (Pass)
//Storyboard Layer 3 (Foreground)
//Storyboard Sound Samples
//Background Colour Transformations
3,100,163,162,255

[TimingPoints]
3985.79527559055,480,4,1,0,80,1,0
57745,-100,4,1,0,80,0,1
62065,-100,4,1,2,60,0,1
62185,-100,4,1,0,80,0,1
63985,-100,4,1,2,60,0,1
64105,-100,4,1,0,80,0,1
69745,-100,4,1,2,60,0,1
69865,-100,4,1,0,80,0,1
71665,-100,4,1,2,60,0,1
71785,-100,4,1,0,80,0,1
73105,-100,4,1,0,80,0,0
73225,-100,4,2,0,100,0,0
80785,-100,4,1,0,80,0,0
83185,-100,4,1,2,60,0,0
83305,-100,4,1,0,80,0,0
87025,-100,4,1,2,60,0,0
87145,-100,4,1,0,80,0,0
119185,-100,4,1,0,80,0,1
123505,-100,4,1,2,60,0,1
123625,-100,4,1,0,80,0,1
125425,-100,4,1,2,60,0,1
125545,-100,4,1,0,80,0,1
131185,-100,4,1,2,60,0,1
131305,-100,4,1,0,80,0,1
133105,-100,4,1,2,60,0,1
133225,-100,4,1,0,80,0,1
134545,-100,4,1,0,80,0,0
165265,-100,4,1,0,80,0,1
169585,-100,4,1,2,60,0,1
169705,-100,4,1,0,80,0,1
171505,-100,4,1,2,60,0,1
171625,-100,4,1,0,80,0,1
177265,-100,4,1,2,60,0,1
177385,-100,4,1,0,80,0,1
179185,-100,4,1,2,60,0,1
179305,-100,4,1,0,80,0,1
180505,-100,4,1,0,80,0,0
180625,-100,4,1,0,80,0,1
195865,-100,4,1,0,80,0,0
195985,-100,4,1,0,80,0,1
196105,-100,4,1,0,80,0,0

[Colours]
Combo1 : 255,255,128
Combo2 : 128,255,128
Combo3 : 128,255,255
Combo4 : 255,128,255

[HitObjects]
256,192,27025,1,0
144,184,27505,1,0
72,104,27985,2,0,B|104:56|160:40,1,100
256,40,28945,2,0,B|368:40|456:96|464:216,1,300
448,320,30865,6,0,B|400:344|344:328,1,100
320,224,31825,2,0,B|272:200|216:216,1,100
248,320,32785,2,0,B|136:320|48:264|40:144,1,300
112,64,34705,5,0
184,152,35185,1,0
296,152,35665,2,0,B|304:200|296:256,1,100
192,280,36625,5,0
288,336,37105,1,0
400,320,37585,2,0,B|392:272|400:216,1,100
360,120,38545,6,0,B|400:80,2,50
248,128,39505,2,0,B|200:176,2,50
152,72,40465,5,0
152,72,40945,1,0
72,144,41425,2,0,B|56:256|120:344,1,200,0|6
216,288,42865,5,2
320,320,43345,2,0,B|376:336|376:336|432:328,2,100,2|2|2
216,128,45265,2,2,B|328:96|416:160,1,200
352,248,46705,5,2
264,312,47185,2,0,B|248:256|248:256|256:200,2,100,2|2|2
56,232,49105,2,2,B|114:152|82:40,1,200
176,104,50545,5,2
240,192,51025,2,0,B|248:296,1,100,2|2
352,312,51985,1,2
472,128,52945,2,2,B|392:70|280:102,1,200
168,96,54385,6,0,B|176:152|144:200,1,100,2|2
120,296,55345,1,2
224,320,55825,2,0,B|328:288,1,100,2|2
272,192,56785,2,0,B|360:128,1,100,2|2
405,36,57745,5,4
296,24,58225,1,8
184,40,58705,2,0,B|174:96|136:137,1,100,0|8
120,240,59665,6,0,B|80:200|8:200,2,100,0|8|0
192,320,61105,1,8
304,328,61585,6,0,B|416:306|492:239|485:120,1,300,0|8
448,24,63505,2,0,B|335:45|259:112|266:231,1,300,0|8
160,248,65425,5,4
64,192,65905,2,0,B|112:88,1,100,8|0
216,88,66865,1,8
280,176,67345,6,0,B|376:232,2,100,0|8|0
272,288,68785,1,8
168,328,69265,6,0,B|208:184|88:176|120:32,1,300,0|8
224,80,71185,2,0,B|353:128|294:233|437:278,1,300,0|8
480,176,73105,1,4
150,70,74545,6,0,B|118:118|126:174,1,100
224,152,75505,2,0,B|230:198|198:246,1,100
312,246,76465,6,0,B|281:198|288:152,1,100
362,70,77425,2,0,B|394:118|386:174,1,100
400,272,78385,6,0,B|360:320|296:312,1,100
200,312,79345,2,0,B|152:318|112:270,2,100,0|0|8
256,216,80785,5,0
184,136,81265,2,0,B|129:103|84:142,1,100,8|0
136,240,82225,1,8
120,352,82705,2,0,B|201:273|315:276|391:356,1,300,0|8
376,240,84625,5,0
421,136,85105,2,0,B|376:104|328:136,1,100,8|0
256,216,86065,1,8
212,115,86545,2,0,B|160:53|204:-33|317:-28|360:60|284:131,1,300,0|8
256,216,88465,5,4
312,224,103825,6,0,B|256:192|256:192|248:136,1,100,6|2
192,64,104785,2,0,B|136:48|136:48|80:56,2,100,2|2|2
296,256,106705,2,2,B|184:288|96:224,1,200
160,136,108145,5,2
248,72,108625,2,0,B|264:128|264:128|256:184,2,100,2|2|2
456,152,110545,2,2,B|398:232|430:344,1,200
336,280,111985,5,2
272,192,112465,2,0,B|264:88,1,100,2|2
160,72,113425,1,2
40,256,114385,2,2,B|120:314|232:282,1,200
344,288,115825,6,0,B|336:232|368:184,1,100,2|2
392,88,116785,1,2
288,64,117265,2,0,B|184:96,1,100,2|2
240,192,118225,2,0,B|152:256,1,100,2|2
107,347,119185,5,4
216,360,119665,1,8
328,344,120145,2,0,B|338:288|376:247,1,100,0|8
392,144,121105,6,0,B|432:184|504:184,2,100,0|8|0
320,64,122545,1,8
208,56,123025,6,0,B|96:78|20:145|27:264,1,300,0|8
120,320,124945,2,0,B|96:240|96:149|200:128|288:144,1,300,0|8
376,104,126865,5,4
448,192,127345,2,0,B|400:296,1,100,8|0
296,296,128305,1,8
232,208,128785,6,0,B|136:152,2,100,0|8|0
240,96,130225,1,8
336,40,130705,6,0,B|336:176|264:176|264:336,1,300,0|8
160,304,132625,2,0,B|159:152|231:152|231:16,1,300,0|8
128,56,134545,1,4
64,144,135025,5,0
112,240,135505,2,0,B|144:280|144:280|176:280|176:280|200:296,1,100
288,336,136465,5,0
368,264,136945,1,0
472,296,137425,2,0,B|480:240|472:176,1,100
448,88,138385,6,0,B|472:32,2,50
360,152,139345,1,0
256,112,139825,1,0
160,168,140305,6,0,B|112:176,2,50
120,272,141265,2,0,B|168:304|232:296,1,100
320,256,142225,1,0
408,328,142705,5,0
456,224,143185,2,0,B|440:176|448:120,1,100
360,56,144145,2,0,B|345:101|299:86|284:132,1,100
248,224,145105,2,0,B|258:260|304:245|319:291,2,100
256,192,146545,12,4,149905
256,192,165265,5,4
264,80,165745,1,8
168,32,166225,2,0,B|158:88|120:129,1,100,0|8
120,232,167185,6,0,B|80:192|8:192,2,100,0|8|0
192,320,168625,1,8
304,328,169105,6,0,B|416:306|492:239|485:120,1,300,0|8
448,24,171025,2,0,B|335:45|259:112|266:231,1,300,0|8
160,248,172945,5,4
64,192,173425,2,0,B|136:112,1,100,8|0
240,128,174385,1,8
296,224,174865,6,0,B|392:280,2,100,0|8|0
200,280,176305,1,8
96,304,176785,6,0,B|88:195|183:103|302:140,1,300,0|8
264,248,178705,2,0,B|370:281|465:189|458:81,1,300,0|8
352,56,180625,5,4
256,104,181105,1,8
144,112,181585,2,0,B|120:168,2,50,0|0|8
192,208,182545,6,0,B|248:208|304:248,1,100,0|8
320,344,183505,2,0,B|264:344|208:304,1,100,0|8
120,288,184465,5,0
192,208,184945,1,8
304,192,185425,2,0,B|312:128,2,50,0|0|8
400,136,186385,6,0,B|424:184|400:248,1,100,0|8
304,192,187345,2,0,B|280:144|304:80,1,100,0|8
200,40,188305,5,4
112,112,188785,1,8
16,64,189265,1,0
112,112,189745,2,0,B|104:168|112:224,1,100,8|0
120,320,190705,5,8
224,280,191185,2,0,B|272:312,2,50,0|0|8
232,168,192145,5,0
296,80,192625,1,8
400,40,193105,2,0,B|416:104,2,50,0|0|8
416,152,194065,6,0,B|392:208|328:200,1,100,0|8
224,216,195025,2,0,B|168:208|144:264,1,100,0|8
40,280,195985,1,4
