osu file format v12

[General]
AudioFilename: Super Junior-M - Break Down.MP3
AudioLeadIn: 0
PreviewTime: 34970
Countdown: 0
SampleSet: Normal
StackLeniency: 0.7
Mode: 0
LetterboxInBreaks: 1
WidescreenStoryboard: 0

[Editor]
DistanceSpacing: 1
BeatDivisor: 2
GridSize: 4

[Metadata]
Title:Break Down (Chinese Version)
TitleUnicode:Break Down (Chinese Version)
Artist:Super Junior-M
ArtistUnicode:Super Junior-M
Creator:GrayKaiser82
Version:Easy
Source:
Tags:sjm kpop veelahee104
BeatmapID:244194
BeatmapSetID:80299

[Difficulty]
HPDrainRate:1
CircleSize:3
OverallDifficulty:1
ApproachRate:3
SliderMultiplier:0.9
SliderTickRate:1

[Events]
//Background and Video events
Video,0,"SJMBDCV.avi"
0,0,"BG (1).jpg",0,0
//Break Periods
2,66092,79221
2,139939,151221
//Storyboard Layer 0 (Background)
//Storyboard Layer 1 (Fail)
//Storyboard Layer 2 (Pass)
//Storyboard Layer 3 (Foreground)
//Storyboard Sound Samples
//Background Colour Transformations
3,100,128,128,128

[TimingPoints]
21586,461.538461538462,4,1,0,100,1,0
21586,-100,4,2,0,45,0,0
22278,-100,4,2,0,40,0,0
22970,-100,4,2,0,37,0,0
24816,-100,4,2,0,40,0,0
25970,-100,4,2,0,37,0,0
26662,-100,4,2,0,34,0,0
28970,-100,4,2,0,50,0,0
29893,-100,4,2,0,45,0,0
30816,-100,4,2,0,50,0,0
31739,-100,4,2,0,35,0,0
36355,-100,4,1,0,70,0,1
40047,-100,4,1,0,60,0,1
40509,-100,4,1,0,55,0,1
40970,-100,4,1,0,60,0,1
41432,-100,4,1,0,65,0,1
47201,-100,4,1,0,70,0,1
47662,-100,4,1,0,50,0,1
48124,-100,4,1,0,70,0,1
48586,-100,4,1,0,50,0,1
49047,-100,4,1,0,60,0,1
51124,-100,4,1,0,40,0,1
51586,-100,4,1,0,50,0,1
52047,-100,4,2,0,30,0,1
52970,-100,4,1,0,60,0,1
54816,-100,4,1,0,60,0,1
55278,-100,4,1,0,50,0,1
55739,-100,4,1,0,60,0,1
56201,-100,4,1,0,70,0,1
58739,-100,4,1,0,30,0,1
58970,-100,4,1,0,65,0,1
61970,-100,4,1,0,70,0,1
62432,-100,4,1,0,50,0,1
62893,-100,4,1,0,70,0,1
63355,-100,4,1,0,50,0,1
63816,-100,4,1,0,70,0,1
64047,-100,4,1,0,70,0,0
65893,-100,4,1,0,50,0,0
80662,-100,4,2,0,45,0,0
82509,-100,4,2,0,47,0,0
84355,-100,4,2,0,45,0,0
86201,-100,4,2,0,47,0,0
87586,-100,4,2,0,45,0,0
89432,-100,4,2,0,40,0,0
89893,-100,4,2,0,38,0,0
90355,-100,4,2,0,36,0,0
91739,-100,4,2,0,45,0,0
93586,-100,4,2,0,20,0,0
95432,-100,4,1,0,60,0,1
99124,-100,4,1,0,65,0,1
99586,-100,4,1,0,55,0,1
100047,-100,4,1,0,60,0,1
100509,-100,4,1,0,55,0,1
101432,-100,4,1,0,65,0,1
106278,-100,4,1,0,70,0,1
106739,-100,4,1,0,60,0,1
107201,-100,4,1,0,70,0,1
107662,-100,4,1,0,60,0,1
108124,-100,4,1,0,70,0,1
110201,-100,4,1,0,40,0,1
110662,-100,4,1,0,60,0,1
111124,-100,4,2,0,50,0,1
112047,-100,4,1,0,50,0,1
113893,-100,4,1,0,60,0,1
114355,-100,4,1,0,50,0,1
114816,-100,4,1,0,60,0,1
115278,-100,4,1,0,55,0,1
117816,-100,4,1,0,35,0,1
118047,-100,4,1,0,60,0,1
121047,-100,4,1,0,50,0,1
121509,-100,4,1,0,60,0,1
121970,-100,4,1,0,50,0,1
122432,-100,4,1,0,60,0,1
123124,-100,4,1,0,60,0,0
124970,-100,4,1,0,60,0,0
128662,-100,4,1,0,65,0,0
129586,-100,4,1,0,45,0,0
130509,-100,4,1,0,65,0,0
131432,-100,4,1,0,45,0,0
132816,-100,4,1,0,60,0,0
136047,-100,4,1,0,65,0,0
136970,-100,4,1,0,45,0,0
137893,-100,4,1,0,65,0,0
138816,-100,4,1,0,45,0,0
139739,-100,4,1,0,70,0,0
156355,-100,4,2,0,35,0,0
160047,-100,4,2,0,40,0,0
160509,-100,4,2,0,35,0,0
160970,-100,4,2,0,40,0,0
161432,-100,4,2,0,30,0,0
162355,-100,4,2,0,40,0,0
167201,-100,4,2,0,44,0,0
167662,-100,4,2,0,48,0,0
168124,-100,4,2,0,52,0,0
168586,-100,4,2,0,56,0,0
169047,-100,4,2,0,20,0,0
171124,-100,4,1,0,80,0,1
174816,-100,4,1,0,75,0,1
175278,-100,4,1,0,70,0,1
175739,-100,4,1,0,75,0,1
176201,-100,4,1,0,70,0,1
181970,-100,4,1,0,80,0,1
182432,-100,4,1,0,70,0,1
182893,-100,4,1,0,80,0,1
183355,-100,4,1,0,70,0,1
183816,-100,4,1,0,80,0,1
185893,-100,4,1,0,50,0,1
186355,-100,4,1,0,80,0,1
186816,-100,4,1,0,70,0,1
187278,-100,4,1,0,80,0,1
193278,-100,4,1,0,50,0,1
193739,-100,4,1,0,80,0,1
194201,-100,4,1,0,70,0,1
194662,-100,4,1,0,80,0,1
196970,-100,4,1,0,80,0,0
197893,-100,4,1,0,100,0,0
198816,-100,4,1,0,60,0,0
200662,-100,4,2,0,20,0,0

[Colours]
Combo1 : 192,202,201
Combo2 : 109,128,142
Combo3 : 234,234,234
Combo4 : 185,231,253

[HitObjects]
56,256,21584,1,2,0:0:0:0:
108,184,22046,1,0,0:0:0:0:
156,260,22508,1,2,0:0:0:0:
212,188,22969,1,0,0:0:0:0:
264,260,23431,2,0,P|376:248|400:160,1,180,2|2,0:0|0:0,0:0:0:0:
312,184,24815,6,2,P|300:92|220:60,1,180,0|0,0:0|0:0,0:0:0:0:
228,148,26200,1,2,0:0:0:0:
144,112,26661,1,0,0:0:0:0:
152,200,27123,2,0,P|128:296|188:352,1,180,2|2,0:0|0:0,0:0:0:0:
240,284,28508,5,0,0:0:0:0:
304,348,28969,2,0,P|354:295|330:199,1,180,2|2,0:0|0:0,0:0:0:0:
244,176,30354,1,0,0:0:0:0:
196,100,30815,1,2,0:0:0:0:
288,100,31277,1,0,0:0:0:0:
376,100,31738,1,2,0:0:0:0:
420,180,32200,6,0,L|368:264,1,90,0|2,0:0|0:0,0:0:0:0:
292,220,33124,2,0,L|208:292,1,90,0|2,0:0|0:0,0:0:0:0:
148,228,34047,2,0,L|44:248,1,90,0|2,0:0|0:0,0:0:0:0:
376,72,36354,5,4,0:0:0:0:
320,140,36815,1,8,0:0:0:0:
268,68,37277,2,0,P|224:140|272:216,1,180
352,252,38661,5,8,0:0:0:0:
292,320,39123,1,0,0:0:0:0:
204,336,39585,1,8,0:0:0:0:
116,316,40046,1,0,0:0:0:0:
88,228,40508,2,0,P|25:212|-1:178,1,90,8|0,0:0|0:0,0:0:0:0:
60,120,41432,2,0,P|34:60|45:19,1,90,8|0,0:0|0:0,0:0:0:0:
124,64,42354,5,8,0:0:0:0:
188,128,42815,1,0,0:0:0:0:
256,184,43277,2,0,L|256:288,2,90,8|4|8,0:0|0:0|0:0,0:0:0:0:
324,128,44661,1,0,0:0:0:0:
388,64,45123,1,8,0:0:0:0:
452,128,45585,2,0,P|488:216|440:280,1,180
372,336,46970,6,0,P|340:316|272:316,1,90,8|0,0:0|0:0,0:0:0:0:
204,336,47893,2,0,P|160:332|116:296,1,90,8|0,0:0|0:0,0:0:0:0:
44,264,48816,2,0,P|24:216|40:168,1,90,8|0,0:0|0:0,0:0:0:0:
76,104,49739,6,0,P|100:128|168:136,1,90,8|0,0:0|0:0,0:0:0:0:
232,96,50661,1,8,0:0:0:0:
308,52,51124,2,0,P|356:52|400:80,1,90,0|12,0:0|0:0,0:0:0:0:
472,116,52047,2,0,P|456:204|364:232,1,180,0|4,0:0|0:0,0:0:0:0:
300,192,53431,5,8,0:0:0:0:
220,152,53893,1,0,0:0:0:0:
132,160,54355,1,8,0:0:0:0:
60,212,54816,1,0,0:0:0:0:
144,248,55278,2,0,P|160:311|194:337,1,90,8|0,0:0|0:0,0:0:0:0:
264,300,56200,2,0,P|308:328|372:320,1,90,8|0,0:0|0:0,0:0:0:0:
332,236,57123,5,8,0:0:0:0:
264,176,57585,1,0,0:0:0:0:
332,116,58047,2,0,L|332:16,2,90,8|0|12,0:0|0:0|0:0,0:0:0:0:
400,176,59431,1,0,0:0:0:0:
468,236,59893,1,8,0:0:0:0:
408,304,60355,2,0,P|336:344|252:304,1,180
228,220,61739,6,0,P|196:200|128:200,1,90,8|0,0:0|0:0,0:0:0:0:
160,284,62662,2,0,P|115:283|68:251,1,90,8|4,0:0|0:0,0:0:0:0:
60,172,63585,2,0,P|40:124|56:76,1,90,8|0,0:0|0:0,0:0:0:0:
128,48,64508,5,0,0:0:0:0:
200,104,64969,2,0,B|240:140|240:140|316:116|360:156,1,180,0|4,0:0|0:0,0:0:0:0:
92,72,80661,5,2,0:0:0:0:
76,160,81123,1,0,0:0:0:0:
108,244,81585,1,2,0:0:0:0:
180,296,82046,1,0,0:0:0:0:
256,344,82508,2,0,B|284:328|284:328|360:376|444:312,1,180,2|2,0:0|0:0,0:0:0:0:
424,236,83892,6,2,P|330:197|265:238,1,180,0|0,0:0|0:0,0:0:0:0:
196,288,85277,1,2,0:0:0:0:
108,276,85738,1,0,0:0:0:0:
112,184,86200,2,0,P|88:88|148:32,1,180,2|2,0:0|0:0,0:0:0:0:
176,116,87585,5,0,0:0:0:0:
244,56,88046,2,0,P|268:123|207:202,1,180,2|2,0:0|0:0,0:0:0:0:
228,292,89431,1,0,0:0:0:0:
312,328,89892,1,2,0:0:0:0:
400,316,90354,1,0,0:0:0:0:
460,248,90815,1,2,0:0:0:0:
256,192,91738,12,0,93585,0:0:0:0:
80,256,95431,5,4,0:0:0:0:
116,172,95892,1,8,0:0:0:0:
180,112,96354,2,0,P|261:134|336:76,1,180
408,132,97738,5,8,0:0:0:0:
392,220,98200,1,0,0:0:0:0:
332,288,98662,1,8,0:0:0:0:
244,312,99123,1,0,0:0:0:0:
156,308,99585,2,0,P|93:292|67:258,1,90,8|0,0:0|0:0,0:0:0:0:
120,196,100509,2,0,P|94:136|105:95,1,90,8|0,0:0|0:0,0:0:0:0:
156,44,101431,5,8,0:0:0:0:
188,128,101892,1,0,0:0:0:0:
260,180,102354,2,0,L|224:268,2,90,8|4|8,0:0|0:0|0:0,0:0:0:0:
272,92,103738,1,0,0:0:0:0:
352,52,104200,1,8,0:0:0:0:
424,108,104662,2,0,P|388:196|436:260,1,180
388,336,106047,6,0,P|344:316|304:320,1,90,8|0,0:0|0:0,0:0:0:0:
240,256,106970,2,0,P|196:252|160:224,1,90,8|0,0:0|0:0,0:0:0:0:
80,184,107893,2,0,P|60:136|76:88,1,90,8|0,0:0|0:0,0:0:0:0:
156,76,108816,6,0,P|180:52|248:44,1,90,8|0,0:0|0:0,0:0:0:0:
284,116,109738,1,8,0:0:0:0:
336,44,110201,2,0,P|384:44|428:72,1,90,0|12,0:0|0:0,0:0:0:0:
408,152,111124,2,0,P|464:220|421:309,1,180,0|4,0:0|0:0,0:0:0:0:
372,236,112508,5,8,0:0:0:0:
312,168,112970,1,0,0:0:0:0:
220,168,113432,1,8,0:0:0:0:
160,236,113893,1,0,0:0:0:0:
104,168,114355,2,0,P|120:105|154:79,1,90,8|0,0:0|0:0,0:0:0:0:
212,36,115277,2,0,P|272:62|312:56,1,90,8|0,0:0|0:0,0:0:0:0:
380,80,116200,5,8,0:0:0:0:
336,160,116662,1,0,0:0:0:0:
264,212,117124,2,0,L|200:276,2,90,8|0|12,0:0|0:0|0:0,0:0:0:0:
232,128,118508,1,0,0:0:0:0:
152,84,118970,1,8,0:0:0:0:
68,120,119432,2,0,P|46:199|105:271,1,180
164,336,120816,6,0,P|215:331|247:311,1,90,8|0,0:0|0:0,0:0:0:0:
336,320,121739,2,0,P|365:286|374:230,1,90,8|4,0:0|0:0,0:0:0:0:
460,216,122662,2,0,P|464:164|444:120,1,90,8|0,0:0|0:0,0:0:0:0:
368,96,123585,5,0,0:0:0:0:
316,172,124046,2,0,B|276:136|276:136|208:160|156:120,1,180,0|0,0:0|0:0,0:0:0:0:
80,164,125431,5,0,0:0:0:0:
52,248,125893,2,0,P|92:256|128:296,1,90,4|0,0:0|0:0,0:0:0:0:
196,344,126816,2,0,B|220:304|220:304|292:332|340:276,1,180
264,224,128200,1,0,0:0:0:0:
316,148,128662,6,0,P|352:124|368:88,2,67.5
272,140,129585,2,2,P|232:120|176:128,1,90,0|0,0:0|0:0,0:0:0:0:
108,84,130508,6,0,P|119:63|155:39,2,67.5
72,112,131431,2,2,B|52:152|52:152|100:212|48:280,1,180,0|0,0:0|0:0,0:0:0:0:
136,304,132815,5,0,0:0:0:0:
224,328,133278,2,0,P|264:320|300:280,1,90,4|0,0:0|0:0,0:0:0:0:
384,312,134201,2,0,B|416:276|416:276|388:208|452:156,1,180
384,96,135586,1,0,0:0:0:0:
296,92,136047,6,0,P|270:56|268:17,2,67.5
304,136,136970,2,2,P|324:176|316:232,1,90,0|2,0:0|0:0,0:0:0:0:
256,284,137893,6,0,P|291:309|330:311,2,67.5
220,256,138816,2,2,P|164:204|68:224,1,180,0|4,0:0|0:0,0:0:0:0:
256,192,152661,12,4,154508,0:0:0:0:
388,100,156354,5,0,0:0:0:0:
356,184,156815,1,2,0:0:0:0:
296,116,157277,2,0,B|264:156|264:156|288:224|232:276,1,180
172,340,158661,5,2,0:0:0:0:
92,296,159123,1,0,0:0:0:0:
56,212,159585,1,2,0:0:0:0:
64,124,160047,2,0,P|112:112|152:128,1,90,0|2,0:0|0:0,0:0:0:0:
228,80,160970,2,0,P|276:92|316:76,1,90,0|2,0:0|0:0,0:0:0:0:
400,96,161892,1,0,0:0:0:0:
448,172,162354,5,2,0:0:0:0:
372,220,162815,1,0,0:0:0:0:
284,236,163277,2,0,P|244:224|192:240,2,90,2|0|2,0:0|0:0|0:0,0:0:0:0:
240,316,164661,1,0,0:0:0:0:
152,328,165123,2,0,P|100:324|68:288,2,90,2|0|2,0:0|0:0|0:0,0:0:0:0:
140,240,166508,5,0,0:0:0:0:
72,184,166970,2,0,P|108:156|152:152,1,90,2|0,0:0|0:0,0:0:0:0:
208,84,167893,2,0,P|272:100|300:92,1,90,2|0,0:0|0:0,0:0:0:0:
384,104,168816,2,0,P|416:120|428:148,1,45,2|0,0:0|0:0,0:0:0:0:
176,340,171124,6,0,P|128:340|84:312,1,90,4|12,0:0|0:0,0:0:0:0:
104,232,172046,2,0,P|48:164|91:75,1,180,0|4,0:0|0:0,0:0:0:0:
164,108,173431,5,8,0:0:0:0:
252,96,173893,1,0,0:0:0:0:
340,112,174355,1,8,0:0:0:0:
412,168,174816,1,0,0:0:0:0:
456,248,175278,2,0,P|440:311|406:337,1,90,8|0,0:0|0:0,0:0:0:0:
340,296,176200,2,0,P|288:324|248:316,1,90,8|0,0:0|0:0,0:0:0:0:
180,272,177123,5,8,0:0:0:0:
124,204,177585,1,0,0:0:0:0:
152,116,178047,2,0,L|64:84,2,90,8|4|8,0:0|0:0|0:0,0:0:0:0:
240,96,179431,1,0,0:0:0:0:
328,112,179893,1,8,0:0:0:0:
404,164,180355,2,0,P|478:197|495:289,1,180
420,336,181739,6,0,P|369:331|337:311,1,90,8|0,0:0|0:0,0:0:0:0:
276,244,182662,2,0,P|232:254|192:294,1,90,8|0,0:0|0:0,0:0:0:0:
112,256,183585,2,0,P|68:227|53:179,1,90,8|0,0:0|0:0,0:0:0:0:
104,120,184508,5,8,0:0:0:0:
180,68,184969,1,0,0:0:0:0:
268,88,185431,2,0,P|304:116|352:124,1,90,8|0,0:0|0:0,0:0:0:0:
436,112,186354,1,12,0:0:0:0:
492,184,186816,2,0,P|460:224|416:232,1,90,0|8,0:0|0:0,0:0:0:0:
340,200,187738,5,0,0:0:0:0:
288,272,188200,1,8,0:0:0:0:
236,200,188661,1,0,0:0:0:0:
176,268,189123,1,8,0:0:0:0:
120,200,189585,2,0,P|52:152|72:68,2,180
148,284,191892,6,0,P|232:280|304:340,1,180,8|8,0:0|0:0,0:0:0:0:
380,292,193277,1,0,0:0:0:0:
444,228,193738,2,0,B|420:188|420:188|328:172|320:100,1,180,12|8,0:0|0:0,0:0:0:0:
240,76,195123,1,0,0:0:0:0:
172,136,195585,1,8,0:0:0:0:
104,196,196046,5,0,0:0:0:0:
160,264,196508,1,8,0:0:0:0:
248,252,196969,2,0,P|336:248|404:308,1,180,0|4,0:0|0:0,0:0:0:0:
456,232,198354,1,0,0:0:0:0:
432,144,198816,6,0,L|340:120,1,90
276,64,199738,1,0,0:0:0:0:
216,132,200200,1,0,0:0:0:0:
132,164,200662,2,0,P|144:216|136:260,1,90
212,304,201586,1,2,0:0:0:0:
