osu file format v14

[General]
AudioFilename: Super Junior - 01 SORRY SORRY.mp3
AudioLeadIn: 1500
PreviewTime: 199900
Countdown: 0
SampleSet: None
StackLeniency: 0.7
Mode: 0
LetterboxInBreaks: 0
EpilepsyWarning: 1
WidescreenStoryboard: 0

[Editor]
DistanceSpacing: 0.5
BeatDivisor: 4
GridSize: 4
TimelineZoom: 1

[Metadata]
Title:Sorry Sorry
TitleUnicode:Sorry Sorry
Artist:Super Junior
ArtistUnicode:Super Junior
Creator:Teru21
Version:TAG 2
Source:
Tags:
BeatmapID:705594
BeatmapSetID:316671

[Difficulty]
HPDrainRate:7
CircleSize:4
OverallDifficulty:8
ApproachRate:8
SliderMultiplier:2.2
SliderTickRate:2

[Events]
//Background and Video events
0,0,"super-junior-5861.jpg",0,0
//Break Periods
//Storyboard Layer 0 (Background)
//Storyboard Layer 1 (Fail)
//Storyboard Layer 2 (Pass)
//Storyboard Layer 3 (Foreground)
//Storyboard Sound Samples

[TimingPoints]
516,461.538461538462,4,1,1,80,1,0
516,-200,4,1,1,80,0,0
7900,-100,4,1,1,80,0,0
8362,-200,4,1,1,80,0,0
8823,-100,4,1,1,80,0,0
9285,-200,4,1,1,80,0,0
9746,-100,4,1,1,80,0,0
10208,-200,4,1,1,80,0,0
10669,-100,4,1,1,80,0,0
11131,-200,4,1,1,80,0,0
15285,-100,4,1,1,80,0,1
30054,-100,4,1,1,80,0,0
35592,-200,4,1,1,80,0,0
37439,-100,4,1,1,80,0,0
42746,-200,4,1,1,80,0,0
43554,-100,4,1,1,80,0,0
55439,-200,4,1,1,80,0,0
55900,-100,4,1,1,80,0,0
59592,-100,4,1,1,80,0,1
74362,-100,4,1,1,80,0,0
92131,-200,4,1,1,80,0,0
92592,-100,4,1,1,80,0,0
96977,-200,4,1,1,80,0,0
98362,-100,4,1,1,80,0,0
98823,-200,4,1,1,80,0,0
100208,-100,4,1,1,80,0,0
100669,-200,4,1,1,80,0,0
102054,-100,4,1,1,80,0,0
116823,-200,4,1,1,80,0,0
118669,-100,4,1,1,80,0,1
133439,-100,4,1,1,80,0,0
136208,-200,4,1,1,80,0,0
137131,-100,4,1,1,80,0,0
139900,-200,4,1,1,80,0,0
140823,-100,4,1,1,80,0,0
147746,-100,4,3,1,80,0,0
147862,-100,4,1,1,80,0,0
164823,-200,4,1,1,80,0,0
165516,-100,4,1,1,80,0,0
165746,-200,4,1,1,80,0,0
170362,-100,4,1,1,80,0,0
171977,-200,4,1,1,80,0,0
178900,-100,4,1,1,80,0,0
180285,-200,4,1,1,80,0,0
183285,-100,4,1,1,80,0,0
185131,-200,4,1,1,80,0,0
192516,-100,4,1,1,80,0,1
205439,-100,4,1,1,80,0,0
207285,-100,4,1,1,80,0,1
207400,-100,4,1,1,80,0,0
213285,-200,4,1,1,80,0,0
227592,-200,4,2,1,80,0,0
228977,-200,4,2,1,100,0,0

[Colours]
Combo1 : 64,0,128
Combo2 : 91,0,0

[HitObjects]
48,36,516,6,0,P|112:48|132:104,1,110,0|8,0:0|0:0,0:0:0:0:
464,348,1439,6,0,P|400:336|380:280,1,110,0|8,0:0|0:0,0:0:0:0:
416,236,2131,2,0,P|364:268|308:260,1,110
248,248,2823,2,0,P|216:248|192:236,1,55,8|0,0:0|0:0,0:0:0:0:
232,176,3285,6,0,L|208:120,2,55,0|0|8,0:0|0:0|0:0,0:0:0:0:
456,52,4208,5,0,0:0:0:0:
56,332,4669,5,8,0:0:0:0:
477,88,5131,5,0,0:0:0:0:
34,295,5592,5,8,0:0:0:0:
491,128,6054,5,0,0:0:0:0:
20,255,6515,5,8,0:0:0:0:
256,188,6977,6,0,L|256:124,2,55,0|0|8,0:0|0:0|0:0,0:0:0:0:
256,260,7669,1,0,0:0:0:0:
220,320,7900,6,0,P|184:304|164:276,3,55
292,320,8362,2,0,P|328:304|348:276,1,55,8|8,0:0|0:0,0:0:0:0:
292,64,8823,6,0,P|328:80|348:108,3,55
220,64,9285,2,0,P|184:80|164:108,1,55,8|8,0:0|0:0,0:0:0:0:
64,192,9746,6,0,L|4:192,2,55
88,192,10092,1,0,0:0:0:0:
112,192,10208,2,0,L|168:192,1,55,8|8,0:0|0:0,0:0:0:0:
448,192,10669,6,0,L|508:192,2,55
424,192,11015,1,0,0:0:0:0:
400,192,11131,2,0,L|344:192,1,55,8|8,0:0|0:0,0:0:0:0:
24,32,11592,5,0,0:0:0:0:
488,32,12054,5,8,0:0:0:0:
208,160,12516,5,0,0:0:0:0:
304,160,12977,5,8,0:0:0:0:
24,352,13439,5,0,0:0:0:0:
488,352,13669,5,2,0:0:0:0:
208,224,13900,5,0,0:0:0:0:
304,224,14131,5,2,0:0:0:0:
144,324,14362,5,0,0:0:0:0:
368,324,14592,5,8,0:0:0:0:
24,352,14823,5,8,0:0:0:0:
488,352,15054,5,8,0:0:0:0:
60,232,15285,6,0,P|48:172|80:128,1,110,4|0,2:0|0:0,0:0:0:0:
164,96,15746,2,0,P|176:156|144:200,1,110,8|0,0:0|0:0,0:0:0:0:
452,232,16208,6,0,P|464:172|432:128,1,110
348,96,16669,2,0,P|336:156|368:200,1,110,8|0,0:0|0:0,0:0:0:0:
48,28,17131,5,0,0:0:0:0:
164,96,17362,1,0,0:0:0:0:
52,164,17592,1,8,0:0:0:0:
48,28,17823,1,0,0:0:0:0:
464,356,18054,5,0,0:0:0:0:
348,288,18285,1,0,0:0:0:0:
460,220,18515,1,8,0:0:0:0:
464,356,18746,1,0,0:0:0:0:
72,272,18977,6,0,P|100:336|152:344,1,110
208,280,19439,2,0,P|180:216|128:208,1,110,8|0,0:0|0:0,0:0:0:0:
377,37,19900,6,0,P|412:48|440:112,1,110
364,176,20362,2,0,P|329:165|301:101,1,110,8|0,0:0|0:0,0:0:0:0:
172,80,20823,6,0,L|56:36,1,110
104,136,21285,2,0,L|-12:92,1,110,8|0,0:0|0:0,0:0:0:0:
340,304,21746,6,0,P|384:340|456:348,2,110,0|8|8,0:0|0:0|0:0,0:0:0:0:
424,248,22439,1,8,3:0:0:0:
52,224,22669,5,4,2:0:0:0:
136,336,22900,1,0,0:0:0:0:
52,224,23131,1,8,0:0:0:0:
136,336,23362,1,0,0:0:0:0:
460,160,23592,5,0,0:0:0:0:
376,48,23823,1,0,0:0:0:0:
460,160,24054,1,8,0:0:0:0:
376,48,24285,1,0,0:0:0:0:
148,116,24516,6,0,P|200:56|200:16,2,110,0|0|8,0:0|0:0|0:0,0:0:0:0:
56,148,25208,1,0,0:0:0:0:
340,304,25439,6,0,L|456:348,1,110
408,248,25901,2,0,L|524:292,1,110,8|0,0:0|0:0,0:0:0:0:
96,372,26362,6,0,P|72:320|20:304,1,110
140,248,26823,2,0,P|164:196|216:180,1,110,8|0,0:0|0:0,0:0:0:0:
416,12,27285,6,0,P|440:64|492:80,1,110
372,136,27746,2,0,P|348:188|296:204,1,110,8|0,0:0|0:0,0:0:0:0:
16,88,28208,5,0,0:0:0:0:
68,232,28439,1,0,0:0:0:0:
212,180,28669,1,8,0:0:0:0:
159,34,28900,1,0,0:0:0:0:
364,332,29131,5,8,0:0:0:0:
388,324,29246,1,0,0:0:0:0:
412,312,29362,1,0,0:0:0:0:
424,288,29477,1,0,0:0:0:0:
428,260,29592,1,8,3:0:0:0:
432,232,29708,1,0,0:0:0:0:
452,216,29823,1,0,0:0:0:0:
476,200,29939,1,0,0:0:0:0:
500,188,30054,6,0,P|452:120|456:96,1,110,4|0,2:0|0:0,0:0:0:0:
320,44,30516,2,0,P|364:100|356:144,1,110,8|0,0:0|0:0,0:0:0:0:
132,288,30977,1,0,0:0:0:0:
268,240,31208,2,0,P|248:192|196:156,1,110,0|8,0:0|0:0,0:0:0:0:
320,44,31669,1,0,0:0:0:0:
132,288,31900,2,0,P|72:324|24:324,2,110,0|0|8,0:0|0:0|0:0,0:0:0:0:
36,184,32592,1,0,0:0:0:0:
112,64,32823,1,0,0:0:0:0:
252,96,33054,1,0,0:0:0:0:
268,240,33285,1,8,0:0:0:0:
132,288,33516,2,0,P|160:348|208:372,2,110
252,96,34208,1,8,0:0:0:0:
36,184,34439,1,0,0:0:0:0:
268,240,34669,1,0,0:0:0:0:
112,64,34900,1,0,0:0:0:0:
132,288,35131,2,0,P|160:348|216:368,1,110,8|0,0:0|0:0,0:0:0:0:
216,280,35592,2,0,P|188:220|150:201,1,110,0|8,0:0|0:0,0:0:0:0:
124,192,36169,1,0,0:0:0:0:
96,184,36285,1,0,0:0:0:0:
68,184,36400,1,0,0:0:0:0:
40,184,36516,1,0,0:0:0:0:
220,40,36746,1,8,0:0:0:0:
220,40,36977,1,8,0:0:0:0:
40,184,37208,1,8,3:0:0:0:
220,40,37439,6,0,P|244:108|280:120,1,110,4|0,2:0|0:0,0:0:0:0:
356,120,37900,2,0,P|332:52|296:40,1,110,8|0,0:0|0:0,0:0:0:0:
316,188,38362,2,0,P|376:200|424:152,2,110,0|0|8,0:0|0:0|0:0,0:0:0:0:
196,264,39054,2,0,P|136:276|88:228,2,110,0|0|0,0:0|0:0|0:0,0:0:0:0:
316,336,39746,2,0,P|376:348|424:300,2,110,8|0|0,0:0|0:0|0:0,0:0:0:0:
156,204,40439,2,0,L|64:124,1,110,0|8,0:0|0:0,0:0:0:0:
260,240,40900,1,0,0:0:0:0:
356,120,41131,2,0,L|448:40,1,110
252,164,41592,1,8,0:0:0:0:
260,88,41823,1,0,0:0:0:0:
252,12,42054,1,0,0:0:0:0:
260,88,42285,1,0,0:0:0:0:
252,164,42516,1,8,0:0:0:0:
260,240,42746,1,0,0:0:0:0:
252,316,42977,2,0,P|216:304|184:240,1,110,0|8,0:0|0:0,0:0:0:0:
188,216,43554,1,0,0:0:0:0:
204,188,43669,1,0,0:0:0:0:
228,172,43785,1,0,0:0:0:0:
252,164,43900,1,0,0:0:0:0:
252,316,44131,1,8,0:0:0:0:
252,316,44362,1,8,0:0:0:0:
252,164,44592,1,8,3:0:0:0:
484,44,44823,6,0,P|444:72|392:32,1,110
296,60,45285,1,8,0:0:0:0:
252,164,45516,1,0,0:0:0:0:
20,44,45746,2,0,P|60:72|112:32,1,110
208,60,46208,1,8,0:0:0:0:
252,164,46439,1,0,0:0:0:0:
164,244,46669,2,0,P|139:207|135:143,1,110
340,244,47131,2,0,P|364:207|368:143,1,110,8|0,0:0|0:0,0:0:0:0:
252,164,47592,2,0,L|252:276,1,110
240,368,48054,2,0,B|220:344|192:360|192:360|164:372|138:360|138:360|112:372|88:360|88:360|64:344|24:376,1,220,8|0,0:0|0:0,0:0:0:0:
16,272,48746,5,0,0:0:0:0:
112,292,48978,1,8,0:0:0:0:
204,256,49209,1,0,0:0:0:0:
252,164,49439,1,0,0:0:0:0:
492,272,49669,1,0,0:0:0:0:
396,292,49901,1,8,0:0:0:0:
304,256,50132,1,0,0:0:0:0:
340,192,50362,2,0,P|384:216|448:212,1,110
168,192,50823,2,0,P|124:216|60:212,1,110,8|0,0:0|0:0,0:0:0:0:
252,272,51285,2,0,L|252:160,1,110,0|8,0:0|0:0,0:0:0:0:
264,68,51746,2,0,B|284:92|312:76|312:76|340:64|366:76|366:76|392:64|416:76|416:76|440:92|480:60,1,220,8|0,0:0|0:0,0:0:0:0:
68,52,52439,6,0,L|24:16,2,55,0|0|8,0:0|0:0|0:0,0:0:0:0:
160,220,52900,2,0,P|161:190|129:118,1,110,0|0,0:0|0:0,0:0:0:0:
252,272,53362,2,0,L|264:204,2,55,0|0|8,0:0|0:0|0:0,0:0:0:0:
304,372,53823,2,0,P|364:320|384:256,1,110
468,360,54285,2,0,P|484:304|476:236,1,110,0|8,0:0|0:0,0:0:0:0:
508,120,54746,2,0,P|480:64|432:36,1,110
216,64,55208,1,0,0:0:0:0:
441,38,55439,2,0,P|408:60|352:72,1,82.5,8|0,0:0|0:0,0:0:0:0:
326,76,55900,6,0,P|286:76|218:64,1,110
180,52,56246,2,0,L|196:108,1,55,0|8,0:0|0:0,0:0:0:0:
88,112,56592,2,0,P|96:160|60:232,1,110
176,360,57054,2,0,P|224:352|296:388,1,110,0|8,0:0|0:0,0:0:0:0:
424,272,57516,2,0,P|416:224|452:152,2,110
280,373,58208,2,0,P|224:352|176:360,1,110
74,216,58669,2,0,P|96:160|88:112,1,110
232,12,59131,1,8,3:0:0:0:
252,20,59246,1,0,0:0:0:0:
280,28,59361,1,0,0:0:0:0:
308,28,59477,1,0,0:0:0:0:
336,320,59592,6,0,P|384:288|408:212,1,110,4|0,2:0|0:0,0:0:0:0:
176,24,60054,2,0,P|128:56|104:132,1,110,8|0,0:0|0:0,0:0:0:0:
176,320,60516,6,0,P|128:288|104:212,1,110,0|0,0:0|0:0,0:0:0:0:
336,24,60978,2,0,P|384:56|408:132,1,110,8|0,0:0|0:0,0:0:0:0:
200,188,61439,6,0,L|72:188,1,110
312,188,61900,2,0,L|440:188,1,110,8|0,0:0|0:0,0:0:0:0:
256,128,62362,6,0,L|256:16,1,110
256,248,62823,2,0,L|256:376,1,110,8|0,0:0|0:0,0:0:0:0:
6,220,63285,5,0,0:0:0:0:
31,361,63516,1,0,0:0:0:0:
168,337,63746,1,8,0:0:0:0:
144,196,63977,1,0,0:0:0:0:
506,220,64208,5,0,0:0:0:0:
481,361,64439,1,0,0:0:0:0:
344,337,64669,1,8,0:0:0:0:
368,196,64900,1,0,0:0:0:0:
40,132,65131,6,0,P|88:64|84:16,1,110
256,92,65592,2,0,P|187:44|174:-1,1,110,8|0,0:0|0:0,0:0:0:0:
472,132,66054,6,0,P|424:64|428:16,1,110,0|8,0:0|0:0,0:0:0:0:
256,92,66515,2,0,P|324:44|337:-1,1,110,8|8,0:0|3:0,0:0:0:0:
256,92,66977,6,0,P|200:80|144:108,1,110,4|0,2:0|0:0,0:0:0:0:
108,172,67439,2,0,P|164:184|220:156,1,110,8|0,0:0|0:0,0:0:0:0:
300,219,67900,6,0,P|348:200|404:212,1,110,0|0,0:0|0:0,0:0:0:0:
359,284,68362,2,0,P|312:304|256:292,1,110,8|0,0:0|0:0,0:0:0:0:
88,344,68823,6,0,L|24:232,3,110,0|0|8|0,0:0|0:0|0:0|0:0,0:0:0:0:
424,40,69746,6,0,L|488:152,3,110,0|0|8|0,0:0|0:0|0:0|0:0,0:0:0:0:
136,280,70669,6,0,L|72:168,1,110
124,112,71131,2,0,L|188:224,1,110,8|0,0:0|0:0,0:0:0:0:
376,280,71592,6,0,L|440:168,1,110
388,112,72054,2,0,L|324:224,1,110,8|0,0:0|0:0,0:0:0:0:
168,40,72516,5,0,0:0:0:0:
168,40,72746,1,0,0:0:0:0:
224,140,72977,1,8,0:0:0:0:
224,140,73207,1,0,0:0:0:0:
352,344,73439,5,0,0:0:0:0:
336,320,73554,1,0,0:0:0:0:
320,296,73669,1,0,0:0:0:0:
304,272,73785,1,0,0:0:0:0:
288,248,73900,1,8,0:0:0:0:
344,144,74131,1,8,0:0:0:0:
224,140,74362,5,0,0:0:0:0:
444,76,74823,5,8,0:0:0:0:
156,200,75285,5,0,0:0:0:0:
444,76,75746,5,8,0:0:0:0:
68,184,75977,5,0,0:0:0:0:
68,184,76439,1,0,0:0:0:0:
444,76,76669,5,8,0:0:0:0:
56,92,76900,5,0,0:0:0:0:
56,92,77131,1,0,0:0:0:0:
444,76,77592,5,8,0:0:0:0:
288,244,78054,5,0,0:0:0:0:
92,328,78515,5,8,0:0:0:0:
424,244,78977,5,0,0:0:0:0:
220,328,79438,5,8,0:0:0:0:
360,144,79669,5,0,0:0:0:0:
360,144,80131,1,0,0:0:0:0:
160,212,80361,5,8,0:0:0:0:
424,244,80592,5,0,0:0:0:0:
424,244,80823,1,0,0:0:0:0:
220,328,81054,5,8,0:0:0:0:
220,328,81285,1,8,0:0:0:0:
360,144,81516,5,8,3:0:0:0:
288,244,81746,5,0,0:0:0:0:
68,308,82207,5,8,0:0:0:0:
356,184,82669,5,0,0:0:0:0:
68,308,83130,5,8,0:0:0:0:
444,200,83361,5,0,0:0:0:0:
444,200,83823,1,0,0:0:0:0:
68,308,84053,5,8,0:0:0:0:
456,292,84284,5,0,0:0:0:0:
456,292,84515,1,0,0:0:0:0:
68,308,84976,5,8,0:0:0:0:
224,140,85438,5,0,0:0:0:0:
420,56,85899,5,8,0:0:0:0:
88,140,86361,5,0,0:0:0:0:
292,56,86822,5,8,0:0:0:0:
152,240,87053,5,0,0:0:0:0:
152,240,87515,1,0,0:0:0:0:
352,172,87745,5,8,0:0:0:0:
88,140,87976,5,0,0:0:0:0:
88,140,88207,1,0,0:0:0:0:
292,56,88438,5,8,0:0:0:0:
292,56,88669,1,8,0:0:0:0:
152,240,88900,5,8,3:0:0:0:
156,64,89131,5,12,3:0:0:0:
352,172,89362,5,0,0:0:0:0:
352,172,89592,1,0,0:0:0:0:
68,224,89823,5,12,3:0:0:0:
424,320,90054,5,0,0:0:0:0:
424,320,90285,1,0,0:0:0:0:
424,320,90516,1,0,0:0:0:0:
424,320,90746,1,0,0:0:0:0:
156,64,90977,5,12,3:0:0:0:
352,172,91208,5,0,0:0:0:0:
352,172,91439,1,0,0:0:0:0:
68,224,91669,5,12,3:0:0:0:
432,240,91900,5,0,0:0:0:0:
68,224,92131,6,0,L|88:276,1,55,12|8,3:0|0:0,0:0:0:0:
432,240,92592,5,0,0:0:0:0:
432,240,92823,2,0,P|360:256|328:288,1,110
336,316,93169,2,0,L|284:296,1,55,0|8,0:0|0:0,0:0:0:0:
224,192,93516,1,0,0:0:0:0:
164,292,93746,1,0,0:0:0:0:
284,296,93977,1,0,0:0:0:0:
224,192,94208,1,8,0:0:0:0:
164,292,94439,2,0,P|112:360|-8:312,1,220
76,280,95131,2,0,L|56:168,1,110,8|0,0:0|0:0,0:0:0:0:
148,152,95592,2,0,L|164:36,2,110,0|8|8,0:0|0:0|0:0,0:0:0:0:
224,192,96285,1,0,0:0:0:0:
148,152,96516,6,0,L|196:116,2,55
312,316,96977,6,0,L|376:324,1,55,8|0,0:0|0:0,0:0:0:0:
444,356,97439,2,0,P|412:296|444:260,1,110,0|8,0:0|0:0,0:0:0:0:
444,356,98362,6,0,L|388:376,2,55
212,108,98823,6,0,L|148:100,1,55,8|0,0:0|0:0,0:0:0:0:
80,68,99285,2,0,L|36:28,3,55,0|0|8|0,0:0|0:0|0:0|0:0,0:0:0:0:
80,68,100208,6,0,L|64:12,2,55
412,156,100669,6,0,L|428:212,1,55,8|0,0:0|0:0,0:0:0:0:
400,284,101131,2,0,P|448:248|492:260,1,110,0|8,0:0|0:0,0:0:0:0:
84,324,102054,6,0,P|104:256|92:204,1,110,8|0,3:0|0:0,0:0:0:0:
88,184,102400,2,0,L|156:192,1,55,0|2,0:0|0:2,0:0:0:0:
256,80,102746,1,0,0:0:0:0:
369,190,102977,1,2,0:2:0:0:
256,80,103208,1,0,0:0:0:0:
142,190,103439,1,12,3:0:0:0:
256,304,103669,1,12,3:0:0:0:
368,192,103900,6,0,P|406:137|418:85,1,110
320,288,104362,2,0,P|358:233|370:181,1,110,8|0,0:0|0:0,0:0:0:0:
94,96,104823,2,0,P|105:137|144:192,1,110
142,192,105285,2,0,P|153:233|192:288,1,110,8|0,0:0|0:0,0:0:0:0:
324,376,105746,2,0,P|384:352|404:312,1,110
400,224,106208,2,0,P|340:248|320:288,1,110,8|0,0:0|0:0,0:0:0:0:
244,332,106669,2,0,P|204:290|144:284,1,110
72,280,107131,2,0,B|100:220|68:176|68:176|88:112,1,165,8|0,0:0|0:0,0:0:0:0:
416,100,107592,6,0,P|348:120|308:96,1,110
136,64,108054,2,0,P|204:44|244:68,1,110,8|0,0:0|0:0,0:0:0:0:
188,128,108516,2,0,P|120:148|80:124,2,110,0|0|8,0:0|0:0|0:0,0:0:0:0:
256,180,109208,1,0,0:0:0:0:
324,236,109439,2,0,P|392:256|432:232,2,110,0|0|8,0:0|0:0|0:0,0:0:0:0:
256,288,110131,1,0,0:0:0:0:
256,288,110362,1,0,0:0:0:0:
48,360,110592,1,8,0:0:0:0:
48,360,110823,2,0,P|120:284|196:272,1,165,8|0,0:0|0:0,0:0:0:0:
256,96,111285,6,0,P|304:64|376:80,1,110
396,76,111631,2,0,L|380:24,1,55,0|8,0:0|0:0,0:0:0:0:
324,144,111977,1,0,0:0:0:0:
256,304,112208,2,0,P|208:272|136:288,1,110
116,284,112554,2,0,L|132:232,1,55,0|8,0:0|0:0,0:0:0:0:
188,352,112900,1,0,0:0:0:0:
388,268,113131,2,0,P|448:256|508:280,1,110
112,140,113592,2,0,P|52:128|-8:152,1,110,8|0,0:0|0:0,0:0:0:0:
256,4,114054,2,0,L|256:120,1,110
324,116,114516,2,0,P|280:48|200:72,1,165,8|0,0:0|0:0,0:0:0:0:
332,300,114977,6,0,P|308:240|328:188,1,110
392,164,115439,2,0,P|464:144|488:100,1,110,8|0,0:0|0:0,0:0:0:0:
400,68,115900,2,0,L|300:20,1,110
324,116,116362,2,0,L|224:68,1,110,8|0,0:0|0:0,0:0:0:0:
72,312,116823,6,0,L|16:284,6,55,0|0|0|0|0|0|8,0:0|0:0|0:0|0:0|0:0|0:0|3:0,0:0:0:0:
96,324,118323,1,0,0:0:0:0:
120,336,118439,1,0,0:0:0:0:
144,348,118554,1,0,0:0:0:0:
168,360,118669,6,0,L|284:384,1,110,4|0,2:0|0:0,0:0:0:0:
220,296,119131,2,0,L|336:320,1,110,8|0,0:0|0:0,0:0:0:0:
424,280,119592,6,0,L|448:164,1,110,0|0,0:0|0:0,0:0:0:0:
360,228,120054,2,0,L|384:112,1,110,8|0,0:0|0:0,0:0:0:0:
344,24,120516,6,0,L|228:0,3,110,0|0|8|0,0:0|0:0|0:0|0:0,0:0:0:0:
88,104,121439,6,0,L|64:220,3,110,0|0|8|0,0:0|0:0|0:0|0:0,0:0:0:0:
256,284,122362,5,0,0:0:0:0:
348,192,122592,1,0,0:0:0:0:
256,100,122823,1,8,0:0:0:0:
164,192,123054,1,0,0:0:0:0:
256,284,123285,5,0,0:0:0:0:
164,192,123515,1,0,0:0:0:0:
256,100,123746,1,8,0:0:0:0:
348,192,123977,1,0,0:0:0:0:
168,280,124208,6,0,P|112:268|80:216,1,110
80,140,124669,2,0,P|136:152|168:204,1,110,8|0,0:0|0:0,0:0:0:0:
336,284,125131,5,0,0:0:0:0:
424,144,125362,1,8,0:0:0:0:
424,144,125592,1,8,0:0:0:0:
336,284,125823,1,0,0:0:0:0:
124,368,126054,6,0,P|80:312|80:264,1,110
84,240,126400,2,0,L|40:208,1,55,0|8,0:0|0:0,0:0:0:0:
124,52,126746,1,0,0:0:0:0:
388,368,126977,6,0,P|432:312|432:264,1,110
428,240,127323,2,0,L|472:208,1,55,0|8,0:0|0:0,0:0:0:0:
388,52,127669,1,0,0:0:0:0:
216,152,127900,6,0,P|164:132|92:140,1,110
296,232,128362,2,0,P|348:252|420:244,1,110,8|0,0:0|0:0,0:0:0:0:
296,152,128823,6,0,P|316:100|308:28,1,110
216,232,129285,2,0,P|196:284|204:356,1,110,8|0,0:0|0:0,0:0:0:0:
48,40,129746,5,0,0:0:0:0:
4,136,129977,1,0,0:0:0:0:
4,248,130208,1,8,0:0:0:0:
48,344,130439,1,0,0:0:0:0:
464,344,130669,5,0,0:0:0:0:
508,248,130900,1,0,0:0:0:0:
508,136,131131,1,8,0:0:0:0:
464,40,131362,1,0,0:0:0:0:
216,152,131592,6,0,P|156:136|132:80,1,110
216,232,132054,2,0,P|156:248|132:304,1,110,8|0,0:0|0:0,0:0:0:0:
296,232,132516,6,0,P|356:248|380:304,1,110
296,152,132978,2,0,P|356:136|380:80,1,110,8|0,0:0|0:0,0:0:0:0:
168,32,133439,5,0,0:0:0:0:
344,32,133900,5,8,0:0:0:0:
48,132,134362,5,0,0:0:0:0:
464,132,134823,5,8,0:0:0:0:
120,132,135054,5,0,0:0:0:0:
120,132,135516,1,0,0:0:0:0:
388,132,135746,5,8,0:0:0:0:
168,192,135977,5,0,0:0:0:0:
168,192,136208,2,0,L|168:248,2,55,0|0|8,0:0|0:0|0:0,0:0:0:0:
168,192,136900,1,0,0:0:0:0:
344,352,137131,5,0,0:0:0:0:
168,352,137592,5,8,0:0:0:0:
464,252,138054,5,0,0:0:0:0:
48,252,138515,5,8,0:0:0:0:
392,252,138746,5,0,0:0:0:0:
392,252,139208,1,0,0:0:0:0:
124,252,139438,5,8,0:0:0:0:
344,192,139669,5,0,0:0:0:0:
344,192,139900,2,0,L|344:136,2,55,0|8|8,0:0|0:0|0:0,0:0:0:0:
344,192,140592,1,0,0:0:0:0:
124,132,140823,6,0,P|56:96|40:48,1,110
28,24,141169,2,0,L|0:72,1,55,0|8,0:0|0:0,0:0:0:0:
56,200,141516,2,0,P|26:186|4:164,1,55
192,64,141862,2,0,L|216:120,1,55
200,132,142092,2,0,L|224:188,1,55,0|8,0:0|0:0,0:0:0:0:
152,220,142439,1,0,0:0:0:0:
388,252,142669,6,0,P|456:288|472:336,1,110
484,360,143015,2,0,L|512:312,1,55,0|8,0:0|0:0,0:0:0:0:
456,184,143362,2,0,P|485:197|508:220,1,55
320,320,143708,2,0,L|296:264,1,55
312,252,143938,2,0,L|288:196,1,55,0|8,0:0|0:0,0:0:0:0:
360,164,144285,1,0,0:0:0:0:
192,320,144516,6,0,L|64:320,1,110
20,240,144977,1,8,0:0:0:0:
216,240,145208,2,0,L|88:240,1,110
48,160,145669,1,0,0:0:0:0:
244,160,145900,2,0,L|116:160,1,110,8|0,0:0|0:0,0:0:0:0:
268,36,146362,6,0,L|380:36,1,110
316,112,146823,2,0,L|428:112,1,110,8|12,0:0|3:0,0:0:0:0:
364,184,147285,1,12,3:0:0:0:
416,256,147516,1,12,3:0:0:0:
416,256,147746,1,8,0:1:0:0:
364,184,147977,1,12,3:0:0:0:
24,356,148208,5,12,3:0:0:0:
24,356,149131,1,12,3:0:0:0:
24,356,150054,1,12,3:0:0:0:
24,356,150977,1,12,3:0:0:0:
488,356,151439,5,8,0:0:0:0:
24,28,151900,5,12,3:0:0:0:
256,216,152362,6,0,L|169:147,1,110
24,28,152823,5,12,3:0:0:0:
212,180,153285,6,0,L|125:111,1,110
24,28,153746,5,12,3:0:0:0:
168,144,154208,6,0,L|81:75,1,110
24,28,154669,5,12,3:0:0:0:
72,68,154900,5,8,0:0:0:0:
72,68,155131,1,8,0:0:0:0:
72,68,155362,1,8,0:0:0:0:
488,28,155592,5,12,3:0:0:0:
344,148,155823,5,8,3:0:0:0:
344,148,156054,2,0,L|392:108,3,55
488,28,156515,5,12,3:0:0:0:
368,128,156746,5,8,3:0:0:0:
368,128,156977,2,0,L|416:88,3,55
488,28,157438,5,12,3:0:0:0:
396,104,157669,5,8,3:0:0:0:
396,104,157900,2,0,L|444:64,3,55
488,28,158361,5,12,3:0:0:0:
416,88,158592,5,8,3:0:0:0:
416,88,158823,2,0,L|464:48,3,55
488,28,159285,5,12,3:0:0:0:
488,356,159746,5,8,3:0:0:0:
468,352,159862,1,0,0:0:0:0:
452,340,159977,1,0,0:0:0:0:
440,320,160092,1,0,0:0:0:0:
24,356,160208,5,12,3:0:0:0:
24,28,160669,5,8,3:0:0:0:
44,32,160785,1,0,0:0:0:0:
60,44,160900,1,0,0:0:0:0:
72,64,161015,1,0,0:0:0:0:
256,136,161131,5,12,3:0:0:0:
256,248,161362,5,8,3:0:0:0:
228,128,161592,5,12,3:0:0:0:
284,256,161823,5,8,3:0:0:0:
200,100,162054,5,12,3:0:0:0:
312,276,162285,5,8,3:0:0:0:
292,16,162516,5,12,3:0:0:0:
220,368,162746,5,8,0:0:0:0:
56,92,162977,6,0,P|64:160|36:208,1,110,4|0,0:0|0:0,0:0:0:0:
32,232,163323,2,0,L|104:228,1,55,0|8,0:0|0:0,0:0:0:0:
200,284,163669,1,0,0:0:0:0:
348,368,163900,2,0,P|400:348|464:360,2,110,0|0|8,0:0|0:0|0:0,0:0:0:0:
200,284,164592,1,0,0:0:0:0:
32,232,164823,2,0,B|8:180|8:180|-32:132,1,110,0|8,0:0|0:0,0:0:0:0:
160,124,165516,2,0,L|224:104,1,55
244,96,165746,2,0,L|308:76,2,55,0|0|8,0:0|0:0|0:0,0:0:0:0:
160,124,166439,1,0,0:0:0:0:
160,124,166669,2,0,B|176:176|176:176|168:244,1,110,0|8,0:0|0:0,0:0:0:0:
280,312,167592,2,0,B|264:260|264:260|272:192,1,110,0|8,0:0|0:0,0:0:0:0:
292,164,168285,2,0,P|340:188|408:176,1,110
444,168,168977,1,8,0:0:0:0:
368,308,169208,6,0,L|428:336,3,55,0|0|8|8,0:0|0:0|0:0|0:0,0:0:0:0:
280,312,170131,1,0,0:0:0:0:
212,256,170362,2,0,P|176:216|180:152,1,110,4|0,0:0|0:0,0:0:0:0:
192,136,170708,2,0,L|156:76,1,55,0|8,0:0|0:0,0:0:0:0:
236,68,171054,2,0,L|292:164,2,110
280,0,171746,1,8,0:0:0:0:
236,68,171977,2,0,B|180:60|180:60|128:88,1,110
80,144,172669,2,0,B|72:200,1,55,8|0,0:0|0:0,0:0:0:0:
152,216,173131,2,0,B|128:268,3,55,0|0|8|0,0:0|0:0|0:0|0:0,0:0:0:0:
116,300,174054,2,0,P|192:284|236:304,1,110,0|8,0:0|0:0,0:0:0:0:
116,300,174977,2,0,P|193:298|233:325,1,110,0|8,0:0|0:0,0:0:0:0:
252,336,175669,2,0,B|304:300|300:244|300:244|340:248|372:216,1,165,2|10,0:0|0:0,0:0:0:0:
424,180,176592,1,0,0:0:0:0:
440,92,176823,1,0,0:0:0:0:
440,92,177054,1,2,0:0:0:0:
440,92,177285,1,8,0:0:0:0:
48,40,177516,6,0,L|72:100,1,55
36,216,177977,2,0,L|75:166,1,55,0|8,0:0|0:0,0:0:0:0:
196,136,178439,2,0,L|132:127,1,55
228,56,178900,2,0,P|276:96|280:148,1,110,0|8,0:0|0:0,0:0:0:0:
428,216,179362,2,0,P|369:238|322:216,1,110,0|0,0:0|0:0,0:0:0:0:
192,308,179823,2,0,P|202:247|245:217,1,110,0|8,0:0|0:0,0:0:0:0:
120,104,180285,6,0,L|60:104,1,55
96,188,180746,2,0,L|40:188,2,55,0|8|0,0:0|0:0|0:0,0:0:0:0:
440,296,181439,6,0,L|500:272,1,55
428,216,181900,2,0,L|488:192,2,55,8|0|0,0:0|0:0|0:0,0:0:0:0:
416,136,182592,2,0,L|476:112,2,55,0|8|0,0:0|0:0|0:0,0:0:0:0:
396,56,183285,2,0,L|500:16,1,110,0|0,0:0|0:0,0:0:0:0:
316,56,183746,2,0,L|213:17,1,110,8|0,0:0|0:0,0:0:0:0:
292,136,184208,1,0,0:0:0:0:
440,296,184439,5,8,0:0:0:0:
440,296,184669,2,0,P|388:324|328:304,1,110,8|0,0:0|0:0,0:0:0:0:
216,136,185131,6,0,L|156:136,1,55
152,224,185592,2,0,L|88:244,1,55,8|0,0:0|0:0,0:0:0:0:
120,332,186054,2,0,L|72:380,2,55,0|0|8,0:0|0:0|0:0,0:0:0:0:
99,241,186746,2,0,L|152:224,1,55,0|0,0:0|0:0,0:0:0:0:
161,136,187208,2,0,L|216:136,1,55,0|8,0:0|0:0,0:0:0:0:
256,56,187669,2,0,L|324:76,1,55
392,36,188131,2,0,L|432:88,1,55,0|8,0:0|0:0,0:0:0:0:
120,332,188823,6,0,L|60:332,1,55
264,304,189285,2,0,L|204:304,1,55,8|0,0:0|0:0,0:0:0:0:
396,356,189746,2,0,L|336:356,1,55
428,232,190208,2,0,L|368:232,1,55,8|0,0:0|0:0,0:0:0:0:
256,60,190669,2,0,L|256:132,1,55,8|0,3:0|0:0,0:0:0:0:
256,148,191016,2,0,L|256:188,1,27.5,0|4,0:0|3:0,0:0:0:0:
256,204,191362,1,12,3:0:0:0:
256,177,191592,1,12,3:0:0:0:
256,149,191823,1,12,3:0:0:0:
256,121,192054,2,0,B|252:105|252:105|260:77|260:77|256:61,1,55,8|0,3:0|0:0,0:0:0:0:
452,232,192516,6,0,P|464:172|432:128,1,110,4|0,2:0|0:0,0:0:0:0:
348,96,192977,2,0,P|336:156|368:200,1,110,8|0,0:0|0:0,0:0:0:0:
60,232,193439,6,0,P|48:172|80:128,1,110
164,96,193900,2,0,P|176:156|144:200,1,110,8|0,0:0|0:0,0:0:0:0:
464,28,194362,5,0,0:0:0:0:
348,96,194593,1,0,0:0:0:0:
460,164,194823,1,8,0:0:0:0:
348,96,195054,1,0,0:0:0:0:
48,356,195285,5,0,0:0:0:0:
164,288,195516,1,0,0:0:0:0:
52,220,195746,1,8,0:0:0:0:
164,288,195977,1,0,0:0:0:0:
440,272,196208,6,0,P|412:336|360:344,1,110
304,280,196670,2,0,P|332:216|384:208,1,110,8|0,0:0|0:0,0:0:0:0:
135,37,197131,6,0,P|100:48|72:112,1,110
148,176,197593,2,0,P|183:165|211:101,1,110,8|0,0:0|0:0,0:0:0:0:
340,80,198054,6,0,L|456:36,1,110
408,136,198516,2,0,L|524:92,1,110,8|0,0:0|0:0,0:0:0:0:
172,304,198977,6,0,P|128:340|56:348,2,110,0|8|8,0:0|0:0|0:0,0:0:0:0:
88,248,199670,1,8,3:0:0:0:
460,224,199900,5,4,2:0:0:0:
376,336,200131,1,0,0:0:0:0:
460,224,200362,1,8,0:0:0:0:
376,336,200593,1,0,0:0:0:0:
52,160,200823,5,0,0:0:0:0:
136,48,201054,1,0,0:0:0:0:
52,160,201285,1,8,0:0:0:0:
136,48,201516,1,0,0:0:0:0:
364,116,201747,6,0,P|312:56|312:16,2,110,0|0|8,0:0|0:0|0:0,0:0:0:0:
456,148,202439,1,0,0:0:0:0:
172,304,202670,6,0,L|56:348,1,110
104,248,203132,2,0,L|-12:292,1,110,8|0,0:0|0:0,0:0:0:0:
416,372,203593,6,0,P|440:320|492:304,1,110
372,248,204054,2,0,P|348:196|296:180,1,110,8|0,0:0|0:0,0:0:0:0:
96,12,204516,6,0,P|72:64|20:80,1,110
140,136,204977,2,0,P|164:188|216:204,1,110,8|0,0:0|0:0,0:0:0:0:
496,100,205439,5,12,3:0:0:0:
444,244,205670,1,0,0:0:0:0:
300,192,205900,1,8,0:0:0:0:
353,46,206131,1,0,0:0:0:0:
159,46,206362,5,0,0:0:0:0:
212,192,206592,1,0,0:0:0:0:
68,244,206823,1,8,0:0:0:0:
16,100,207054,1,0,0:0:0:0:
256,344,207285,5,4,0:0:0:0:
256,256,207746,5,8,0:0:0:0:
256,128,208208,5,0,0:0:0:0:
256,40,208669,5,8,0:0:0:0:
192,192,209131,5,0,0:0:0:0:
320,192,209592,5,8,0:0:0:0:
104,192,210054,5,0,0:0:0:0:
408,192,210516,5,8,0:0:0:0:
52,272,210977,5,0,0:0:0:0:
460,112,211439,5,8,0:0:0:0:
32,368,211900,5,0,0:0:0:0:
480,16,212362,5,8,0:0:0:0:
52,272,212823,5,0,0:0:0:0:
460,112,213285,6,0,L|460:176,1,55,8|0,0:0|0:0,0:0:0:0:
104,192,213746,5,0,0:0:0:0:
104,192,213977,1,8,0:0:0:0:
104,192,214208,6,0,L|160:192,1,55,8|0,0:0|0:0,0:0:0:0:
376,232,214669,6,0,L|376:272,3,27.5
52,112,215131,5,8,0:0:0:0:
320,128,215592,6,0,L|320:168,3,27.5
32,16,216054,5,8,0:0:0:0:
448,64,216516,6,0,L|448:104,1,27.5
460,112,216746,2,0,L|460:152,1,27.5
148,112,216977,5,8,0:0:0:0:
312,352,217439,6,0,L|312:312,1,27.5
300,304,217669,2,0,L|300:264,1,27.5
120,28,217900,5,8,0:0:0:0:
284,256,218362,5,0,0:0:0:0:
228,128,218823,5,8,0:0:0:0:
228,256,219285,5,0,0:0:0:0:
284,128,219746,5,8,0:0:0:0:
284,256,220208,5,12,3:0:0:0:
228,128,220439,5,8,3:0:0:0:
228,256,220669,5,8,0:0:0:0:
284,128,220900,5,8,3:0:0:0:
381,316,221131,5,12,3:0:0:0:
379,67,221362,5,8,3:0:0:0:
130,69,221592,5,8,0:0:0:0:
132,318,221823,5,8,3:0:0:0:
256,192,222054,12,0,225746,0:0:0:0:
256,296,227592,6,0,L|256:240,1,55,2|2,2:0|0:0,2:0:0:0:
256,88,228053,2,0,L|256:144,1,55,2|2,0:0|0:0,2:0:0:0:
152,192,228516,6,0,L|208:192,1,55,2|2,2:0|0:0,2:0:0:0:
360,192,228977,2,0,L|304:192,1,55,2|2,0:0|0:0,2:0:0:0:
