osu file format v14

[General]
AudioFilename: Super Junior - Sexy, Free & Single.mp3
AudioLeadIn: 0
PreviewTime: 61507
Countdown: 0
SampleSet: Normal
StackLeniency: 0.6
Mode: 0
LetterboxInBreaks: 0
WidescreenStoryboard: 0

[Editor]
DistanceSpacing: 1
BeatDivisor: 4
GridSize: 4
TimelineZoom: 1

[Metadata]
Title:Sexy, Free & Single
TitleUnicode:Sexy, Free & Single
Artist:Super Junior
ArtistUnicode:슈퍼주니어
Creator:Gray Veyron
Version:Normal
Source:
Tags:sj suju sment kpop
BeatmapID:201145
BeatmapSetID:69841

[Difficulty]
HPDrainRate:3
CircleSize:3.5
OverallDifficulty:3
ApproachRate:4
SliderMultiplier:1.2
SliderTickRate:1

[Events]
//Background and Video events
Video,-150,"720x480.avi"
0,0,"bg.jpg",0,0
//Break Periods
2,95099,110274
2,178577,193753
//Storyboard Layer 0 (Background)
//Storyboard Layer 1 (Fail)
//Storyboard Layer 2 (Pass)
//Storyboard Layer 3 (Foreground)
//Storyboard Sound Samples

[TimingPoints]
3073,521.739130434783,4,1,0,50,1,0
19768,-100,4,1,1,60,0,0
27594,-100,4,2,1,60,0,0
28116,-100,4,1,3,50,0,0
43246,-100,4,2,1,50,0,0
44812,-100,4,1,3,50,0,0
61507,-100,4,1,3,70,0,1
69855,-100,4,1,2,75,0,1
78203,-100,4,1,1,50,0,0
94899,-100,4,1,0,50,0,0
111594,-100,4,1,3,60,0,0
128290,-100,4,2,1,50,0,0
130377,-100,4,3,0,50,0,0
131942,-100,4,2,1,50,0,0
136638,-100,4,2,1,50,0,0
138725,-100,4,3,0,50,0,0
140290,-100,4,2,1,50,0,0
142899,-100,4,2,2,40,0,0
144986,-100,4,1,3,80,0,1
153333,-100,4,1,1,85,0,1
161681,-100,4,1,1,50,0,0
178377,-100,4,1,0,50,0,0
195073,-100,4,1,1,60,0,0
203420,-100,4,1,3,80,0,1
211768,-100,4,1,2,85,0,1
220116,-100,4,2,0,25,0,0
222725,-100,4,2,2,10,0,0

[Colours]
Combo1 : 191,0,0
Combo2 : 214,180,107
Combo3 : 98,44,30
Combo4 : 0,0,159

[HitObjects]
96,136,19768,5,0,0:0:0:0:
200,80,20290,2,0,P|212:140|192:204,1,120,2|0,0:0|0:0,0:0:0:0:
100,256,21333,1,2,0:0:0:0:
140,300,21594,1,0,0:0:0:0:
200,308,21855,2,0,P|256:292|296:248,1,120,0|2,0:0|0:0,0:0:0:0:
308,128,22899,1,0,0:0:0:0:
364,144,23159,1,0,0:0:0:0:
404,188,23420,1,2,0:0:0:0:
500,260,23942,6,0,P|452:300|372:304,1,120,0|2,0:0|0:0,0:0:0:0:
276,312,24986,2,0,P|217:301|172:262,1,120,0|2,0:0|0:0,0:0:0:0:
272,192,26029,1,0,0:0:0:0:
160,144,26551,1,2,0:0:0:0:
256,76,27073,2,0,P|211:37|152:26,1,120,0|2,0:0|0:0,0:0:0:0:
60,100,28116,38,0,P|49:158|69:214,1,120,4|8,0:0|0:0,0:0:0:0:
184,252,29159,2,0,P|145:296|134:355,1,120,0|8,0:0|0:0,0:0:0:0:
256,352,30203,2,0,P|294:307|305:248,1,120,0|8,0:0|0:0,0:0:0:0:
424,240,31246,2,0,P|404:184|358:145,1,120,0|8,0:0|0:0,0:0:0:0:
300,136,32029,1,0,0:0:0:0:
252,172,32290,6,0,P|195:214|146:218,1,120,0|8,0:0|0:0,0:0:0:0:
40,268,33333,2,0,P|31:197|52:153,1,120,0|8,0:0|0:0,0:0:0:0:
68,36,34377,2,0,P|133:63|160:104,1,120,0|8,0:0|0:0,0:0:0:0:
268,56,35420,1,0,0:0:0:0:
283,113,35681,1,0,0:0:0:0:
259,167,35942,1,8,0:0:0:0:
216,280,36464,37,0,0:0:0:0:
164,248,36725,1,0,0:0:0:0:
148,192,36986,2,0,P|120:140|64:108,1,120,8|0,0:0|0:0,0:0:0:0:
32,224,38029,1,8,0:0:0:0:
148,192,38551,2,0,L|268:160,1,120,0|8,0:0|0:0,0:0:0:0:
320,144,39333,1,0,0:0:0:0:
376,128,39594,2,0,P|432:148|476:196,1,120,0|8,0:0|0:0,0:0:0:0:
368,248,40638,6,0,L|328:364,1,120,0|8,0:0|0:0,0:0:0:0:
208,348,41681,2,0,L|247:234,1,120,0|8,0:0|0:0,0:0:0:0:
288,120,42725,1,0,0:0:0:0:
172,96,43246,2,0,P|104:92|48:128,1,120,2|2,0:0|0:0,0:0:0:0:
84,232,44290,1,2,0:0:0:0:
144,240,44551,1,2,0:0:0:0:
196,212,44812,38,0,P|308:208|320:208,1,120,4|8,0:0|0:0,0:0:0:0:
380,308,45855,2,0,P|268:312|256:312,1,120,0|8,0:0|0:0,0:0:0:0:
200,320,46638,1,0,0:0:0:0:
140,304,46899,2,0,P|136:192|136:180,1,120,0|8,0:0|0:0,0:0:0:0:
76,80,47942,2,0,P|134:64|192:76,1,120,0|8,0:0|0:0,0:0:0:0:
284,152,48986,5,0,0:0:0:0:
400,124,49507,2,0,P|456:132|504:172,1,120,8|0,0:0|0:0,0:0:0:0:
408,244,50551,1,8,0:0:0:0:
420,304,50812,1,0,0:0:0:0:
412,364,51073,2,0,P|356:356|308:316,1,120,0|8,0:0|0:0,0:0:0:0:
292,196,52116,2,0,L|168:176,1,120,0|8,0:0|0:0,0:0:0:0:
60,144,53159,37,4,0:1:0:0:
28,260,53681,1,8,0:0:0:0:
88,260,53942,1,0,0:0:0:0:
140,232,54203,1,0,0:0:0:0:
212,136,54725,1,8,0:0:0:0:
228,192,54986,1,0,0:0:0:0:
268,236,55246,2,0,P|332:268|392:264,1,120,0|8,0:0|0:0,0:0:0:0:
480,204,56290,2,0,P|416:172|356:176,1,120,0|8,0:0|0:0,0:0:0:0:
312,196,57073,1,0,0:0:0:0:
268,236,57333,6,0,L|144:200,1,120,0|8,0:0|0:0,0:0:0:0:
40,164,58377,1,0,0:0:0:0:
136,92,58899,1,8,0:0:0:0:
188,68,59159,1,0,0:0:0:0:
248,68,59420,2,0,P|304:92|332:152,1,120,0|8,0:0|0:0,0:0:0:0:
444,188,60464,1,0,0:0:0:0:
416,240,60725,1,8,0:0:0:0:
360,264,60986,1,8,0:0:0:0:
264,336,61507,22,8,P|240:272|252:212,1,120,12|8,0:0|0:0,0:0:0:0:
236,104,62551,2,8,P|303:115|349:155,1,120,8|8,0:0|0:0,0:0:0:0:
452,192,63594,2,8,P|408:244|350:264,2,120,8|8|8,0:0|0:0|0:0,0:0:0:0:
340,148,65159,1,8,0:0:0:0:
292,112,65420,1,0,0:0:0:0:
232,104,65681,6,0,L|124:168,1,120,8|8,0:0|0:0,0:0:0:0:
128,284,66725,2,0,L|236:216,1,120,8|8,0:0|0:0,0:0:0:0:
348,224,67768,1,8,0:0:0:0:
383,270,68029,1,0,0:0:0:0:
443,282,68290,1,8,0:0:0:0:
448,164,68812,2,8,P|406:117|344:108,1,120,8|8,0:0|0:0,0:0:0:0:
232,104,69855,22,8,P|176:120|132:164,1,120,8|4,0:0|0:0,0:0:0:0:
136,284,70899,2,8,P|192:268|236:224,1,120,8|4,0:0|0:0,0:0:0:0:
244,164,71681,1,0,0:0:0:0:
232,104,71942,2,0,L|368:128,1,120,8|4,0:0|0:0,0:0:0:0:
444,52,72986,2,0,P|468:112|452:188,1,120,8|4,0:0|0:0,0:0:0:0:
424,212,73768,1,0,0:0:0:0:
372,244,74029,37,8,0:0:0:0:
256,276,74551,1,4,0:0:0:0:
140,244,75073,2,0,P|100:200|88:136,1,120,8|4,0:0|0:0,0:0:0:0:
208,144,76116,2,0,P|252:104|316:92,1,120,8|4,0:0|0:0,0:0:0:0:
412,156,77159,1,8,0:0:0:0:
368,196,77420,1,0,0:0:0:0:
308,208,77681,1,4,0:0:0:0:
208,144,78203,38,0,L|92:112,1,120,2|0,0:0|0:0,0:0:0:0:
40,144,78986,1,0,0:0:0:0:
60,200,79246,2,0,L|176:232,1,120,2|0,0:0|0:0,0:0:0:0:
232,340,80290,2,0,L|332:272,1,120,2|0,0:0|0:0,0:0:0:0:
380,240,81073,1,0,0:0:0:0:
428,204,81333,1,2,0:0:0:0:
444,84,81855,1,2,0:0:0:0:
340,148,82377,6,0,P|276:144|232:108,1,120,2|0,0:0|0:0,0:0:0:0:
204,56,83159,1,0,0:0:0:0:
144,72,83420,2,0,P|100:116|84:180,1,120,2|0,0:0|0:0,0:0:0:0:
36,280,84464,2,0,P|83:315|142:317,1,120,2|0,0:0|0:0,0:0:0:0:
192,284,85246,1,0,0:0:0:0:
236,244,85507,2,0,P|295:246|342:281,1,120,2|2,0:0|0:0,0:0:0:0:
436,360,86551,37,2,0:0:0:0:
460,244,87073,1,0,0:0:0:0:
416,200,87333,1,0,0:0:0:0:
364,168,87594,2,0,P|304:160|244:160,1,120,2|0,0:0|0:0,0:0:0:0:
124,164,88638,1,2,0:0:0:0:
136,224,88899,1,0,0:0:0:0:
180,264,89159,1,0,0:0:0:0:
300,264,89681,2,0,P|339:219|356:162,1,120,2|2,0:0|0:0,0:0:0:0:
412,56,90725,6,0,P|353:43|295:57,1,120,2|0,0:0|0:0,0:0:0:0:
176,64,91768,2,0,P|194:120|235:163,1,120,2|0,0:0|0:0,0:0:0:0:
256,192,92812,12,4,94899,1:0:0:0:
256,40,111594,53,4,0:0:0:0:
376,56,112116,1,8,0:0:0:0:
432,76,112377,1,0,0:0:0:0:
472,120,112638,2,0,P|432:153|365:167,1,120,0|8,0:0|0:0,0:0:0:0:
248,144,113681,2,0,P|281:183|295:250,1,120,0|8,0:0|0:0,0:0:0:0:
184,292,114725,2,0,P|150:252|136:185,1,120,0|8,0:0|0:0,0:0:0:0:
256,196,115768,38,0,P|138:185|54:103,1,240,0|0,0:0|0:0,0:0:0:0:
156,40,117333,1,8,0:0:0:0:
204,72,117594,1,0,0:0:0:0:
264,80,117855,1,0,0:0:0:0:
376,32,118377,1,8,0:0:0:0:
392,152,118899,2,0,P|418:195|423:265,1,120,0|8,0:0|0:0,0:0:0:0:
306,282,119942,6,0,P|279:238|274:168,1,120,0|8,0:0|0:0,0:0:0:0:
288,112,120725,1,0,0:0:0:0:
228,108,120986,2,0,L|104:100,1,120,0|8,0:0|0:0,0:0:0:0:
40,200,122029,2,0,L|159:207,1,120,0|8,0:0|0:0,0:0:0:0:
276,228,123073,2,0,P|252:284|192:324,1,120,0|8,0:0|0:0,0:0:0:0:
160,208,124116,37,0,0:0:0:0:
240,120,124638,2,0,L|368:144,1,120,8|0,0:0|0:0,0:0:0:0:
452,68,125681,1,8,0:0:0:0:
395,58,125942,1,0,0:0:0:0:
335,46,126203,1,0,0:0:0:0:
216,60,126725,2,0,P|204:116|240:188,1,120,8|0,0:0|0:0,0:0:0:0:
332,228,127768,2,0,L|352:288,1,60,0|0,0:0|0:0,0:0:0:0:
324,340,128290,6,0,P|262:351|207:319,1,120,4|4,0:3|0:0,0:0:0:0:
220,204,129333,1,0,0:0:0:0:
124,132,129855,1,4,0:0:0:0:
128,252,130377,2,0,P|76:244|21:196,2,120,8|8|8,0:0|0:0|0:0,0:0:0:0:
124,132,131942,1,4,0:0:0:0:
240,164,132464,38,0,L|372:196,1,120,0|4,0:0|0:0,0:0:0:0:
380,248,133246,1,0,0:0:0:0:
332,284,133507,2,0,L|215:255,1,120,0|4,0:0|0:0,0:0:0:0:
100,220,134551,2,0,B|83:193|101:161|101:161|126:146|158:153,1,120,0|4,0:0|0:0,0:0:0:0:
264,204,135594,2,0,B|294:211|319:196|319:196|337:164|319:137,1,120,0|4,0:0|0:0,0:0:0:0:
368,28,136638,6,0,P|416:68|440:128,1,120,0|4,0:0|0:0,0:0:0:0:
392,228,137681,2,0,P|344:188|316:128,1,120,0|4,0:0|0:0,0:0:0:0:
200,96,138725,2,0,P|141:117|76:112,2,120,8|12|8,0:0|0:0|0:0,0:0:0:0:
296,24,140290,1,4,0:0:0:0:
312,144,140812,38,0,P|316:180|336:208,1,60
376,236,141333,2,0,P|376:296|336:336,1,120,4|0,0:0|0:0,0:0:0:0:
276,328,142116,2,0,P|244:328|208:344,1,60,0|4,0:0|0:0,0:0:0:0:
112,280,142899,6,0,P|64:244|40:176,1,120
160,172,143942,2,0,P|156:100|182:52,1,120,0|4,0:0|0:0,0:0:0:0:
272,132,144986,21,12,0:0:0:0:
368,200,145507,1,8,0:0:0:0:
392,144,145768,1,0,0:0:0:0:
436,104,146029,2,0,B|468:164|460:224,1,120,8|8,0:0|0:0,0:0:0:0:
392,316,147073,2,0,B|360:252|368:200,1,120,8|8,0:0|0:0,0:0:0:0:
264,260,148116,2,0,L|152:308,1,120,8|8,0:0|0:0,0:0:0:0:
52,240,149159,6,0,L|164:188,2,120,8|8|8,0:0|0:0|0:0,0:0:0:0:
120,340,150725,1,8,0:0:0:0:
180,332,150986,1,0,0:0:0:0:
240,320,151246,2,8,P|296:304|352:252,1,120,8|8,0:0|0:0,0:0:0:0:
404,160,152290,2,8,P|412:92|384:32,1,120,8|8,0:0|0:0,0:0:0:0:
296,112,153333,22,0,P|252:148|188:156,1,120,8|4,0:0|0:0,0:0:0:0:
132,144,154116,1,0,0:0:0:0:
88,104,154377,2,0,L|60:224,1,120,8|4,0:0|0:0,0:0:0:0:
32,336,155420,1,8,0:0:0:0:
148,304,155942,2,0,P|208:304|268:280,1,120,4|8,0:0|0:0,0:0:0:0:
316,252,156725,1,0,0:0:0:0:
344,200,156986,1,4,0:0:0:0:
300,88,157507,38,0,P|248:128|227:178,1,120,8|4,0:0|0:0,0:0:0:0:
212,296,158551,2,0,L|96:248,1,120,8|4,0:0|0:0,0:0:0:0:
28,156,159594,1,8,0:0:0:0:
84,136,159855,1,0,0:0:0:0:
140,116,160116,2,0,L|250:161,1,120,4|8,0:0|0:0,0:0:0:0:
364,204,161159,1,4,0:0:0:0:
444,292,161681,38,0,P|396:320|324:316,1,120,2|0,0:0|0:0,0:0:0:0:
280,296,162464,1,0,0:0:0:0:
228,268,162725,2,0,P|168:268|116:297,1,120,2|0,0:0|0:0,0:0:0:0:
16,364,163768,2,0,L|28:244,1,120,2|0,0:0|0:0,0:0:0:0:
44,124,164812,2,0,P|96:140|140:192,1,120,2|2,0:0|0:0,0:0:0:0:
144,248,165594,1,2,0:0:0:0:
124,304,165855,6,0,L|244:264,1,120,2|0,0:0|0:0,0:0:0:0:
296,284,166638,1,0,0:0:0:0:
356,300,166899,2,0,L|476:260,1,120,2|0,0:0|0:0,0:0:0:0:
492,144,167942,1,2,0:0:0:0:
412,52,168464,2,0,P|376:104|372:164,1,120,0|2,0:0|0:0,0:0:0:0:
448,252,169507,1,2,0:0:0:0:
388,264,169768,1,2,0:0:0:0:
328,272,170029,38,0,L|200:292,1,120,2|0,0:0|0:0,0:0:0:0:
132,196,171073,2,0,L|250:177,1,120,2|0,0:0|0:0,0:0:0:0:
368,160,172116,1,2,0:0:0:0:
400,108,172377,1,0,0:0:0:0:
400,48,172638,2,0,P|320:52|284:76,1,120,0|2,0:0|0:0,0:0:0:0:
368,160,173681,1,2,0:0:0:0:
416,196,173942,1,2,0:0:0:0:
448,248,174203,6,0,P|400:276|328:272,1,120,2|0,0:0|0:0,0:0:0:0:
284,248,174986,1,0,0:0:0:0:
232,220,175246,2,0,P|172:218|121:247,1,120,2|0,0:0|0:0,0:0:0:0:
256,192,176290,12,4,178377,1:0:0:0:
96,148,195073,54,0,L|140:260,1,120,2|0,0:0|0:0,0:0:0:0:
220,172,196116,2,0,L|264:284,1,120,2|0,0:0|0:0,0:0:0:0:
340,192,197159,2,0,L|384:304,1,120,2|0,0:0|0:0,0:0:0:0:
440,196,198203,2,0,P|425:137|373:95,1,120,2|2,0:0|0:0,0:0:0:0:
324,80,198986,1,2,0:0:0:0:
268,64,199246,37,2,0:0:0:0:
152,96,199768,2,0,P|100:152|88:200,2,120,0|2|0,0:0|0:0|0:0,0:0:0:0:
208,204,201333,2,0,P|187:259|144:300,2,120,2|2|2,0:0|0:0|0:0,0:0:0:0:
304,132,202899,1,2,0:0:0:0:
340,244,203420,38,8,P|400:244|456:280,2,120,12|8|8,0:0|0:0|0:0,0:0:0:0:
268,340,204986,1,8,0:0:0:0:
232,292,205246,1,0,0:0:0:0:
196,244,205507,2,8,P|136:244|80:280,1,120,8|8,0:0|0:0,0:0:0:0:
52,160,206551,2,8,P|104:136|168:132,1,120,8|8,0:0|0:0,0:0:0:0:
284,104,207594,6,8,P|284:163|254:214,1,120,8|8,0:0|0:0,0:0:0:0:
220,328,208638,2,8,P|168:298|138:247,1,120,8|8,0:0|0:0,0:0:0:0:
52,164,209681,1,8,0:0:0:0:
104,132,209942,1,0,0:0:0:0:
164,132,210203,2,0,L|276:88,1,120,8|8,0:0|0:0,0:0:0:0:
396,92,211246,1,8,0:0:0:0:
332,192,211768,22,0,L|220:236,1,120,8|4,0:0|0:0,0:0:0:0:
216,356,212812,2,0,P|159:340|116:300,1,120,8|4,0:0|0:0,0:0:0:0:
100,240,213594,1,0,0:0:0:0:
116,184,213855,2,0,P|155:139|211:119,1,120,8|4,0:0|0:0,0:0:0:0:
312,56,214899,2,0,P|330:112|320:170,1,120,8|4,0:0|0:0,0:0:0:0:
328,292,215942,38,0,P|269:280|224:242,1,120,8|4,0:0|0:0,0:0:0:0:
116,188,216986,1,8,0:0:0:0:
100,244,217246,1,0,0:0:0:0:
120,300,217507,1,4,0:0:0:0:
224,244,218029,2,0,P|236:172|220:124,1,120,8|4,0:0|0:0,0:0:0:0:
116,188,219073,2,0,L|44:188,2,60,8|0|4,0:0|0:0|0:0,0:0:0:0:
222,128,220116,38,0,P|236:185|224:244,1,120,2|2,0:0|0:0,0:0:0:0:
168,352,221159,2,0,B|228:380|284:348,1,120,2|2,0:0|0:0,0:0:0:0:
332,316,221942,1,0,0:0:0:0:
356,260,222203,1,2,0:0:0:0:
384,144,222725,2,0,L|448:176,1,60,2|2,0:0|0:0,0:0:0:0:
