osu file format v14

[General]
AudioFilename: Super Junior - Sexy, Free & Single.mp3
AudioLeadIn: 0
PreviewTime: 61507
Countdown: 0
SampleSet: Normal
StackLeniency: 0.8
Mode: 0
LetterboxInBreaks: 0
WidescreenStoryboard: 0

[Editor]
DistanceSpacing: 0.7
BeatDivisor: 4
GridSize: 4
TimelineZoom: 0.9999999

[Metadata]
Title:Sexy, Free & Single
TitleUnicode:Sexy, Free & Single
Artist:Super Junior
ArtistUnicode:슈퍼주니어
Creator:Gray Veyron
Version:Insane
Source:
Tags:sj suju sment kpop
BeatmapID:232249
BeatmapSetID:69841

[Difficulty]
HPDrainRate:7
CircleSize:5
OverallDifficulty:7
ApproachRate:8
SliderMultiplier:2.19999990463257
SliderTickRate:1

[Events]
//Background and Video events
Video,-150,"720x480.avi"
0,0,"bg.jpg",0,0
//Break Periods
2,95098,110844
2,178576,194323
//Storyboard Layer 0 (Background)
//Storyboard Layer 1 (Fail)
//Storyboard Layer 2 (Pass)
//Storyboard Layer 3 (Foreground)
//Storyboard Sound Samples

[TimingPoints]
3073,521.739130434783,4,1,0,50,1,0
19768,-100,4,1,1,50,0,0
27594,-66.6666666666667,4,2,1,40,0,0
28116,-100,4,1,3,50,0,0
43246,-100,4,2,1,50,0,0
44812,-100,4,1,3,50,0,0
61507,-100,4,1,3,70,0,1
69855,-100,4,1,1,75,0,1
78203,-100,4,1,1,50,0,0
94899,-100,4,1,0,50,0,0
111594,-100,4,1,3,60,0,0
128290,-142.857142857143,4,2,1,50,0,0
130377,-142.857142857143,4,3,0,50,0,0
131942,-142.857142857143,4,2,1,50,0,0
136638,-142.857142857143,4,2,1,50,0,0
138725,-142.857142857143,4,3,0,50,0,0
140290,-142.857142857143,4,2,1,50,0,0
142899,-142.857142857143,4,2,2,40,0,0
144986,-100,4,1,3,80,0,1
153333,-100,4,1,1,85,0,1
161681,-100,4,1,1,50,0,0
178377,-100,4,1,0,50,0,0
195073,-100,4,1,1,60,0,0
203420,-100,4,1,3,80,0,1
211768,-100,4,1,2,85,0,1
220116,-142.857142857143,4,2,0,25,0,0
222725,-142.857142857143,4,2,2,10,0,0

[Colours]
Combo1 : 191,0,0
Combo2 : 214,180,107
Combo3 : 98,44,30
Combo4 : 0,0,159

[HitObjects]
72,208,19768,6,0,P|88:264|136:304,1,109.999995231628
200,176,20290,1,2,0:0:0:0:
276,304,20551,2,0,P|316:264|328:212,1,109.999995231628
388,48,21073,1,0,0:0:0:0:
450,322,21333,2,0,P|455:268|440:216,1,109.999995231628,2|0,0:0|0:0,0:0:0:0:
388,48,21855,5,0,0:0:0:0:
300,144,22116,1,0,0:0:0:0:
300,144,22246,1,0,0:0:0:0:
300,144,22377,1,2,0:0:0:0:
432,164,22638,2,0,P|384:188|348:240,1,109.999995231628
320,264,23029,1,0,0:0:0:0:
276,272,23159,1,0,0:0:0:0:
188,204,23420,1,2,0:0:0:0:
84,244,23681,1,0,0:0:0:0:
40,144,23942,38,0,P|88:112|152:112,1,109.999995231628
244,260,24464,2,0,P|212:220|220:156,1,109.999995231628,2|0,0:0|0:0,0:0:0:0:
356,300,24986,2,0,P|337:347|277:372,1,109.999995231628
332,188,25507,2,0,P|382:180|434:219,1,109.999995231628,2|0,0:0|0:0,0:0:0:0:
244,260,26029,5,0,0:0:0:0:
64,236,26290,1,0,0:0:0:0:
36,72,26551,1,2,0:0:0:0:
144,200,26812,1,0,0:0:0:0:
216,216,27073,2,0,P|180:224|144:200,1,82.4999995708466
216,216,27594,38,0,P|200:316|136:348,1,164.999999141693,2|0,0:0|0:0,0:0:0:0:
136,348,27986,1,0,0:0:0:0:
124,348,28116,6,0,P|62:331|34:295,1,109.999995231628,4|0,0:0|0:0,0:0:0:0:
288,248,28638,2,0,P|352:248|388:276,1,109.999995231628,8|0,0:0|0:0,0:0:0:0:
408,312,29029,1,0,0:0:0:0:
408,312,29159,1,0,0:0:0:0:
484,232,29420,1,0,0:0:0:0:
472,184,29551,1,0,0:0:0:0:
444,144,29681,2,0,P|399:114|345:117,1,109.999995231628,8|0,0:0|0:0,0:0:0:0:
300,140,30073,1,0,0:0:0:0:
268,180,30203,37,0,0:0:0:0:
372,220,30464,1,0,0:0:0:0:
372,220,30594,1,0,0:0:0:0:
372,220,30725,2,0,L|392:112,1,109.999995231628,8|0,0:0|0:0,0:0:0:0:
256,136,31246,2,0,L|256:20,1,109.999995231628
128,216,31768,2,0,L|108:108,1,109.999995231628,8|0,0:0|0:0,0:0:0:0:
128,216,32290,5,0,0:0:0:0:
300,327,32551,1,0,0:0:0:0:
200,296,32812,1,8,0:0:0:0:
404,304,33073,1,0,0:0:0:0:
322,220,33333,2,0,P|316:275|300:327,1,109.999995231628
428,108,33855,2,0,P|411:160|405:214,1,109.999995231628,8|0,0:0|0:0,0:0:0:0:
344,56,34377,37,0,0:0:0:0:
256,152,34638,1,0,0:0:0:0:
36,72,34899,1,8,0:0:0:0:
168,56,35159,1,0,0:0:0:0:
116,168,35420,2,0,P|100:226|112:273,1,109.999995231628,0|0,0:0|0:0,0:0:0:0:
288,268,35942,2,0,P|304:210|292:163,1,109.999995231628,8|0,0:0|0:0,0:0:0:0:
108,156,36464,6,0,P|92:214|104:261,1,109.999995231628,0|0,0:0|0:0,0:0:0:0:
128,284,36855,1,0,0:0:0:0:
160,296,36986,1,8,0:0:0:0:
232,212,37246,2,0,P|248:154|236:107,1,109.999995231628,0|0,0:0|0:0,0:0:0:0:
212,84,37638,1,0,0:0:0:0:
180,72,37768,1,0,0:0:0:0:
108,156,38029,1,8,0:0:0:0:
260,164,38290,2,0,L|320:168,1,54.9999976158142
360,172,38551,38,0,P|392:128|392:72,1,109.999995231628
216,96,39073,2,0,P|184:140|184:195,1,109.999995231628,8|0,0:0|0:0,0:0:0:0:
328,240,39594,2,0,P|382:242|428:204,1,109.999995231628
248,28,40116,2,0,P|193:25|152:60,1,109.999995231628,8|0,0:0|0:0,0:0:0:0:
128,220,40638,5,0,0:0:0:0:
276,172,40899,1,0,0:0:0:0:
128,128,41159,1,8,0:0:0:0:
220,252,41420,1,0,0:0:0:0:
216,96,41681,2,0,P|268:72|320:84,1,109.999995231628
460,144,42203,2,0,P|408:168|356:156,1,109.999995231628,8|0,0:0|0:0,0:0:0:0:
216,96,42725,37,0,0:0:0:0:
216,96,43246,2,0,L|104:60,1,109.999995231628,2|0,0:0|0:0,0:0:0:0:
190,192,43768,2,0,L|80:192,1,109.999995231628,2|2,0:0|0:0,0:0:0:0:
216,288,44290,2,0,L|104:324,1,109.999995231628,2|2,0:0|0:0,0:0:0:0:
256,224,44812,6,0,P|284:252|284:320,1,109.999995231628,4|0,0:0|0:0,0:0:0:0:
190,192,45333,1,8,0:0:0:0:
348,168,45594,1,0,0:0:0:0:
348,168,45725,1,0,0:0:0:0:
348,168,45855,2,0,P|404:152|460:152,1,109.999995231628
190,192,46377,1,8,0:0:0:0:
340,248,46638,1,0,0:0:0:0:
340,248,46769,1,0,0:0:0:0:
340,248,46899,38,0,P|393:271|436:307,1,109.999995231628
296,196,47420,1,8,0:0:0:0:
476,264,47681,1,0,0:0:0:0:
428,116,47942,1,0,0:0:0:0:
344,344,48203,1,0,0:0:0:0:
428,116,48464,2,0,P|380:144|324:144,1,109.999995231628,8|0,0:0|0:0,0:0:0:0:
164,120,48986,6,0,P|212:92|268:92,1,109.999995231628,0|0,0:0|0:0,0:0:0:0:
248,208,49507,1,8,0:0:0:0:
304,308,49768,1,0,0:0:0:0:
304,308,49899,1,0,0:0:0:0:
304,308,50029,2,0,P|356:288|411:298,1,109.999995231628,0|0,0:0|0:0,0:0:0:0:
220,335,50551,2,0,P|169:353|117:340,1,109.999995231628,8|0,0:0|0:0,0:0:0:0:
92,260,51073,38,0,L|4:156,1,109.999995231628
80,60,51594,2,0,L|151:143,1,109.999995231628,8|0,0:0|0:0,0:0:0:0:
244,236,52116,2,0,P|276:196|336:184,1,109.999995231628
204,320,52638,2,0,P|162:284|151:232,1,109.999995231628,8|0,0:0|0:0,0:0:0:0:
296,312,53159,5,4,0:1:0:0:
376,240,53420,2,0,P|380:292|420:332,1,109.999995231628,0|8,0:0|0:0,0:0:0:0:
464,200,53942,2,0,P|464:152|420:108,1,109.999995231628,0|0,0:0|0:0,0:0:0:0:
248,104,54464,1,0,0:0:0:0:
112,216,54725,1,8,0:0:0:0:
120,248,54855,1,0,0:0:0:0:
136,276,54986,1,0,0:0:0:0:
224,340,55246,37,0,0:0:0:0:
332,324,55507,1,0,0:0:0:0:
312,216,55768,1,8,0:0:0:0:
204,232,56029,1,0,0:0:0:0:
252,363,56290,1,0,0:0:0:0:
356,294,56551,1,0,0:0:0:0:
283,192,56812,1,8,0:0:0:0:
179,261,57073,1,0,0:0:0:0:
148,272,57203,1,0,0:0:0:0:
116,268,57333,6,0,P|60:256|12:272,2,109.999995231628,0|0|8,0:0|0:0|0:0,0:0:0:0:
68,368,58116,1,0,0:0:0:0:
60,236,58377,2,0,B|48:172|68:128|68:128|120:112|160:64,1,219.999990463257,0|8,0:0|0:0,0:0:0:0:
248,176,59159,1,0,0:0:0:0:
412,172,59420,38,0,P|404:264|352:308,1,164.999992847443
312,324,59942,2,0,P|264:304|208:320,1,109.999995231628,8|0,0:0|0:0,0:0:0:0:
132,364,60464,1,0,0:0:0:0:
136,320,60594,1,0,0:0:0:0:
124,276,60725,1,8,0:0:0:0:
92,244,60855,1,0,0:0:0:0:
60,212,60986,2,0,P|68:120|120:76,1,164.999992847443,8|0,0:0|0:0,0:0:0:0:
164,64,61507,37,12,0:0:0:0:
244,220,61768,1,0,0:0:0:0:
276,48,62029,1,8,0:0:0:0:
148,168,62290,1,0,0:0:0:0:
324,140,62551,1,8,0:0:0:0:
120,116,62812,1,0,0:0:0:0:
310,204,63073,1,8,0:0:0:0:
213,19,63333,1,0,0:0:0:0:
182,226,63594,5,8,0:0:0:0:
326,70,63855,1,0,0:0:0:0:
248,236,64116,2,0,L|268:348,1,109.999995231628,8|0,0:0|0:0,0:0:0:0:
344,340,64638,1,8,0:0:0:0:
180,324,64899,1,0,0:0:0:0:
328,252,65159,1,8,0:0:0:0:
164,240,65420,1,0,0:0:0:0:
128,232,65551,1,0,0:0:0:0:
92,224,65681,22,0,L|16:144,1,109.999995231628,8|0,0:0|0:0,0:0:0:0:
172,92,66203,2,0,L|252:176,1,109.999995231628,8|0,0:0|0:0,0:0:0:0:
372,308,66725,1,8,0:0:0:0:
352,204,66986,1,0,0:0:0:0:
452,232,67246,1,8,0:0:0:0:
268,276,67507,1,0,0:0:0:0:
452,232,67768,38,0,P|456:176|428:128,1,109.999995231628,8|0,0:0|0:0,0:0:0:0:
308,84,68290,2,0,P|304:140|332:188,1,109.999995231628,8|0,0:0|0:0,0:0:0:0:
60,232,68812,2,0,P|56:176|84:128,1,109.999995231628,8|0,0:0|0:0,0:0:0:0:
204,84,69333,2,0,P|208:140|180:188,1,109.999995231628,8|0,0:0|0:0,0:0:0:0:
376,240,69855,22,0,P|344:292|296:312,1,109.999995231628,8|0,0:0|0:0,0:0:0:0:
268,316,70246,1,0,0:0:0:0:
236,308,70377,1,4,0:0:0:0:
104,168,70638,1,0,0:0:0:0:
132,276,70899,1,8,0:0:0:0:
292,124,71159,1,0,0:0:0:0:
184,96,71420,1,4,0:0:0:0:
324,228,71681,1,0,0:0:0:0:
216,204,71942,5,8,0:0:0:0:
372,156,72203,1,0,0:0:0:0:
404,144,72333,1,0,0:0:0:0:
436,144,72464,2,0,P|485:168|509:216,1,109.999995231628,4|0,0:0|0:0,0:0:0:0:
468,340,72986,2,0,P|418:315|394:267,1,109.999995231628,8|0,0:0|0:0,0:0:0:0:
436,144,73507,2,0,P|403:100|352:84,1,109.999995231628,4|0,0:0|0:0,0:0:0:0:
260,24,74029,22,0,P|238:73|250:126,1,109.999995231628,8|0,0:0|0:0,0:0:0:0:
333,192,74551,2,0,P|293:228|240:236,1,109.999995231628,4|0,0:0|0:0,0:0:0:0:
120,184,75073,1,8,0:0:0:0:
20,224,75333,1,0,0:0:0:0:
212,308,75594,1,4,0:0:0:0:
104,292,75855,1,0,0:0:0:0:
320,288,76116,38,0,P|376:264|404:224,1,109.999995231628,8|0,0:0|0:0,0:0:0:0:
472,88,76638,2,0,P|416:112|388:152,1,109.999995231628,4|0,0:0|0:0,0:0:0:0:
320,288,77159,1,8,0:0:0:0:
268,144,77420,1,0,0:0:0:0:
140,232,77681,1,4,0:0:0:0:
212,76,78203,37,2,0:0:0:0:
180,156,78464,1,0,0:0:0:0:
268,144,78725,1,0,0:0:0:0:
124,88,78986,1,0,0:0:0:0:
236,224,79246,1,2,0:0:0:0:
300,60,79507,1,0,0:0:0:0:
236,224,79768,1,0,0:0:0:0:
400,288,80029,1,0,0:0:0:0:
372,304,80159,1,0,0:0:0:0:
344,320,80290,6,0,P|292:340|240:320,1,109.999995231628,2|0,0:0|0:0,0:0:0:0:
44,280,80812,2,0,P|96:260|148:280,1,109.999995231628,0|0,0:0|0:0,0:0:0:0:
96,352,81333,1,2,0:0:0:0:
236,224,81594,1,2,0:0:0:0:
52,192,81855,1,2,0:0:0:0:
72,164,81986,1,0,0:0:0:0:
100,144,82116,1,2,0:0:0:0:
132,136,82246,1,0,0:0:0:0:
164,140,82377,37,2,0:0:0:0:
284,124,82638,1,0,0:0:0:0:
360,216,82899,1,0,0:0:0:0:
400,112,83159,1,0,0:0:0:0:
332,24,83420,1,2,0:0:0:0:
236,224,83681,1,0,0:0:0:0:
476,196,83942,1,0,0:0:0:0:
440,300,84203,2,0,L|392:344,1,54.9999976158142
372,356,84464,6,0,P|312:368|264:348,1,109.999995231628,2|0,0:0|0:0,0:0:0:0:
100,292,84986,2,0,P|160:280|208:300,1,109.999995231628,0|0,0:0|0:0,0:0:0:0:
148,368,85507,1,2,0:0:0:0:
324,280,85768,1,2,0:0:0:0:
396,96,86029,1,2,0:0:0:0:
368,80,86159,1,0,0:0:0:0:
336,76,86290,1,2,0:0:0:0:
304,88,86420,1,0,0:0:0:0:
276,108,86551,38,0,P|232:72|180:52,1,109.999995231628,2|0,0:0|0:0,0:0:0:0:
178,149,87073,2,0,L|224:180,3,54.9999976158142
180,244,87594,2,0,P|132:224|87:184,1,109.999995231628,2|0,0:0|0:0,0:0:0:0:
60,168,87986,1,0,0:0:0:0:
32,152,88116,1,0,0:0:0:0:
44,260,88377,1,0,0:0:0:0:
124,336,88638,5,2,0:0:0:0:
232,332,88899,1,0,0:0:0:0:
264,320,89029,1,0,0:0:0:0:
296,308,89159,2,0,P|352:300|404:320,1,109.999995231628
360,196,89681,1,2,0:0:0:0:
488,220,89942,1,2,0:0:0:0:
312,76,90203,1,2,0:0:0:0:
440,100,90464,1,2,0:0:0:0:
224,172,90725,38,0,L|192:296,1,109.999995231628,2|0,0:0|0:0,0:0:0:0:
133,209,91246,2,0,L|148:156,3,54.9999976158142
68,144,91768,2,0,L|40:252,1,109.999995231628,2|0,0:0|0:0,0:0:0:0:
32,284,92159,1,0,0:0:0:0:
40,316,92290,1,0,0:0:0:0:
140,364,92551,1,0,0:0:0:0:
351,309,92812,6,0,L|244:332,1,109.999995231628,2|0,0:0|0:0,0:0:0:0:
365,173,93333,2,0,L|272:232,1,109.999995231628,2|0,0:0|0:0,0:0:0:0:
325,30,93855,2,0,L|268:124,1,109.999995231628,2|2,0:0|0:0,0:0:0:0:
244,160,94203,2,0,L|220:196,1,36.6666650772095
272,244,94377,2,0,L|248:280,1,36.6666650772095,2|0,0:0|0:0,0:0:0:0:
184,252,94551,2,0,L|163:282,1,36.6666650772095,0|2,0:0|0:0,0:0:0:0:
152,172,94725,2,0,L|131:202,2,36.6666650772095,0|0|4,0:0|0:0|1:0,0:0:0:0:
80,144,111594,37,4,0:0:0:0:
192,128,111855,1,0,0:0:0:0:
148,228,112116,1,8,0:0:0:0:
128,40,112377,1,0,0:0:0:0:
128,40,112507,1,0,0:0:0:0:
128,40,112638,2,0,P|116:96|80:144,1,109.999995231628
192,128,113159,1,8,0:0:0:0:
256,40,113420,1,0,0:0:0:0:
256,40,113550,1,0,0:0:0:0:
256,40,113681,6,0,P|268:96|304:144,1,109.999995231628
324,244,114203,1,8,0:0:0:0:
488,240,114464,1,0,0:0:0:0:
408,312,114725,1,0,0:0:0:0:
404,180,114986,1,0,0:0:0:0:
368,168,115116,1,0,0:0:0:0:
332,176,115246,2,0,P|284:148|228:148,1,109.999995231628,8|0,0:0|0:0,0:0:0:0:
104,236,115768,38,0,P|152:264|208:264,1,109.999995231628,0|0,0:0|0:0,0:0:0:0:
208,144,116290,1,8,0:0:0:0:
308,80,116551,2,0,L|372:52,1,54.9999976158142
400,44,116812,2,0,P|424:88|428:148,1,109.999995231628
364,328,117333,1,8,0:0:0:0:
440,248,117594,1,0,0:0:0:0:
256,340,117855,6,0,P|172:336|112:284,1,164.999992847443
104,252,118377,2,0,P|52:236|22:191,1,109.999995231628,8|0,0:0|0:0,0:0:0:0:
92,104,118899,2,0,P|143:119|173:164,1,109.999995231628
312,300,119420,2,0,P|260:284|230:239,1,109.999995231628,8|0,0:0|0:0,0:0:0:0:
320,200,119942,37,0,0:0:0:0:
360,52,120203,1,0,0:0:0:0:
240,148,120464,1,8,0:0:0:0:
396,140,120725,1,0,0:0:0:0:
264,56,120986,1,0,0:0:0:0:
320,200,121246,2,0,P|368:212|408:256,1,109.999995231628,0|8,0:0|0:0,0:0:0:0:
296,328,121768,1,0,0:0:0:0:
219,233,122029,5,0,0:0:0:0:
160,97,122290,1,0,0:0:0:0:
27,161,122551,1,8,0:0:0:0:
85,295,122812,1,0,0:0:0:0:
220,152,123073,1,0,0:0:0:0:
76,96,123333,1,0,0:0:0:0:
24,240,123594,1,8,0:0:0:0:
168,292,123855,1,0,0:0:0:0:
200,299,123986,1,0,0:0:0:0:
232,307,124116,38,0,P|288:319|336:303,1,109.999995231628
280,144,124638,1,8,0:0:0:0:
396,244,124899,1,0,0:0:0:0:
280,144,125159,2,0,L|296:28,1,109.999995231628
212,60,125681,1,8,0:0:0:0:
364,96,125942,1,0,0:0:0:0:
204,132,126203,6,0,P|216:188|264:216,1,109.999995231628
416,228,126725,2,0,P|360:244|332:284,1,109.999995231628,8|0,0:0|0:0,0:0:0:0:
240,316,127246,1,0,0:0:0:0:
56,216,127507,1,0,0:0:0:0:
132,296,127768,1,0,0:0:0:0:
44,108,128029,1,0,0:0:0:0:
44,108,128290,38,0,P|104:145|170:104,1,153.999988624573,4|4,0:3|0:0,0:0:0:0:
376,172,129333,2,0,P|315:134|249:175,1,153.999988624573,0|4,0:0|0:0,0:0:0:0:
248,276,130116,1,0,0:0:0:0:
248,276,130246,1,0,0:0:0:0:
248,276,130377,5,8,0:0:0:0:
342,318,130638,1,8,0:0:0:0:
201,370,130899,1,8,0:0:0:0:
149,229,131159,1,8,0:0:0:0:
290,177,131420,1,8,0:0:0:0:
248,276,131681,2,0,L|236:232,1,38.4999971561433,8|0,0:0|0:0,0:0:0:0:
220,204,131942,2,0,P|216:132|256:88,1,115.49999146843,4|0,0:0|0:0,0:0:0:0:
272,80,132464,37,0,0:0:0:0:
388,120,132725,1,0,0:0:0:0:
444,228,132986,2,0,P|456:300|400:352,2,153.999988624573,4|0|4,0:0|0:0|0:0,0:0:0:0:
412,204,134159,1,0,0:0:0:0:
376,192,134290,1,0,0:0:0:0:
340,196,134420,1,0,0:0:0:0:
308,220,134551,5,0,0:0:0:0:
208,292,134812,1,0,0:0:0:0:
92,244,135073,1,4,0:0:0:0:
192,172,135333,1,0,0:0:0:0:
180,48,135594,1,0,0:0:0:0:
80,120,135855,1,0,0:0:0:0:
292,96,136116,1,4,0:0:0:0:
192,172,136377,1,0,0:0:0:0:
192,172,136507,1,0,0:0:0:0:
192,172,136638,38,0,P|176:128|80:120,1,153.999988624573,0|4,0:0|0:0,0:0:0:0:
64,288,137681,2,0,P|80:332|176:340,1,153.999988624573,0|4,0:0|0:0,0:0:0:0:
72,192,138464,1,0,0:0:0:0:
72,192,138594,1,0,0:0:0:0:
72,192,138725,5,8,0:0:0:0:
164,272,138986,1,8,0:0:0:0:
192,152,139246,1,12,0:0:0:0:
284,232,139507,1,8,0:0:0:0:
408,240,139768,1,8,0:0:0:0:
356,128,140029,1,8,0:0:0:0:
344,104,140159,1,0,0:0:0:0:
328,84,140290,2,0,P|288:72|232:96,1,76.9999943122866,4|0,0:0|0:0,0:0:0:0:
168,124,140812,37,0,0:0:0:0:
160,128,140942,1,0,0:0:0:0:
108,224,141203,1,0,0:0:0:0:
116,228,141333,2,0,P|185:235|252:180,1,153.999988624573,4|0,0:0|0:0,0:0:0:0:
272,164,141986,1,0,0:0:0:0:
300,144,142116,2,0,P|336:128|388:132,1,76.9999943122866,0|4,0:0|0:0,0:0:0:0:
448,180,142638,1,0,0:0:0:0:
256,192,142899,12,4,144464,0:0:0:0:
176,291,144986,37,12,0:0:0:0:
176,116,145246,1,0,0:0:0:0:
69,254,145507,1,8,0:0:0:0:
237,205,145768,1,0,0:0:0:0:
68,150,146029,1,8,0:0:0:0:
144,200,146290,1,0,0:0:0:0:
147,71,146551,2,0,P|94:59|39:68,1,109.999995231628,8|0,0:0|0:0,0:0:0:0:
335,127,147073,6,0,P|302:84|256:56,1,109.999995231628,8|0,0:0|0:0,0:0:0:0:
458,262,147594,2,0,P|461:207|444:156,1,109.999995231628,8|0,0:0|0:0,0:0:0:0:
400,356,148116,1,8,0:0:0:0:
236,340,148377,1,0,0:0:0:0:
400,356,148638,1,8,0:0:0:0:
176,232,148899,1,0,0:0:0:0:
164,240,149159,22,0,P|112:256|56:248,1,109.999995231628,8|0,0:0|0:0,0:0:0:0:
100,124,149681,2,0,P|152:108|208:116,1,109.999995231628,8|0,0:0|0:0,0:0:0:0:
428,216,150203,1,8,0:0:0:0:
324,180,150464,1,0,0:0:0:0:
396,320,150725,1,8,0:0:0:0:
292,288,150986,1,0,0:0:0:0:
180,296,151246,38,0,P|124:300|76:272,1,109.999995231628,8|0,0:0|0:0,0:0:0:0:
40,148,151768,2,0,P|96:144|144:172,1,109.999995231628,8|0,0:0|0:0,0:0:0:0:
204,321,152290,2,0,B|128:327|128:327|64:289,1,109.999995231628,8|0,0:0|0:0,0:0:0:0:
15,122,152812,2,0,B|91:116|91:116|155:154,1,109.999995231628,8|0,0:0|0:0,0:0:0:0:
268,80,153333,22,0,P|320:112|340:160,1,109.999995231628,8|0,0:0|0:0,0:0:0:0:
344,188,153725,1,0,0:0:0:0:
336,220,153855,1,4,0:0:0:0:
268,304,154116,1,0,0:0:0:0:
376,320,154377,1,8,0:0:0:0:
296,203,154638,1,0,0:0:0:0:
273,347,154899,1,4,0:0:0:0:
410,293,155159,1,0,0:0:0:0:
252,196,155420,5,8,0:0:0:0:
176,116,155681,1,0,0:0:0:0:
148,132,155812,1,0,0:0:0:0:
132,160,155942,2,0,P|132:216|172:264,1,109.999995231628,4|0,0:0|0:0,0:0:0:0:
144,368,156464,2,0,P|200:368|248:328,1,109.999995231628,8|0,0:0|0:0,0:0:0:0:
352,352,156986,2,0,P|352:296|312:248,1,109.999995231628,4|0,0:0|0:0,0:0:0:0:
336,144,157507,22,0,P|280:144|232:184,2,109.999995231628,8|0|4,0:0|0:0|0:0,0:0:0:0:
476,160,158290,1,0,0:0:0:0:
448,312,158551,1,8,0:0:0:0:
344,212,158812,1,0,0:0:0:0:
324,352,159073,1,4,0:0:0:0:
212,264,159333,1,0,0:0:0:0:
168,340,159594,38,0,P|120:378|72:384,1,109.999995231628,8|0,0:0|0:0,0:0:0:0:
73,151,160116,2,0,P|126:159|167:195,1,109.999995231628,4|0,0:0|0:0,0:0:0:0:
256,320,160638,1,8,0:0:0:0:
256,164,160899,1,0,0:0:0:0:
384,248,161159,1,4,0:0:0:0:
396,164,161681,37,2,0:0:0:0:
385,249,161942,1,0,0:0:0:0:
467,215,162203,1,0,0:0:0:0:
352,148,162464,1,0,0:0:0:0:
402,293,162725,1,2,0:0:0:0:
498,174,162986,1,0,0:0:0:0:
312,156,163246,1,0,0:0:0:0:
428,316,163507,1,0,0:0:0:0:
404,340,163638,1,0,0:0:0:0:
376,356,163768,6,0,P|324:376|272:356,1,109.999995231628,2|0,0:0|0:0,0:0:0:0:
164,364,164290,2,0,P|144:312|164:260,1,109.999995231628,0|0,0:0|0:0,0:0:0:0:
260,312,164812,1,2,0:0:0:0:
64,308,165073,1,2,0:0:0:0:
260,312,165333,1,2,0:0:0:0:
288,292,165464,1,0,0:0:0:0:
308,264,165594,1,2,0:0:0:0:
316,232,165725,1,0,0:0:0:0:
312,200,165855,37,2,0:0:0:0:
204,216,166116,1,0,0:0:0:0:
348,100,166377,1,0,0:0:0:0:
240,112,166638,1,0,0:0:0:0:
392,292,166899,1,2,0:0:0:0:
420,184,167159,1,0,0:0:0:0:
284,312,167420,1,0,0:0:0:0:
176,304,167681,2,0,L|132:256,1,54.9999976158142
120,236,167942,6,0,P|139:178|127:127,1,109.999995231628,2|0,0:0|0:0,0:0:0:0:
129,131,168333,1,0,0:0:0:0:
129,131,168464,1,0,0:0:0:0:
52,176,168725,1,0,0:0:0:0:
216,196,168986,2,0,P|276:208|320:236,1,109.999995231628,2|2,0:0|0:0,0:0:0:0:
340,376,169507,1,2,0:0:0:0:
372,368,169638,1,0,0:0:0:0:
396,344,169768,1,2,0:0:0:0:
404,312,169899,1,0,0:0:0:0:
396,280,170029,38,0,P|440:240|452:184,1,109.999995231628,2|0,0:0|0:0,0:0:0:0:
304,51,170551,2,0,P|341:90|352:144,1,109.999995231628,0|0,0:0|0:0,0:0:0:0:
108,106,171073,2,0,P|160:94|212:112,1,109.999995231628,2|0,0:0|0:0,0:0:0:0:
236,132,171464,1,0,0:0:0:0:
252,160,171594,1,0,0:0:0:0:
328,280,171855,1,0,0:0:0:0:
252,160,172116,5,2,0:0:0:0:
180,280,172377,1,0,0:0:0:0:
146,288,172507,1,0,0:0:0:0:
113,296,172638,2,0,P|56:297|7:270,1,109.999995231628
80,188,173159,1,2,0:0:0:0:
268,88,173420,1,2,0:0:0:0:
160,112,173681,1,2,0:0:0:0:
376,96,173942,1,2,0:0:0:0:
268,88,174203,38,0,P|284:156|312:184,1,109.999995231628,2|0,0:0|0:0,0:0:0:0:
472,148,174725,2,0,P|456:216|428:244,1,109.999995231628
304,352,175246,2,0,P|320:284|348:256,1,109.999995231628,2|0,0:0|0:0,0:0:0:0:
384,244,175638,1,0,0:0:0:0:
424,244,175768,1,0,0:0:0:0:
412,352,176029,1,0,0:0:0:0:
276,280,176290,6,0,L|176:224,1,109.999995231628,2|0,0:0|0:0,0:0:0:0:
48,228,176812,2,0,L|144:168,1,109.999995231628,2|0,0:0|0:0,0:0:0:0:
180,56,177333,2,0,L|212:164,1,109.999995231628,2|2,0:0|0:0,0:0:0:0:
228,200,177681,2,0,L|240:240,1,36.6666650772095,0|0,0:0|0:0,0:0:0:0:
168,308,177855,2,0,L|208:296,1,36.6666650772095,2|0,0:0|0:0,0:0:0:0:
280,364,178029,2,0,L|268:324,1,36.6666650772095,0|2,0:0|0:0,0:0:0:0:
340,256,178203,2,0,L|300:268,2,36.6666650772095,0|0|4,0:0|0:0|1:0,0:0:0:0:
384,212,195073,37,2,0:0:0:0:
348,312,195333,1,0,0:0:0:0:
280,228,195594,1,0,0:0:0:0:
456,296,195855,1,0,0:0:0:0:
236,328,196116,2,0,P|188:356|136:344,1,109.999995231628,2|0,0:0|0:0,0:0:0:0:
68,256,196638,1,0,0:0:0:0:
176,244,196899,1,0,0:0:0:0:
176,244,197029,1,0,0:0:0:0:
176,244,197159,6,0,P|143:198|148:142,1,109.999995231628,2|0,0:0|0:0,0:0:0:0:
188,44,197681,1,0,0:0:0:0:
256,128,197942,1,0,0:0:0:0:
68,64,198203,1,2,0:0:0:0:
256,128,198464,1,2,0:0:0:0:
336,232,198725,1,2,0:0:0:0:
316,260,198855,1,0,0:0:0:0:
288,280,198986,1,2,0:0:0:0:
256,288,199116,1,0,0:0:0:0:
224,284,199246,38,0,P|176:252|164:200,1,109.999995231628,2|0,0:0|0:0,0:0:0:0:
284,124,199768,2,0,P|332:156|343:208,1,109.999995231628
224,284,200290,2,0,P|176:252|164:200,2,109.999995231628,2|0|0,0:0|0:0|0:0,0:0:0:0:
420,232,201073,2,0,L|411:296,1,54.9999976158142
403,318,201333,6,0,P|364:365|315:381,1,109.999995231628,2|0,0:0|0:0,0:0:0:0:
124,360,201855,2,0,P|162:312|211:296,1,109.999995231628,2|0,0:0|0:0,0:0:0:0:
312,264,202377,1,2,0:0:0:0:
436,152,202638,1,2,0:0:0:0:
276,112,202899,1,2,0:0:0:0:
244,120,203029,1,0,0:0:0:0:
220,144,203159,1,2,0:0:0:0:
212,176,203290,1,0,0:0:0:0:
212,208,203420,21,12,0:0:0:0:
331,190,203681,1,0,0:0:0:0:
383,289,203942,1,8,0:0:0:0:
297,374,204203,1,0,0:0:0:0:
194,319,204464,1,8,0:0:0:0:
331,190,204725,1,0,0:0:0:0:
297,374,204986,1,8,0:0:0:0:
212,208,205246,1,0,0:0:0:0:
383,289,205507,5,8,0:0:0:0:
194,319,205768,2,0,P|128:312|84:272,1,109.999995231628,0|8,0:0|0:0,0:0:0:0:
24,148,206290,2,0,P|90:155|134:195,1,109.999995231628,0|8,0:0|0:0,0:0:0:0:
220,128,206812,2,0,P|257:183|254:242,1,109.999995231628,0|8,0:0|0:0,0:0:0:0:
364,252,207333,1,0,0:0:0:0:
364,252,207594,22,0,P|345:315|298:352,1,109.999995231628,8|0,0:0|0:0,0:0:0:0:
116,344,208116,2,0,P|134:280|181:243,1,109.999995231628,8|0,0:0|0:0,0:0:0:0:
296,172,208638,1,8,0:0:0:0:
248,320,208899,1,0,0:0:0:0:
304,152,209159,1,8,0:0:0:0:
372,312,209420,1,0,0:0:0:0:
300,128,209681,38,0,P|261:87|206:76,1,109.999995231628,8|0,0:0|0:0,0:0:0:0:
16,84,210203,2,0,P|54:124|109:135,1,109.999995231628,8|0,0:0|0:0,0:0:0:0:
200,192,210725,2,0,P|161:232|106:243,1,109.999995231628,8|0,0:0|0:0,0:0:0:0:
106,351,211246,2,0,P|53:339|16:300,1,109.999995231628,8|0,0:0|0:0,0:0:0:0:
188,328,211768,22,0,P|232:286|283:279,1,109.999995231628,8|0,0:0|0:0,0:0:0:0:
311,282,212159,1,0,0:0:0:0:
340,298,212290,1,4,0:0:0:0:
436,352,212551,1,0,0:0:0:0:
404,136,212812,1,8,0:0:0:0:
440,240,213073,1,0,0:0:0:0:
312,72,213333,2,0,P|291:120|301:179,1,109.999995231628,4|0,0:0|0:0,0:0:0:0:
404,136,213855,5,8,0:0:0:0:
200,156,214116,1,0,0:0:0:0:
188,188,214246,1,0,0:0:0:0:
188,220,214377,2,0,P|224:272|276:292,1,109.999995231628,4|0,0:0|0:0,0:0:0:0:
424,128,214899,2,0,P|352:128|312:140,1,109.999995231628,8|0,0:0|0:0,0:0:0:0:
72,240,215420,2,0,P|144:240|184:228,1,109.999995231628,4|0,0:0|0:0,0:0:0:0:
256,80,215942,22,0,B|224:124|248:184|248:184|272:240|240:292,1,219.999990463257,8|4,0:0|0:0,0:0:0:0:
56,216,216725,1,0,0:0:0:0:
128,296,216986,1,8,0:0:0:0:
160,196,217246,1,0,0:0:0:0:
304,356,217507,1,4,0:0:0:0:
202,378,217767,1,0,0:0:0:0:
268,176,218029,37,8,0:0:0:0:
338,253,218289,1,0,0:0:0:0:
240,272,218551,1,4,0:0:0:0:
72,224,219073,1,8,0:0:0:0:
240,272,219333,1,0,0:0:0:0:
200,112,219594,1,4,0:0:0:0:
200,112,220116,37,2,0:0:0:0:
216,185,220377,1,0,0:0:0:0:
259,58,220638,1,2,0:0:0:0:
273,134,220899,1,0,0:0:0:0:
330,83,221159,1,2,0:0:0:0:
349,160,221420,1,0,0:0:0:0:
293,210,221681,1,2,0:0:0:0:
364,240,221942,1,0,0:0:0:0:
344,272,222073,1,0,0:0:0:0:
312,292,222203,6,0,P|267:287|222:258,1,76.9999943122866,2|0,0:0|0:0,0:0:0:0:
104,240,222725,2,0,P|148:235|193:206,1,76.9999943122866,2|2,0:0|0:0,0:0:0:0:
