osu file format v14

[General]
AudioFilename: Super Junior - Sexy, Free & Single.mp3
AudioLeadIn: 0
PreviewTime: 61507
Countdown: 0
SampleSet: Normal
StackLeniency: 0.8
Mode: 0
LetterboxInBreaks: 0
WidescreenStoryboard: 0

[Editor]
DistanceSpacing: 1
BeatDivisor: 4
GridSize: 4
TimelineZoom: 1

[Metadata]
Title:Sexy, Free & Single
TitleUnicode:Sexy, Free & Single
Artist:Super Junior
ArtistUnicode:슈퍼주니어
Creator:Gray Veyron
Version:Hard
Source:
Tags:sj suju sment kpop
BeatmapID:201146
BeatmapSetID:69841

[Difficulty]
HPDrainRate:6
CircleSize:4
OverallDifficulty:6
ApproachRate:7
SliderMultiplier:2
SliderTickRate:1

[Events]
//Background and Video events
Video,-150,"720x480.avi"
0,0,"bg.jpg",0,0
//Break Periods
2,95099,110694
2,178577,194173
//Storyboard Layer 0 (Background)
//Storyboard Layer 1 (Fail)
//Storyboard Layer 2 (Pass)
//Storyboard Layer 3 (Foreground)
//Storyboard Sound Samples

[TimingPoints]
3073,521.739130434783,4,1,0,50,1,0
19768,-100,4,1,1,60,0,0
27594,-100,4,2,1,40,0,0
28116,-100,4,1,3,50,0,0
43246,-100,4,2,1,50,0,0
44812,-100,4,1,3,50,0,0
61507,-100,4,1,3,70,0,1
69855,-100,4,1,2,75,0,1
78203,-100,4,1,1,50,0,0
94899,-100,4,1,0,50,0,0
111594,-100,4,1,3,60,0,0
128290,-125,4,2,1,50,0,0
130377,-125,4,3,0,50,0,0
131942,-125,4,2,1,50,0,0
138725,-125,4,3,0,50,0,0
140290,-125,4,2,1,50,0,0
142899,-125,4,2,2,40,0,0
144986,-100,4,1,3,80,0,1
153333,-100,4,1,1,85,0,1
161681,-100,4,1,1,50,0,0
178377,-100,4,1,0,50,0,0
195073,-100,4,1,1,60,0,0
203420,-100,4,1,3,80,0,1
211768,-100,4,1,2,85,0,1
220116,-125,4,2,0,25,0,0
222725,-125,4,2,2,10,0,0

[Colours]
Combo1 : 191,0,0
Combo2 : 214,180,107
Combo3 : 98,44,30
Combo4 : 0,0,159

[HitObjects]
148,136,19768,6,0,P|160:88|148:36,2,100,0|0|2,0:0|0:0|0:0,0:0:0:0:
48,148,20551,1,0,0:0:0:0:
112,224,20812,2,0,P|164:228|208:208,1,100,0|0,0:0|0:0,0:0:0:0:
256,120,21333,2,0,P|301:100|350:104,1,100,2|0,0:0|0:0,0:0:0:0:
268,268,21855,6,0,P|280:224|324:184,1,100,0|0,0:0|0:0,0:0:0:0:
450,110,22377,2,0,P|436:158|400:192,1,100,2|0,0:0|0:0,0:0:0:0:
352,280,22899,2,0,P|284:352|192:308,1,200,0|2,0:0|0:0,0:0:0:0:
72,220,23942,37,0,0:0:0:0:
24,308,24203,1,0,0:0:0:0:
172,220,24464,1,2,0:0:0:0:
124,308,24725,1,0,0:0:0:0:
172,220,24986,2,0,P|124:132|32:128,1,200,0|2,0:0|0:0,0:0:0:0:
72,220,25768,1,0,0:0:0:0:
128,136,26029,6,0,P|172:116|228:124,1,100,0|0,0:0|0:0,0:0:0:0:
280,204,26551,1,2,0:0:0:0:
336,288,26812,1,0,0:0:0:0:
436,284,27073,1,0,0:0:0:0:
380,204,27333,1,0,0:0:0:0:
480,192,27594,2,0,P|424:112|320:120,1,200,2|4,0:0|0:0,0:0:0:0:
380,204,28377,37,0,0:0:0:0:
280,204,28638,2,0,P|262:145|228:116,1,100,8|0,0:0|0:0,0:0:0:0:
95,63,29159,2,0,P|109:122|142:152,1,100,0|0,0:0|0:0,0:0:0:0:
204,220,29681,1,8,0:0:0:0:
104,240,29942,1,0,0:0:0:0:
92,340,30203,6,0,P|192:344|232:320,1,150,0|0,0:0|0:0,0:0:0:0:
268,284,30725,2,0,L|348:344,1,100,8|0,0:0|0:0,0:0:0:0:
444,316,31246,2,0,L|364:256,1,100,0|0,0:0|0:0,0:0:0:0:
364,156,31768,2,0,L|444:216,1,100,8|0,0:0|0:0,0:0:0:0:
364,156,32290,37,0,0:0:0:0:
288,92,32551,1,0,0:0:0:0:
200,144,32812,2,0,L|104:112,1,100,8|0,0:0|0:0,0:0:0:0:
60,24,33333,2,0,P|96:112|56:204,1,200,0|8,0:0|0:0,0:0:0:0:
12,292,34116,1,0,0:0:0:0:
112,284,34377,6,0,P|160:280|208:236,1,100,0|0,0:0|0:0,0:0:0:0:
224,152,34899,2,0,P|268:172|296:216,1,100,8|0,0:0|0:0,0:0:0:0:
316,312,35420,2,0,P|368:284|388:248,1,100,0|0,0:0|0:0,0:0:0:0:
408,152,35942,2,0,P|456:176|480:216,1,100,8|0,0:0|0:0,0:0:0:0:
320,176,36464,37,0,0:0:0:0:
232,224,36725,1,0,0:0:0:0:
164,300,36986,2,0,P|124:328|56:328,1,100,8|0,0:0|0:0,0:0:0:0:
92,236,37507,2,0,P|84:180|108:136,1,100,0|0,0:0|0:0,0:0:0:0:
68,48,38029,2,0,P|124:44|168:64,1,100,8|0,0:0|0:0,0:0:0:0:
208,152,38551,5,0,0:0:0:0:
308,172,38812,1,0,0:0:0:0:
328,72,39073,1,8,0:0:0:0:
428,72,39333,1,0,0:0:0:0:
460,168,39594,2,0,P|464:212|428:268,1,100,0|0,0:0|0:0,0:0:0:0:
432,360,40116,2,0,P|376:340|348:304,1,100,8|0,0:0|0:0,0:0:0:0:
288,148,40638,37,0,0:0:0:0:
368,204,40899,2,0,P|331:237|282:245,1,100,0|8,0:0|0:0,0:0:0:0:
184,228,41420,1,0,0:0:0:0:
152,324,41681,2,0,P|107:297|84:252,1,100,0|0,0:0|0:0,0:0:0:0:
16,184,42203,2,0,P|61:158|112:161,1,100,8|0,0:0|0:0,0:0:0:0:
208,136,42725,6,0,P|207:188|180:232,1,100,0|0,0:0|0:0,0:0:0:0:
152,56,43246,2,0,L|252:76,1,100,2|0,0:0|0:0,0:0:0:0:
292,168,43768,2,0,L|388:132,1,100,2|2,0:0|0:0,0:0:0:0:
412,232,44290,2,0,L|512:252,1,100,2|2,0:0|0:0,0:0:0:0:
308,244,44812,37,4,0:0:0:0:
296,376,45073,1,0,0:0:0:0:
376,316,45333,1,8,0:0:0:0:
232,300,45594,1,0,0:0:0:0:
232,300,45855,2,0,P|208:208|276:140,1,200,0|8,0:0|0:0,0:0:0:0:
372,104,46638,1,0,0:0:0:0:
292,44,46899,6,0,P|168:76|116:128,1,200,0|8,0:0|0:0,0:0:0:0:
28,168,47681,1,0,0:0:0:0:
24,268,47942,1,0,0:0:0:0:
112,220,48203,1,0,0:0:0:0:
116,320,48464,2,0,P|160:348|220:348,1,100,8|0,0:0|0:0,0:0:0:0:
344,332,48986,37,0,0:0:0:0:
256,224,49246,2,0,P|278:179|319:151,1,100,0|8,0:0|0:0,0:0:0:0:
356,244,49768,1,0,0:0:0:0:
356,244,50029,2,0,L|232:148,1,150,0|0,0:0|0:0,0:0:0:0:
216,140,50551,2,0,P|164:140|132:176,1,100,8|0,0:0|0:0,0:0:0:0:
32,176,51073,6,0,P|52:236|136:272,2,150,0|0|0,0:0|0:0|0:0,0:0:0:0:
36,76,52116,1,0,0:0:0:0:
120,132,52377,1,0,0:0:0:0:
212,88,52638,2,0,P|257:107|306:104,1,100,8|0,0:0|0:0,0:0:0:0:
128,32,53159,37,4,0:1:0:0:
308,104,53420,1,0,0:0:0:0:
376,32,53681,2,0,P|408:72|404:128,1,100,8|0,0:0|0:0,0:0:0:0:
476,192,54203,2,0,P|456:256|332:288,1,200,0|8,0:0|0:0,0:0:0:0:
376,196,54986,1,0,0:0:0:0:
376,196,55246,6,0,P|323:189|276:210,1,100,0|0,0:0|0:0,0:0:0:0:
152,300,55768,2,0,P|204:306|251:285,1,100,8|0,0:0|0:0,0:0:0:0:
188,208,56290,1,0,0:0:0:0:
120,136,56551,1,0,0:0:0:0:
32,184,56812,1,8,0:0:0:0:
52,284,57073,1,0,0:0:0:0:
152,300,57333,38,0,B|240:332|276:284|352:316,1,200,0|8,0:0|0:0,0:0:0:0:
448,340,58116,1,0,0:0:0:0:
416,244,58377,2,0,P|348:216|208:224,1,200,0|8,0:0|0:0,0:0:0:0:
132,176,59159,1,0,0:0:0:0:
112,80,59420,6,0,P|52:116|36:200,2,150,0|0|0,0:0|0:0|0:0,0:0:0:0:
208,56,60464,2,0,L|324:76,1,100,0|8,0:0|0:0,0:0:0:0:
400,36,60986,1,8,0:0:0:0:
384,236,61507,22,0,P|332:231|286:256,1,100,12|0,0:0|0:0,0:0:0:0:
252,344,62029,2,0,P|222:300|173:281,1,100,8|0,0:0|0:0,0:0:0:0:
84,308,62551,2,0,P|97:257|81:208,1,100,8|0,0:0|0:0,0:0:0:0:
0,168,63073,2,0,P|47:146|74:101,1,100,8|0,0:0|0:0,0:0:0:0:
124,24,63594,5,8,0:0:0:0:
224,24,63855,1,0,0:0:0:0:
280,108,64116,1,8,0:0:0:0:
180,108,64377,1,0,0:0:0:0:
180,108,64638,2,0,P|184:152|232:192,1,100,8|0,0:0|0:0,0:0:0:0:
324,196,65159,2,0,P|312:248|276:276,1,100,8|0,0:0|0:0,0:0:0:0:
176,272,65681,22,8,P|216:356|316:368,2,200
136,180,66986,1,0,0:0:0:0:
36,168,67246,1,8,0:0:0:0:
76,260,67507,1,0,0:0:0:0:
96,88,67768,38,0,P|152:68|196:76,1,100,8|0,0:0|0:0,0:0:0:0:
328,140,68290,2,0,P|272:160|228:152,1,100,8|0,0:0|0:0,0:0:0:0:
124,33,68812,2,0,P|183:44|217:73,1,100,8|0,0:0|0:0,0:0:0:0:
299,194,69333,2,0,P|240:183|206:154,1,100,8|0,0:0|0:0,0:0:0:0:
288,92,69855,22,0,P|324:56|372:32,1,100,8|0,0:0|0:0,0:0:0:0:
396,44,70246,1,0,0:0:0:0:
416,64,70377,2,0,P|402:113|373:157,1,100,4|0,0:0|0:0,0:0:0:0:
304,224,70899,1,8,0:0:0:0:
264,316,71159,1,0,0:0:0:0:
200,240,71420,2,0,P|188:192|196:140,1,100,4|0,0:0|0:0,0:0:0:0:
284,96,71942,5,8,0:0:0:0:
204,40,72203,1,0,0:0:0:0:
112,80,72464,2,0,P|80:113|64:168,1,100,4|0,0:0|0:0,0:0:0:0:
56,264,72986,1,8,0:0:0:0:
120,340,73246,1,0,0:0:0:0:
120,340,73507,2,0,P|160:316|216:316,1,100,4|0,0:0|0:0,0:0:0:0:
304,352,74029,22,0,P|316:300|352:272,1,100,8|0,0:0|0:0,0:0:0:0:
448,240,74551,2,0,P|406:194|403:148,1,100,4|0,0:0|0:0,0:0:0:0:
472,88,75073,1,8,0:0:0:0:
380,56,75333,1,0,0:0:0:0:
312,128,75594,2,0,P|276:160|224:164,1,100,4|0,0:0|0:0,0:0:0:0:
132,128,76116,2,0,P|128:188|144:224,2,100,8|0|4,0:0|0:0|0:0,0:0:0:0:
320,196,77159,37,8,0:0:0:0:
251,267,77420,1,0,0:0:0:0:
348,290,77681,1,4,0:0:0:0:
348,290,78203,38,0,L|448:268,1,100,2|0,0:0|0:0,0:0:0:0:
251,267,78725,2,0,L|236:368,1,100,0|0,0:0|0:0,0:0:0:0:
320,196,79246,2,0,L|264:112,1,100,2|0,0:0|0:0,0:0:0:0:
184,52,79768,1,0,0:0:0:0:
108,120,80029,1,0,0:0:0:0:
160,208,80290,5,2,0:0:0:0:
60,204,80551,1,0,0:0:0:0:
108,292,80812,2,0,P|156:308|208:292,1,100,0|0,0:0|0:0,0:0:0:0:
260,216,81333,1,2,0:0:0:0:
324,296,81594,2,0,P|372:308|419:293,1,100,2|2,0:0|0:0,0:0:0:0:
464,204,82116,1,2,0:0:0:0:
464,204,82377,38,0,P|416:191|369:207,1,100,2|0,0:0|0:0,0:0:0:0:
348,108,82899,2,0,P|300:132|272:176,1,100,0|0,0:0|0:0,0:0:0:0:
192,112,83420,2,0,P|172:160|184:216,2,100,2|0|0,0:0|0:0|0:0,0:0:0:0:
280,60,84203,1,0,0:0:0:0:
188,24,84464,5,2,0:0:0:0:
104,76,84725,1,0,0:0:0:0:
104,76,84986,2,0,P|104:132|140:172,1,100,0|0,0:0|0:0,0:0:0:0:
88,256,85507,2,0,P|120:296|122:352,1,100,2|2,0:0|0:0,0:0:0:0:
24,336,86029,1,2,0:0:0:0:
52,180,86290,1,2,0:0:0:0:
200,240,86551,37,2,0:0:0:0:
264,164,86812,1,0,0:0:0:0:
316,248,87073,2,0,L|304:296,2,50,0|0|0,0:0|0:0|0:0,0:0:0:0:
412,224,87594,1,2,0:0:0:0:
416,124,87855,2,0,L|468:132,2,50,0|0|0,0:0|0:0|0:0,0:0:0:0:
328,80,88377,1,0,0:0:0:0:
328,80,88638,6,0,P|276:100|228:96,1,100,2|0,0:0|0:0,0:0:0:0:
208,88,89029,1,0,0:0:0:0:
184,80,89159,2,0,P|132:72|84:88,1,100,0|0,0:0|0:0,0:0:0:0:
28,168,89681,1,2,0:0:0:0:
60,264,89942,1,2,0:0:0:0:
144,320,90203,1,2,0:0:0:0:
244,332,90464,1,2,0:0:0:0:
340,304,90725,38,0,P|388:268|400:220,1,100,2|0,0:0|0:0,0:0:0:0:
388,112,91246,2,0,P|340:148|328:196,1,100,0|0,0:0|0:0,0:0:0:0:
374,306,91768,2,0,P|407:256|401:206,1,100,2|0,0:0|0:0,0:0:0:0:
353,109,92290,2,0,P|320:159|326:209,1,100,0|0,0:0|0:0,0:0:0:0:
256,192,92812,12,4,94899,1:0:0:0:
288,36,111594,53,4,0:0:0:0:
304,136,111855,1,0,0:0:0:0:
440,152,112116,1,8,0:0:0:0:
380,72,112377,1,0,0:0:0:0:
364,216,112638,2,0,P|272:240|204:172,1,200,0|8,0:0|0:0,0:0:0:0:
168,76,113420,1,0,0:0:0:0:
108,156,113681,6,0,P|140:280|192:332,1,200,0|8,0:0|0:0,0:0:0:0:
256,252,114464,1,0,0:0:0:0:
320,332,114725,2,0,P|364:296|384:224,1,100,0|0,0:0|0:0,0:0:0:0:
408,160,115246,1,8,0:0:0:0:
392,60,115507,1,0,0:0:0:0:
312,120,115768,37,0,0:0:0:0:
312,120,116029,2,0,P|296:165|256:201,1,100,0|8,0:0|0:0,0:0:0:0:
160,200,116551,2,0,P|125:164|111:116,1,100,0|0,0:0|0:0,0:0:0:0:
212,112,117073,2,0,P|229:65|268:32,1,100,0|8,0:0|0:0,0:0:0:0:
312,120,117594,1,0,0:0:0:0:
256,204,117855,6,0,P|236:266|271:342,2,150,0|0|0,0:0|0:0|0:0,0:0:0:0:
336,264,118899,2,0,P|356:212|344:160,1,100,0|0,0:0|0:0,0:0:0:0:
292,16,119420,2,0,P|272:68|284:120,1,100,8|0,0:0|0:0,0:0:0:0:
372,76,119942,37,0,0:0:0:0:
280,112,120203,1,0,0:0:0:0:
360,172,120464,2,0,P|404:168|448:136,1,100,8|0,0:0|0:0,0:0:0:0:
360,172,120986,2,0,P|324:244|212:252,1,200,0|8,0:0|0:0,0:0:0:0:
264,168,121768,1,0,0:0:0:0:
264,168,122029,6,0,P|212:156|160:172,1,100,0|0,0:0|0:0,0:0:0:0:
32,248,122551,2,0,P|84:260|132:244,1,100,8|0,0:0|0:0,0:0:0:0:
264,168,123073,2,0,P|212:156|160:172,1,100,0|0,0:0|0:0,0:0:0:0:
68,184,123594,2,0,P|73:134|101:93,1,100,8|0,0:0|0:0,0:0:0:0:
196,68,124116,38,0,P|320:92|388:152,1,200,0|8,0:0|0:0,0:0:0:0:
444,212,124899,1,0,0:0:0:0:
344,228,125159,2,0,P|220:204|152:144,1,200,0|8,0:0|0:0,0:0:0:0:
104,80,125942,1,0,0:0:0:0:
68,172,126203,6,0,P|104:240|164:284,1,150,0|0,0:0|0:0,0:0:0:0:
212,292,126725,2,0,L|292:360,1,100,8|0,0:0|0:0,0:0:0:0:
336,268,127246,2,0,L|259:203,1,100,0|0,0:0|0:0,0:0:0:0:
384,288,127768,1,0,0:0:0:0:
212,192,128029,1,0,0:0:0:0:
380,336,128290,38,0,P|312:344|264:312,1,120,4|0,0:3|0:0,0:0:0:0:
228,324,128812,2,0,P|176:280|124:280,1,120,4|0,0:0|0:0,0:0:0:0:
92,300,129333,2,0,P|48:280|72:220,1,120,0|0,0:0|0:0,0:0:0:0:
104,204,129855,2,0,P|166:176|189:129,1,120,4|0,0:0|0:0,0:0:0:0:
196,92,130377,5,8,0:0:0:0:
276,40,130638,1,8,0:0:0:0:
336,116,130899,1,8,0:0:0:0:
256,168,131159,1,8,0:0:0:0:
176,220,131420,1,8,0:0:0:0:
228,300,131681,1,8,0:0:0:0:
308,244,131942,1,4,0:0:0:0:
464,136,132464,37,0,0:0:0:0:
388,196,132725,1,0,0:0:0:0:
336,116,132986,1,4,0:0:0:0:
144,116,133507,1,0,0:0:0:0:
68,56,133768,1,0,0:0:0:0:
16,136,134029,1,4,0:0:0:0:
92,196,134290,1,0,0:0:0:0:
44,280,134551,5,0,0:0:0:0:
120,328,134812,1,0,0:0:0:0:
220,324,135073,1,4,0:0:0:0:
168,244,135333,1,0,0:0:0:0:
220,156,135594,1,0,0:0:0:0:
268,240,135855,1,0,0:0:0:0:
320,320,136116,2,0,L|404:312,1,80,4|0,0:0|0:0,0:0:0:0:
399,312,136638,38,0,P|423:256|411:200,1,120,0|0,0:0|0:0,0:0:0:0:
435,160,137159,2,0,P|392:123|324:111,1,120,4|0,0:0|0:0,0:0:0:0:
303,72,137681,2,0,P|250:90|205:143,1,120,0|0,0:0|0:0,0:0:0:0:
159,140,138203,2,0,P|148:194|171:259,1,120,4|0,0:0|0:0,0:0:0:0:
208,256,138725,6,8,L|148:312,1,80,8|8,0:0|0:0,0:0:0:0:
240,336,139246,2,8,L|300:280,1,80,12|8,0:0|0:0,0:0:0:0:
392,304,139768,2,8,L|333:358,2,80,8|8|4,0:0|0:0|0:0,0:0:0:0:
468,128,140812,37,0,0:0:0:0:
396,192,141073,1,0,0:0:0:0:
312,236,141333,2,0,P|307:158|362:103,1,160,4|0,0:0|0:0,0:0:0:0:
396,192,142116,1,0,0:0:0:0:
468,128,142377,2,0,P|492:180|484:232,1,80,4|0,0:0|0:0,0:0:0:0:
256,192,142899,12,4,144464,0:0:0:0:
424,192,144986,38,0,L|324:216,1,100,12|0,0:0|0:0,0:0:0:0:
352,312,145507,2,0,L|248:276,1,100,8|0,0:0|0:0,0:0:0:0:
236,180,146029,2,0,L|136:208,1,100,8|0,0:0|0:0,0:0:0:0:
160,304,146551,2,0,L|56:268,1,100,8|0,0:0|0:0,0:0:0:0:
40,176,147073,5,8,0:0:0:0:
112,108,147333,1,0,0:0:0:0:
208,84,147594,1,8,0:0:0:0:
308,92,147855,1,0,0:0:0:0:
308,92,148116,2,0,P|312:136|360:176,1,100,8|0,0:0|0:0,0:0:0:0:
280,244,148638,2,0,P|325:272|380:268,1,100,8|0,0:0|0:0,0:0:0:0:
348,368,149159,22,8,P|437:343|466:246,2,200
260,320,150464,1,0,0:0:0:0:
168,356,150725,1,8,0:0:0:0:
92,292,150986,1,0,0:0:0:0:
104,192,151246,38,0,P|144:164|200:164,1,100,8|0,0:0|0:0,0:0:0:0:
272,228,151768,2,0,P|232:256|176:256,1,100,8|0,0:0|0:0,0:0:0:0:
124,153,152290,2,0,P|173:149|221:177,1,100,8|0,0:0|0:0,0:0:0:0:
252,268,152812,2,0,P|203:273|154:245,1,100,8|0,0:0|0:0,0:0:0:0:
216,172,153333,22,0,L|300:112,1,100,8|0,0:0|0:0,0:0:0:0:
316,128,153725,1,0,0:0:0:0:
336,144,153855,2,0,L|418:86,1,100,4|0,0:0|0:0,0:0:0:0:
480,164,154377,1,8,0:0:0:0:
408,232,154638,1,0,0:0:0:0:
472,308,154899,2,0,P|428:332|380:328,1,100,4|0,0:0|0:0,0:0:0:0:
304,264,155420,5,8,0:0:0:0:
240,188,155681,1,0,0:0:0:0:
188,100,155942,2,0,P|152:132|140:188,1,100,4|0,0:0|0:0,0:0:0:0:
52,232,156464,1,8,0:0:0:0:
76,328,156725,1,0,0:0:0:0:
176,336,156986,2,0,P|203:298|208:242,1,100,4|0,0:0|0:0,0:0:0:0:
304,216,157507,22,0,P|278:168|236:151,1,100,8|0,0:0|0:0,0:0:0:0:
216,52,158029,2,0,P|265:49|306:75,1,100,4|0,0:0|0:0,0:0:0:0:
392,132,158551,1,8,0:0:0:0:
424,224,158812,1,0,0:0:0:0:
408,324,159073,2,0,P|360:304|328:256,1,100,4|0,0:0|0:0,0:0:0:0:
240,224,159594,2,0,P|276:184|320:168,2,100,8|0|4,0:0|0:0|0:0,0:0:0:0:
100,364,160638,37,8,0:0:0:0:
76,268,160899,1,0,0:0:0:0:
172,296,161159,1,4,0:0:0:0:
368,340,161681,38,0,L|268:316,1,100,2|0,0:0|0:0,0:0:0:0:
344,248,162203,2,0,L|444:272,1,100,0|0,0:0|0:0,0:0:0:0:
404,180,162725,2,0,L|304:156,1,100,2|0,0:0|0:0,0:0:0:0:
264,68,163246,1,0,0:0:0:0:
172,108,163507,1,0,0:0:0:0:
216,200,163768,5,2,0:0:0:0:
304,156,164029,1,0,0:0:0:0:
216,200,164290,2,0,P|191:244|198:298,1,100,0|0,0:0|0:0,0:0:0:0:
292,264,164812,1,2,0:0:0:0:
388,292,165073,2,0,P|391:242|368:198,2,100,2|2|2,0:0|0:0|0:0,0:0:0:0:
292,264,165855,38,0,L|292:164,1,100,2|0,0:0|0:0,0:0:0:0:
208,112,166377,2,0,L|208:212,1,100,0|0,0:0|0:0,0:0:0:0:
124,160,166899,2,0,L|124:60,2,100,2|0|0,0:0|0:0|0:0,0:0:0:0:
40,216,167681,1,0,0:0:0:0:
108,292,167942,5,2,0:0:0:0:
192,236,168203,1,0,0:0:0:0:
276,180,168464,2,0,P|320:148|372:148,1,100,0|0,0:0|0:0,0:0:0:0:
352,244,168986,2,0,P|358:292|393:327,1,100,2|2,0:0|0:0,0:0:0:0:
492,336,169507,1,2,0:0:0:0:
452,244,169768,1,2,0:0:0:0:
268,312,170029,37,2,0:0:0:0:
184,264,170290,1,0,0:0:0:0:
100,312,170551,2,0,L|48:344,2,50,0|0|0,0:0|0:0|0:0,0:0:0:0:
100,212,171073,1,2,0:0:0:0:
184,160,171333,2,0,L|184:108,2,50,0|0|0,0:0|0:0|0:0,0:0:0:0:
268,212,171855,1,0,0:0:0:0:
268,312,172116,6,0,P|315:326|364:317,1,100,2|0,0:0|0:0,0:0:0:0:
388,309,172507,1,0,0:0:0:0:
408,296,172638,2,0,P|439:258|453:210,1,100,0|0,0:0|0:0,0:0:0:0:
456,112,173159,1,2,0:0:0:0:
364,72,173420,1,2,0:0:0:0:
296,144,173681,1,2,0:0:0:0:
352,228,173942,1,2,0:0:0:0:
288,304,174203,37,2,0:0:0:0:
192,276,174464,1,0,0:0:0:0:
96,300,174725,2,0,P|96:244|128:200,1,100,0|0,0:0|0:0,0:0:0:0:
144,112,175246,2,0,P|192:140|214:189,1,100,2|0,0:0|0:0,0:0:0:0:
284,248,175768,2,0,P|235:276|180:272,1,100,0|0,0:0|0:0,0:0:0:0:
256,192,176290,12,4,178377,1:0:0:0:
200,248,195073,54,0,P|204:300|244:344,1,100,2|0,0:0|0:0,0:0:0:0:
300,260,195594,2,0,P|296:208|256:164,1,100,0|0,0:0|0:0,0:0:0:0:
168,156,196116,2,0,P|132:122|120:74,1,100,2|0,0:0|0:0,0:0:0:0:
220,72,196638,1,0,0:0:0:0:
320,56,196899,1,0,0:0:0:0:
412,92,197159,5,2,0:0:0:0:
472,172,197420,1,0,0:0:0:0:
480,272,197681,2,0,P|436:297|382:290,1,100,0|0,0:0|0:0,0:0:0:0:
308,236,198203,1,2,0:0:0:0:
232,172,198464,2,0,P|182:169|138:192,1,100,2|2,0:0|0:0,0:0:0:0:
56,248,198986,1,2,0:0:0:0:
128,320,199246,38,0,L|216:248,1,100,2|0,0:0|0:0,0:0:0:0:
292,308,199768,2,0,L|320:208,1,100,0|0,0:0|0:0,0:0:0:0:
420,228,200290,2,0,L|420:128,1,100,2|0,0:0|0:0,0:0:0:0:
368,44,200812,1,0,0:0:0:0:
280,92,201073,1,0,0:0:0:0:
184,68,201333,5,2,0:0:0:0:
96,116,201594,1,0,0:0:0:0:
16,176,201855,2,0,P|58:212|112:211,1,100,2|0,0:0|0:0,0:0:0:0:
188,168,202377,2,0,P|197:221|239:255,1,100,2|2,0:0|0:0,0:0:0:0:
332,252,202899,2,0,P|297:292|298:346,1,100,2|2,0:0|0:0,0:0:0:0:
396,332,203420,22,0,P|430:291|429:237,1,100,12|0,0:0|0:0,0:0:0:0:
372,164,203942,2,0,P|375:115|408:78,1,100,8|0,0:0|0:0,0:0:0:0:
476,156,204464,1,8,0:0:0:0:
424,32,204725,1,0,0:0:0:0:
300,76,204986,1,8,0:0:0:0:
352,200,205246,1,0,0:0:0:0:
448,272,205507,5,8,0:0:0:0:
476,156,205768,1,0,0:0:0:0:
448,272,206029,2,0,P|420:308|356:328,1,100,8|0,0:0|0:0,0:0:0:0:
284,292,206551,2,0,P|237:309|206:347,1,100,8|0,0:0|0:0,0:0:0:0:
88,324,207073,2,0,P|134:306|165:268,1,100,8|0,0:0|0:0,0:0:0:0:
240,200,207594,22,8,P|324:160|336:60,2,200
248,100,208899,1,0,0:0:0:0:
160,56,209159,1,8,0:0:0:0:
148,156,209420,1,0,0:0:0:0:
64,212,209681,38,0,P|74:270|103:304,1,100,8|0,0:0|0:0,0:0:0:0:
200,300,210203,2,0,P|228:259|235:210,1,100,8|0,0:0|0:0,0:0:0:0:
332,228,210725,2,0,P|319:180|286:143,1,100,8|0,0:0|0:0,0:0:0:0:
376,100,211246,2,0,P|335:71|286:64,1,100,8|0,0:0|0:0,0:0:0:0:
192,92,211768,22,0,L|132:176,1,100,8|0,0:0|0:0,0:0:0:0:
120,192,212159,1,0,0:0:0:0:
108,216,212290,2,0,P|108:264|148:300,1,100,4|0,0:0|0:0,0:0:0:0:
232,248,212812,1,8,0:0:0:0:
232,348,213073,1,0,0:0:0:0:
320,296,213333,2,0,P|355:262|355:213,1,100,4|0,0:0|0:0,0:0:0:0:
308,124,213855,5,8,0:0:0:0:
400,80,214116,2,0,L|488:32,2,100,0|4|0,0:0|0:0|0:0,0:0:0:0:
308,124,214899,1,8,0:0:0:0:
220,76,215159,1,0,0:0:0:0:
220,176,215420,2,0,P|173:162|138:127,1,100,4|0,0:0|0:0,0:0:0:0:
308,124,215942,22,0,P|355:138|390:173,1,100,8|0,0:0|0:0,0:0:0:0:
476,224,216464,2,0,P|441:259|393:273,1,100,4|0,0:0|0:0,0:0:0:0:
300,304,216986,1,8,0:0:0:0:
204,276,217246,1,0,0:0:0:0:
132,204,217507,1,4,0:0:0:0:
124,104,217768,1,0,0:0:0:0:
212,152,218029,38,0,P|237:199|277:218,1,100,8|0,0:0|0:0,0:0:0:0:
308,124,218551,1,4,0:0:0:0:
344,336,219073,1,8,0:0:0:0:
439,308,219333,1,0,0:0:0:0:
366,239,219594,1,4,0:0:0:0:
248,132,220116,38,0,P|204:172|140:176,1,120,2|0,0:0|0:0,0:0:0:0:
116,172,220638,2,0,P|76:208|104:264,1,120,2|0,0:0|0:0,0:0:0:0:
132,268,221159,2,0,B|180:260|208:284|208:284|244:264|284:280,1,160,2|2,0:0|0:0,0:0:0:0:
316,356,221942,1,0,0:0:0:0:
368,292,222203,5,2,0:0:0:0:
408,360,222464,1,0,0:0:0:0:
452,292,222725,2,2,P|440:248|404:216,1,80
