osu file format v14

[General]
AudioFilename: Super Junior - Sexy, Free & Single.mp3
AudioLeadIn: 0
PreviewTime: 61507
Countdown: 0
SampleSet: Normal
StackLeniency: 0.6
Mode: 0
LetterboxInBreaks: 0
WidescreenStoryboard: 0

[Editor]
DistanceSpacing: 1
BeatDivisor: 4
GridSize: 4
TimelineZoom: 1

[Metadata]
Title:Sexy, Free & Single
TitleUnicode:Sexy, Free & Single
Artist:Super Junior
ArtistUnicode:슈퍼주니어
Creator:Gray Veyron
Version:Easy
Source:
Tags:sj suju sment kpop
BeatmapID:214300
BeatmapSetID:69841

[Difficulty]
HPDrainRate:1
CircleSize:3
OverallDifficulty:1
ApproachRate:2
SliderMultiplier:1
SliderTickRate:1

[Events]
//Background and Video events
0,0,"bg.jpg",0,0
Video,-150,"720x480.avi"
//Break Periods
2,95099,110034
2,178577,193513
//Storyboard Layer 0 (Background)
//Storyboard Layer 1 (Fail)
//Storyboard Layer 2 (Pass)
//Storyboard Layer 3 (Foreground)
//Storyboard Sound Samples

[TimingPoints]
3073,521.739130434783,4,1,0,50,1,0
19768,-100,4,1,1,60,0,0
28116,-100,4,1,3,50,0,0
43246,-100,4,2,1,45,0,0
44812,-100,4,1,3,50,0,0
61507,-100,4,1,3,70,0,1
69855,-100,4,1,1,75,0,1
78203,-100,4,1,1,50,0,0
94899,-100,4,1,0,50,0,0
111594,-100,4,1,3,60,0,0
128290,-100,4,2,1,50,0,0
130377,-100,4,3,0,50,0,0
131942,-100,4,2,1,50,0,0
136638,-100,4,2,1,50,0,0
138725,-100,4,3,0,50,0,0
140290,-100,4,2,1,50,0,0
142899,-100,4,2,2,40,0,0
144986,-100,4,1,3,80,0,1
153333,-100,4,1,2,85,0,1
161681,-100,4,1,1,50,0,0
178377,-100,4,1,0,50,0,0
195073,-100,4,1,1,60,0,0
203420,-100,4,1,3,80,0,1
211768,-100,4,1,2,85,0,1
220116,-100,4,2,0,25,0,0
222725,-100,4,2,2,10,0,0

[Colours]
Combo1 : 191,0,0
Combo2 : 214,180,107
Combo3 : 98,44,30
Combo4 : 0,0,159

[HitObjects]
72,88,19768,6,0,P|132:100|168:144,1,100,0|2,0:0|0:0,0:0:0:0:
224,200,20812,2,0,P|262:231|311:236,1,100,0|2,0:0|0:0,0:0:0:0:
392,180,21855,1,0,0:0:0:0:
300,140,22377,1,2,0:0:0:0:
376,76,22899,2,0,P|338:45|289:40,1,100,0|2,0:0|0:0,0:0:0:0:
192,64,23942,6,0,P|143:113|135:149,1,100,0|2,0:0|0:0,0:0:0:0:
44,184,24986,2,0,P|93:233|129:241,1,100,0|2,0:0|0:0,0:0:0:0:
212,204,26029,1,0,0:0:0:0:
256,116,26551,1,0,0:0:0:0:
448,348,28116,37,4,0:0:0:0:
472,252,28638,1,8,0:0:0:0:
504,156,29159,2,0,P|448:152|404:175,1,100,0|8,0:0|0:0,0:0:0:0:
372,264,30203,1,0,0:0:0:0:
272,252,30725,1,8,0:0:0:0:
244,348,31246,2,0,P|196:360|140:360,1,100,0|8,0:0|0:0,0:0:0:0:
56,312,32290,5,0,0:0:0:0:
144,264,32812,1,8,0:0:0:0:
176,168,33333,2,0,P|156:122|162:73,1,100,0|8,0:0|0:0,0:0:0:0:
256,108,34377,1,0,0:0:0:0:
350,73,34899,2,0,P|355:122|336:168,1,100,8|0,0:0|0:0,0:0:0:0:
252,220,35942,1,8,0:0:0:0:
176,152,36464,38,0,P|140:184|120:248,1,100,0|8,0:0|0:0,0:0:0:0:
204,288,37507,2,0,P|183:333|148:367,1,100,0|8,0:0|0:0,0:0:0:0:
48,376,38551,1,0,0:0:0:0:
24,280,39073,2,0,P|44:234|79:200,1,100,8|0,0:0|0:0,0:0:0:0:
176,184,40116,1,8,0:0:0:0:
264,232,40638,6,0,P|372:196|416:124,1,200
404,28,42203,1,8,0:0:0:0:
332,100,42725,2,0,P|292:136|232:136,1,100,0|2,0:0|0:0,0:0:0:0:
152,112,43768,1,2,0:0:0:0:
180,208,44290,1,2,0:0:0:0:
152,304,44812,38,0,P|104:291|69:256,1,100,4|8,0:0|0:0,0:0:0:0:
68,156,45855,2,0,P|108:120|156:112,1,100,0|8,0:0|0:0,0:0:0:0:
248,136,46899,2,0,P|286:168|334:177,1,100,0|8,0:0|0:0,0:0:0:0:
420,124,47942,1,0,0:0:0:0:
332,80,48464,1,8,0:0:0:0:
248,136,48986,6,0,P|200:150|168:188,1,100,0|8,0:0|0:0,0:0:0:0:
180,288,50029,2,0,P|227:273|259:235,1,100,0|8,0:0|0:0,0:0:0:0:
320,316,51073,2,0,P|356:240|300:144,1,200
220,88,52638,1,8,0:0:0:0:
156,164,53159,38,0,P|104:188|52:188,1,100,4|8,0:1|0:0,0:0:0:0:
88,92,54203,1,0,0:0:0:0:
184,72,54725,1,8,0:0:0:0:
252,144,55246,2,0,P|300:198|425:216,1,200
504,164,56812,1,8,0:0:0:0:
416,120,57333,6,0,P|364:120|328:84,1,100,0|8,0:0|0:0,0:0:0:0:
232,76,58377,2,0,P|180:84|147:120,1,100,0|8,0:0|0:0,0:0:0:0:
52,88,59420,2,0,P|50:137|72:181,1,100,0|8,0:0|0:0,0:0:0:0:
168,212,60464,1,0,0:0:0:0:
256,256,60986,1,8,0:0:0:0:
292,348,61507,22,8,B|332:316|332:316|356:264,1,100,12|8,0:0|0:0,0:0:0:0:
316,180,62551,2,8,B|276:212|276:212|255:256,1,100,8|8,0:0|0:0,0:0:0:0:
188,328,63594,1,8,0:0:0:0:
88,344,64116,2,8,B|42:318|42:318|22:273,1,100
44,176,65159,1,8,0:0:0:0:
108,252,65681,6,8,B|144:208|144:208|228:232|274:174,1,200
192,116,67246,1,8,0:0:0:0:
284,76,67768,2,8,P|329:91|362:131,1,100
460,140,68812,2,8,P|445:185|405:218,1,100
308,236,69855,21,8,0:0:0:0:
220,184,70377,2,0,P|172:172|124:184,1,100,4|8,0:0|0:0,0:0:0:0:
40,236,71420,1,4,0:0:0:0:
124,288,71942,2,0,P|172:300|220:288,1,100,8|4,0:0|0:0,0:0:0:0:
296,224,72986,1,8,0:0:0:0:
396,208,73507,1,4,0:0:0:0:
328,136,74029,38,0,P|358:97|365:48,1,100,8|4,0:0|0:0,0:0:0:0:
266,60,75073,2,0,P|235:98|228:147,1,100,8|4,0:0|0:0,0:0:0:0:
296,224,76116,1,8,0:0:0:0:
396,208,76638,2,0,P|392:260|360:303,1,100,4|8,0:0|0:0,0:0:0:0:
272,332,77681,1,4,0:0:0:0:
188,276,78203,38,0,B|201:243|201:243|108:252|80:156,1,200,2|2,0:0|0:0,0:0:0:0:
180,148,79768,1,0,0:0:0:0:
160,48,80290,2,0,B|219:40|255:80|255:80|356:92,1,200,2|2,0:0|0:0,0:0:0:0:
404,176,81855,1,2,0:0:0:0:
356,260,82377,6,0,B|262:270|262:270|226:310|166:303,1,200,2|2,0:0|0:0,0:0:0:0:
68,280,83942,1,0,0:0:0:0:
124,196,84464,2,0,P|164:168|224:168,1,100,2|0,0:0|0:0,0:0:0:0:
312,188,85507,1,2,0:0:0:0:
356,100,86029,1,2,0:0:0:0:
272,44,86551,38,0,P|224:60|172:68,1,100,2|0,0:0|0:0,0:0:0:0:
112,148,87594,2,0,P|128:196|136:248,1,100,2|0,0:0|0:0,0:0:0:0:
236,236,88638,2,0,P|220:284|212:336,2,100,2|0|2,0:0|0:0|0:0,0:0:0:0:
280,144,90203,1,2,0:0:0:0:
336,60,90725,6,0,P|368:96|380:148,1,100,2|0,0:0|0:0,0:0:0:0:
464,200,91768,2,0,P|428:232|376:244,1,100,2|0,0:0|0:0,0:0:0:0:
256,192,92812,12,4,94899,1:0:0:0:
392,292,111594,53,4,0:0:0:0:
416,196,112116,1,8,0:0:0:0:
320,220,112638,2,0,P|256:220|216:244,1,100,0|8,0:0|0:0,0:0:0:0:
152,304,113681,1,0,0:0:0:0:
88,380,114203,2,0,P|57:337|56:280,1,100,8|0,0:0|0:0,0:0:0:0:
112,212,115246,1,8,0:0:0:0:
52,132,115768,38,0,P|56:82|85:43,1,100,0|8,0:0|0:0,0:0:0:0:
152,120,116812,2,0,P|179:161|221:187,1,100,0|8,0:0|0:0,0:0:0:0:
248,92,117855,1,0,0:0:0:0:
320,164,118377,1,8,0:0:0:0:
296,260,118899,2,0,P|316:308|364:336,1,100,0|8,0:0|0:0,0:0:0:0:
456,324,119942,5,0,0:0:0:0:
392,244,120464,1,8,0:0:0:0:
428,152,120986,2,0,B|372:152|372:152|328:176,1,100,0|8,0:0|0:0,0:0:0:0:
256,236,122029,2,0,B|218:257|218:257|162:257,1,100,0|8,0:0|0:0,0:0:0:0:
84,196,123073,2,0,B|84:140|84:140|106:101,1,100,0|8,0:0|0:0,0:0:0:0:
188,156,124116,37,0,0:0:0:0:
280,116,124638,2,0,L|384:140,1,100,8|0,0:0|0:0,0:0:0:0:
440,216,125681,1,8,0:0:0:0:
348,256,126203,2,0,L|250:233,1,100,0|8,0:0|0:0,0:0:0:0:
156,208,127246,2,0,P|156:156|128:112,1,100,0|0,0:0|0:0,0:0:0:0:
60,184,128290,5,4,0:3:0:0:
88,280,128812,2,0,P|131:304|180:304,1,100,4|0,0:0|0:0,0:0:0:0:
252,236,129855,1,4,0:0:0:0:
324,308,130377,2,0,P|373:308|420:280,1,100,8|8,0:0|0:0,0:0:0:0:
348,212,131420,2,0,P|365:167|362:115,1,100,8|4,0:0|0:0,0:0:0:0:
268,148,132464,38,0,P|237:110|190:87,1,100,0|4,0:0|0:0,0:0:0:0:
164,184,133507,2,0,P|194:221|241:244,1,100,0|4,0:0|0:0,0:0:0:0:
336,220,134551,2,0,P|343:267|372:311,1,100,0|4,0:0|0:0,0:0:0:0:
432,232,135594,1,0,0:0:0:0:
396,140,136116,1,4,0:0:0:0:
296,132,136638,5,0,0:0:0:0:
240,212,137159,1,4,0:0:0:0:
284,304,137681,2,0,P|232:312|184:296,1,100,0|4,0:0|0:0,0:0:0:0:
140,212,138725,2,0,L|28:192,1,100,8|8,0:0|0:0,0:0:0:0:
104,116,139768,2,0,L|202:133,1,100,8|4,0:0|0:0,0:0:0:0:
300,116,140812,37,0,0:0:0:0:
296,216,141333,2,0,P|300:264|340:312,1,100,4|0,0:0|0:0,0:0:0:0:
428,324,142377,1,4,0:0:0:0:
388,232,142899,6,0,B|336:304|246:278|246:278|208:200|124:216,1,300,0|4,0:0|0:0,0:0:0:0:
152,312,144986,22,0,L|240:132,1,200,12|8,0:0|0:0,0:0:0:0:
216,36,146551,1,8,0:0:0:0:
312,60,147073,2,8,P|340:112|340:156,1,100
404,228,148116,2,8,P|458:249|487:283,1,100
396,328,149159,6,8,P|320:280|320:172,1,200
404,128,150725,1,8,0:0:0:0:
320,76,151246,2,0,P|273:83|234:116,1,100,8|8,0:0|0:0,0:0:0:0:
208,220,152290,2,0,P|168:196|116:196,1,100,8|8,0:0|0:0,0:0:0:0:
24,232,153333,22,8,L|48:120,1,100,8|4,0:0|0:0,0:0:0:0:
72,36,154377,2,8,P|122:67|143:111,1,100,8|4,0:0|0:0,0:0:0:0:
184,190,155420,2,8,P|226:147|236:100,1,100,8|4,0:0|0:0,0:0:0:0:
292,28,156464,2,8,P|328:75|333:124,1,100,8|4,0:0|0:0,0:0:0:0:
300,208,157507,37,8,0:0:0:0:
304,308,158029,1,4,0:0:0:0:
216,260,158551,2,8,P|170:244|108:260,1,100,8|4,0:0|0:0,0:0:0:0:
160,344,159594,1,8,0:0:0:0:
60,328,160116,2,0,L|128:140,1,200,4|4,0:0|0:0,0:0:0:0:
192,64,161681,37,2,0:0:0:0:
276,120,162203,1,0,0:0:0:0:
292,220,162725,2,0,P|300:272|284:316,1,100,2|0,0:0|0:0,0:0:0:0:
200,260,163768,2,0,B|172:332|89:334|89:334|36:305,1,200,2|2,0:0|0:0,0:0:0:0:
104,232,165333,1,2,0:0:0:0:
160,148,165855,6,0,L|220:68,1,100,2|0,0:0|0:0,0:0:0:0:
320,80,166899,2,0,L|260:160,1,100,2|0,0:0|0:0,0:0:0:0:
192,232,167942,2,0,P|296:252|360:172,1,200,2|2,0:0|0:0,0:0:0:0:
424,116,169507,1,2,0:0:0:0:
472,204,170029,38,0,L|460:308,1,100,2|0,0:0|0:0,0:0:0:0:
360,288,171073,2,0,L|297:372,1,100,2|0,0:0|0:0,0:0:0:0:
212,320,172116,2,0,L|115:361,1,100,2|0,0:0|0:0,0:0:0:0:
28,320,173159,1,2,0:0:0:0:
116,272,173681,1,2,0:0:0:0:
32,216,174203,6,0,B|65:181|65:181|132:169,1,100,2|0,0:0|0:0,0:0:0:0:
196,231,175246,2,0,B|246:222|246:222|280:187,1,100,2|0,0:0|0:0,0:0:0:0:
256,192,176290,12,4,178377,1:0:0:0:
76,216,195073,53,2,0:0:0:0:
152,280,195594,2,0,P|192:300|252:300,1,100,0|2,0:0|0:0,0:0:0:0:
348,292,196638,1,0,0:0:0:0:
408,212,197159,2,0,P|432:168|436:116,1,100,2|2,0:0|0:0,0:0:0:0:
340,96,198203,2,0,P|316:140|312:192,1,100,2|2,0:0|0:0,0:0:0:0:
340,284,199246,38,0,L|148:228,1,200,2|2,0:0|0:0,0:0:0:0:
80,156,200812,1,0,0:0:0:0:
176,124,201333,2,0,L|288:156,2,100,2|2|2,0:0|0:0|0:0,0:0:0:0:
256,308,203420,37,12,1:0:0:0:
324,236,203942,2,0,P|364:196|416:188,1,100,8|8,0:0|0:0,0:0:0:0:
464,268,204986,2,0,L|388:80,1,200,8|8,0:0|0:0,0:0:0:0:
308,24,206551,2,8,P|288:76|296:120,1,100
352,200,207594,6,0,B|384:256|360:312|360:312|284:352,1,200,8|8,0:0|0:0,0:0:0:0:
236,264,209159,1,8,0:0:0:0:
152,320,209681,1,8,0:0:0:0:
104,232,210203,2,8,B|180:196|180:196|133:146|160:76,1,200
252,124,211768,22,0,L|352:88,1,100,8|4,0:0|0:0,0:0:0:0:
416,164,212812,2,0,L|321:197,1,100,8|4,0:0|0:0,0:0:0:0:
224,224,213855,1,8,0:0:0:0:
128,252,214377,2,0,P|148:296|144:352,1,100,4|8,0:0|0:0,0:0:0:0:
52,316,215420,1,4,0:0:0:0:
36,216,215942,38,0,P|64:177|115:153,1,100,8|4,0:0|0:0,0:0:0:0:
208,132,216986,1,8,0:0:0:0:
180,228,217507,1,4,0:0:0:0:
280,208,218029,2,0,P|306:248|311:304,1,100,8|4,0:0|0:0,0:0:0:0:
212,320,219073,2,0,P|185:275|180:226,1,100,8|4,0:0|0:0,0:0:0:0:
212,136,220116,37,2,0:0:0:0:
280,208,220638,2,0,B|324:184|324:184|344:136,1,100,2|2,0:0|0:0,0:0:0:0:
376,44,221681,1,2,0:0:0:0:
280,72,222203,2,0,B|234:91|234:91|210:139,1,100,2|2,0:0|0:0,0:0:0:0:
