osu file format v9

[General]
AudioFilename: Super Junior & SNSD - Seoul Song.mp3
AudioLeadIn: 0
PreviewTime: 78626
Countdown: 1
SampleSet: Soft
StackLeniency: 0.7
Mode: 0
LetterboxInBreaks: 1

[Editor]
Bookmarks: 37528,41919,55577,108260
DistanceSpacing: 1.2
BeatDivisor: 4
GridSize: 8

[Metadata]
Title:Seoul Song
Artist:Super Junior & SNSD
Creator:Zorlok_
Version:Insane
Source:
Tags:SJ Korean RJ RandomJibberish Girls' Generation

[Difficulty]
HPDrainRate:7
CircleSize:5
OverallDifficulty:7
ApproachRate:7
SliderMultiplier:1.4
SliderTickRate:2

[Events]
//Background and Video events
0,0,"vlcsnap-2009-12-11-20h47m50s114.png"
Video,0,"Super Junior Seoul Song.avi"
//Break Periods
2,141631,147360
2,180655,191019
//Storyboard Layer 0 (Background)
//Storyboard Layer 1 (Fail)
//Storyboard Layer 2 (Pass)
//Storyboard Layer 3 (Foreground)
//Storyboard Sound Samples
//Background Colour Transformations
3,100,163,162,255

[TimingPoints]
32163,487.80487804878,4,2,0,100,1,0
69236,-50,4,2,0,100,0,0
71065,-100,4,2,0,100,0,0
78016,-100,4,1,0,100,0,0
78992,-100,4,2,0,100,0,1
86797,-100,4,2,0,100,0,0
94602,-100,4,2,0,100,0,1
102406,-133.333333333333,4,2,0,100,0,0
107406,-100,4,2,0,100,0,0
139480,-50,4,2,0,100,0,0
141431,-100,4,2,0,100,0,0
148260,-100,4,1,0,100,0,0
149236,-100,4,2,0,100,0,1
157041,-100,4,2,0,100,0,0
164845,-100,4,2,0,100,0,1
172650,-133.333333333333,4,2,0,100,0,0
176553,-133.333333333333,4,2,0,100,0,0
177041,-133.333333333333,4,2,0,100,0,0
180577,-100,4,2,0,100,0,0
193870,-100,4,2,0,100,0,0
196065,-100,4,2,0,100,0,1
203870,-100,4,2,0,100,0,0
211675,-100,4,2,0,100,0,1
219480,-100,4,2,0,100,0,0
227284,-100,4,2,0,100,0,0

[Colours]
Combo1 : 177,238,17
Combo2 : 121,188,255
Combo3 : 254,233,84
Combo4 : 201,88,250

[HitObjects]
256,192,32162,1,8
340,192,32406,1,0
364,152,32528,1,0
340,120,32650,1,8
336,40,32894,1,0
248,40,33138,1,0
208,40,33260,2,0,B|176:32|160:56,1,35
176,128,33626,1,8
344,128,34114,5,0
428,128,34358,2,0,B|460:88,2,35,8|0|8
424,208,34845,2,0,B|304:360|104:256,1,350
72,256,36187,1,0
32,240,36309,1,0
16,200,36431,1,0
32,160,36553,1,8
112,128,36797,6,0,B|176:56|240:136,1,140
304,80,37528,1,8
376,32,37772,1,0
240,136,38260,1,0
240,136,38504,2,0,B|177:167|161:263|281:319|332:205,1,280,8|0
312,168,39602,1,0
288,136,39723,1,0
288,96,39845,1,0
320,64,39967,1,4
400,48,40211,6,0,B|400:128,1,70,8|8
400,200,40699,1,0
360,200,40821,2,0,B|304:200,1,35,0|8
240,200,41187,2,0,B|160:200,1,70,0|8
88,200,41675,1,0
40,328,41919,5,2
256,32,42284,1,2
472,328,42650,1,2
256,186,43382,5,8
256,186,43870,1,8
340,187,44114,1,0
340,187,44236,1,0
340,187,44358,1,8
424,192,44602,2,0,B|471:237|396:265,1,70,0|8
357,297,45089,1,0
314,297,45211,1,0
314,297,45333,2,0,B|288:248|232:278,1,70,8|0
171,271,45821,2,0,B|132:288|112:242,1,70,8|0
186,201,46309,2,0,B|156:153|104:182,1,70,8|0
304,61,47041,6,2,B|356:80|336:136,2,70
255,193,47772,5,8
381,194,48016,1,0
381,194,48138,2,0,B|329:168|304:211,2,70,0|0|0
423,194,48748,2,0,B|478:147|426:62,1,140,8|0
344,64,49480,2,0,B|298:64,1,35
264,64,49723,1,8
136,64,50089,1,8
136,152,50333,1,0
135,153,50455,1,0
134,152,50699,2,0,B|207:223|265:214,1,140,8|0
254,214,51431,1,0
256,128,51675,5,2
256,296,52162,1,2
254,214,52406,2,0,B|328:264|360:160|472:224,1,210
440,136,53382,2,0,B|376:160|376:136|344:48|328:136|320:168|240:112,1,210
164,118,54358,5,0
164,202,54602,1,8
244,202,54845,1,0
284,202,54967,1,0
324,202,55089,1,8
408,202,55333,1,0
408,120,55577,1,8
344,64,55821,5,0
256,64,56065,1,8
168,64,56309,2,0,B|111:64,2,35
256,64,56797,2,0,B|256:146,1,70,0|8
256,216,57284,1,0
40,328,57528,5,2
256,32,57893,1,2
472,328,58259,1,2
96,56,59480,5,8
176,56,59723,2,0,B|208:24|240:64,1,70,0|8
320,59,60211,1,0
362,59,60333,1,8
256,120,60699,1,0
256,160,60821,1,0
256,200,60943,1,8
256,120,61187,1,0
254,35,61431,5,2
256,160,61797,1,2
256,288,62162,2,0,B|336:320|384:232,1,140,2|0
312,192,62894,5,8
171,190,63138,1,8
30,190,63382,1,8
93,45,63870,1,0
177,45,64114,2,0,B|307:37|343:187,1,210
418,156,65089,5,0
418,198,65211,1,0
418,240,65333,2,0,B|474:266|465:348,1,105,8|0
423,326,65821,1,8
338,326,66065,2,0,B|268:346|212:319,1,105,8|0
192,327,66553,2,0,B|148:370|73:312,1,105,8|0
95,285,67041,1,8
95,201,67284,2,0,B|52:155|93:104,1,105,8|0
133,106,67772,1,8
217,106,68016,1,0
301,106,68260,2,0,B|375:44|421:110,1,140,8|0
111,68,69236,6,2,B|178:93,2,70
102,159,69723,6,2,B|188:159,2,70
145,263,70211,6,2,B|210:210,2,70
255,325,70699,6,2,B|255:241,2,70
255,185,71187,5,4
456,32,71919,1,0
456,112,72162,2,0,B|456:168,1,35,8|0
456,232,72528,1,0
328,232,72894,2,0,B|280:272|224:224,1,105
192,232,73382,1,0
152,232,73504,1,0
112,232,73626,1,8
32,32,74114,5,6
488,32,74602,1,6
256,184,75089,5,6
424,184,75821,1,0
424,224,75943,1,0
424,264,76065,2,0,B|424:336|360:336,1,105,8|0
240,336,76797,1,0
240,168,77284,1,0
240,168,77528,1,8
240,168,77772,1,0
240,168,78016,5,0
261,131,78138,1,8
290,100,78260,1,8
330,89,78382,1,8
371,86,78504,1,0
406,107,78626,1,8
437,135,78748,1,8
459,172,78870,1,8
472,216,78992,5,12
256,216,79480,1,4
32,216,79967,5,2
32,72,80211,1,2
176,72,80455,1,2
256,216,80943,5,8
344,216,81187,1,0
384,216,81309,1,0
384,176,81431,1,8
384,88,81675,2,0,B|344:56|304:104,3,70,0|8|0|0
472,216,82894,5,6
256,216,83382,1,2
32,216,83870,5,2
32,360,84114,1,2
176,360,84358,1,2
256,216,84845,6,0,B|336:216,1,70,8|0
408,216,85333,1,8
408,128,85577,1,0
384,96,85699,1,0
344,80,85821,1,8
304,72,85943,1,0
264,80,86065,1,0
224,96,86187,1,0
192,128,86309,1,8
192,296,86797,5,4
360,288,87284,2,0,B|400:248|336:208,2,70,8|0|0
272,288,88016,1,0
192,288,88260,1,8
152,288,88382,1,0
112,288,88504,1,0
112,200,88748,1,8
112,112,88992,2,0,B|160:80|200:128,1,70,0|8
264,112,89480,1,0
344,112,89723,2,0,B|376:160|328:200,1,70,8|0
264,176,90211,2,0,B|232:208|268:241,1,70,8|0
264,320,90699,5,6
256,192,91187,12,4,92650
40,328,93138,5,2
256,32,93626,1,2
472,328,94114,1,2
256,192,94602,5,6
472,192,95089,1,2
472,32,95577,5,2
256,32,95821,1,2
40,32,96065,1,2
40,192,96553,5,8
40,192,96797,2,0,B|88:160|128:208,2,70,0|8|0
112,240,97528,2,0,B|144:264|177:235,1,70
256,240,98016,1,8
256,240,98504,5,6
256,32,98992,1,2
256,240,99480,5,2
256,136,99723,1,2
256,32,99967,1,2
416,88,100455,5,0
416,88,100577,1,0
416,88,100699,1,0
464,152,100943,2,0,B|480:192|464:232,1,70
392,192,101431,2,0,B|379:220|395:260,1,70
320,232,101919,1,0
256,128,102406,6,2,B|184:64|104:136,2,157.499995306134
256,0,104358,1,2
256,128,104845,1,2
256,251,105333,1,2
384,248,105821,2,0,B|384:288,3,26.2499992176891
384,248,106309,2,0,B|456:248|488:200,1,104.999996870756,4|0
480,152,107041,1,0
480,88,107284,1,0
256,192,107528,12,0,109723
256,184,110211,5,12
344,184,110455,2,0,B|392:184|408:144,1,70,0|8
408,72,110943,1,0
408,72,111065,1,0
408,72,111187,1,8
323,72,111431,1,0
238,72,111675,2,0,B|208:40|176:72,1,70,8|0
176,152,112162,1,2
176,280,112528,1,2
304,280,112894,1,2
432,176,113382,6,0,B|368:120,2,70,0|2|0
432,176,114114,1,8
432,256,114358,1,0
432,256,114480,2,0,B|400:224|360:264,2,70
432,256,115089,1,8
432,176,115333,1,0
352,176,115577,1,8
352,88,115821,1,0
440,88,116065,5,2
441,336,116431,1,2
200,336,116797,1,2
256,200,117284,6,0,B|320:208|320:248,2,70
256,160,117894,1,0
256,160,118016,1,8
256,80,118260,1,0
336,80,118504,1,8
336,80,118626,2,0,B|408:120|320:160,1,105,0|8
256,160,119236,1,0
256,160,119480,1,8
256,160,119723,5,0
256,248,119967,1,8
176,248,120211,1,0
176,248,120333,2,0,B|104:208|192:168,1,105
256,160,120943,1,8
48,40,121919,6,0,B|128:32|152:64,1,105,0|0
192,64,122406,1,8
272,48,122650,2,0,B|352:40|376:72,1,105
416,72,123138,1,8
416,156,123382,1,8
416,240,123626,2,0,B|304:344|80:288,1,350,0|10
256,200,125089,6,0,B|320:208|320:248,2,70
256,200,125699,1,0
256,200,125821,1,12
172,200,126065,2,0,B|132:224|100:200,1,70,0|8
108,160,126431,1,0
108,116,126553,1,0
108,72,126675,2,0,B|84:24|140:24,1,70,8|0
176,24,127041,1,0
260,24,127284,1,8
304,24,127406,1,0
348,24,127528,1,0
432,24,127772,5,2
432,328,128138,1,2
432,24,128504,1,2
256,184,129723,5,8
344,184,129967,1,0
432,184,130211,1,8
432,144,130333,1,0
432,104,130455,1,0
432,64,130577,1,0
304,64,130943,1,0
224,64,131187,2,0,B|193:95|161:63,1,70,8|0
160,152,131675,1,8
160,280,132041,1,0
288,280,132406,2,0,B|376:304|440:272,1,140
425,278,133138,5,0
425,194,133382,1,8
425,109,133626,2,0,B|345:61|273:125,1,140,8|0
208,109,134358,2,0,B|100:69|0:113,1,210
32,192,135333,5,0
76,192,135455,1,0
116,192,135577,2,0,B|164:152|212:192,1,105,8|0
252,192,136065,1,8
336,192,136309,2,0,B|424:184|424:272,1,140
339,272,137041,1,8
255,272,137284,1,0
167,272,137528,1,8
167,272,137650,1,0
167,272,137772,1,0
167,187,138016,1,8
167,103,138260,1,0
167,103,138504,2,0,B|263:63|311:127,1,140,8|0
408,96,139480,6,2,B|408:184,2,70
344,170,139967,6,2,B|344:240,2,70
279,98,140455,6,2,B|279:167,2,70
208,176,140943,6,2,B|208:246,2,70
208,176,141431,5,6
368,236,148260,5,0
394,203,148382,1,8
390,161,148504,1,8
364,127,148626,1,8
323,116,148748,1,0
283,131,148870,1,8
262,167,148992,1,8
268,208,149114,1,8
288,236,149236,5,4
120,236,149723,1,6
120,64,150211,5,2
248,80,150455,1,2
280,200,150699,1,10
112,200,151187,5,8
200,200,151431,1,0
240,200,151553,1,0
280,200,151675,1,8
280,112,151919,2,0,B|312:72|264:32,3,70,0|8|0|0
472,216,153138,5,6
256,216,153626,1,4
32,216,154114,5,2
32,360,154358,1,2
176,360,154602,1,2
256,216,155089,6,0,B|336:216,1,70,8|0
408,216,155577,1,8
408,128,155821,1,0
384,96,155943,1,0
344,80,156065,1,8
304,72,156187,1,0
264,80,156309,1,0
224,96,156431,1,0
200,128,156553,1,8
200,296,157041,5,6
32,296,157528,2,0,B|-7:274|32:234,2,70,0|8|8
32,296,158260,1,0
120,296,158504,1,8
160,296,158626,1,0
200,296,158748,1,0
200,211,158992,1,8
200,126,159236,2,0,B|240:94|288:142,1,70,0|8
348,123,159723,1,0
348,123,159967,2,0,B|380:171|332:211,1,70,8|0
267,188,160455,2,0,B|239:205|271:253,1,70,8|0
268,334,160943,5,6
256,192,161431,12,4,162894
40,328,163382,5,6
254,35,163870,1,6
472,328,164358,1,6
256,192,164845,5,6
424,192,165333,1,0
256,192,165821,1,2
256,107,166065,1,2
256,22,166309,1,2
256,192,166797,5,8
256,192,167041,2,0,B|304:160|344:208,2,70,0|8|0
256,280,167772,2,0,B|273:307|321:275,1,70,8|0
256,280,168260,1,8
88,280,168748,5,6
88,111,169236,1,2
88,280,169723,1,2
88,193,169967,1,2
176,192,170211,1,2
344,192,170699,6,0,B|379:169|427:201,1,70
496,192,171187,1,0
496,232,171309,1,0
496,272,171431,1,0
411,272,171675,2,0,B|379:296|331:264,1,70
264,272,172162,1,0
264,144,172650,6,0,B|296:88|248:40,1,105,4|0
384,56,173626,1,0
392,120,173870,1,0
456,120,174114,1,2
280,192,174845,5,0
280,192,175089,1,2
216,192,175333,1,0
216,192,175577,1,2
152,192,175821,1,0
152,192,176065,1,2
152,192,176309,1,0
152,192,176553,2,2,B|128:272|80:272,1,105
24,272,177284,1,0
56,216,177528,1,2
48,48,178992,5,2
176,48,179480,1,2
304,48,179967,1,2
368,48,180211,1,2
432,48,180455,1,6
256,192,191919,12,2,193626
256,192,193870,12,2,195821
472,216,196065,5,4
256,216,196553,1,4
32,216,197041,5,2
256,216,197284,1,2
472,216,197528,1,2
256,192,197772,12,2,199723
104,64,199967,5,4
256,216,200455,1,4
424,216,200943,5,2
339,216,201187,1,2
256,216,201431,1,2
256,48,201919,5,8
296,56,202041,1,8
336,72,202162,1,8
368,96,202284,1,0
392,128,202406,1,8
408,168,202528,1,8
416,208,202650,1,8
400,248,202772,1,0
376,288,202894,1,10
336,304,203016,1,8
296,312,203138,1,8
256,296,203260,1,0
232,264,203382,1,2
256,112,203870,5,4
192,296,204358,5,2
192,211,204602,1,0
192,127,204845,2,0,B|214:88|254:127,2,70,0|8|8
107,127,205577,1,0
22,127,205821,1,8
22,169,205943,1,0
22,211,206065,1,0
22,295,206309,1,8
104,288,206553,2,0,B|152:256|192:304,1,70,0|8
256,288,207041,1,0
256,288,207284,2,0,B|224:240|272:200,1,70,8|0
336,224,207772,2,0,B|368:192|397:222,1,70,8|0
472,183,208260,5,0
450,147,208382,1,0
416,121,208504,1,0
377,107,208626,1,0
335,98,208748,1,0
293,103,208870,1,0
252,114,208992,1,0
209,114,209114,1,0
173,91,209236,1,0
142,62,209358,1,0
102,48,209480,1,0
58,54,209602,1,0
22,75,209723,1,0
48,336,210211,5,6
480,32,210699,1,6
48,336,211187,1,6
488,88,211675,5,4
256,88,212163,1,8
32,88,212650,5,8
32,176,212894,1,0
32,264,213138,1,8
200,264,213626,5,8
240,264,213748,1,0
280,264,213870,1,0
280,176,214114,1,8
240,176,214236,1,0
200,176,214358,1,0
200,88,214602,1,8
240,88,214723,1,0
280,88,214845,1,0
360,88,215089,1,8
360,256,215577,5,6
192,256,216065,1,8
192,88,216553,1,8
224,112,216675,1,0
248,144,216797,1,0
256,184,216919,1,0
240,224,217041,1,8
320,80,217528,5,8
360,80,217650,1,0
400,80,217772,1,0
440,80,217894,1,0
480,80,218016,2,0,B|504:120|472:160,1,70,8|0
488,232,218504,2,0,B|504:288|464:320,1,70,8|0
482,299,218992,1,8
355,299,219480,6,0,B|294:336|254:296,1,104.999996870756
194,299,220211,2,2,B|146:219|208:144,1,140
384,192,221675,5,0
368,112,221919,1,2
304,56,222163,1,0
224,32,222406,1,2
144,48,222650,1,0
88,112,222894,1,2
56,192,223138,1,0
136,224,223382,1,2
136,224,223504,1,0
136,224,223626,1,0
72,280,223870,1,2
144,320,224114,1,0
144,320,224236,1,0
144,320,224358,1,2
256,360,225821,5,2
256,232,226309,1,2
256,105,226797,1,2
256,41,227041,1,0
256,41,227284,5,4
424,41,227772,1,8
424,209,228260,1,8
381,209,228382,1,0
338,209,228504,1,0
253,209,228748,1,8
168,209,228992,1,0
168,124,229236,1,8
252,124,229480,1,0
335,124,229723,1,8
335,208,229967,1,0
335,250,230089,1,0
335,292,230211,1,8
166,292,230699,1,8
166,207,230943,1,0
166,122,231187,5,12
334,122,231675,1,8
334,290,232163,1,8
334,290,232406,1,0
249,290,232650,1,8
249,290,232894,1,0
249,205,233138,1,8
249,120,233382,1,0
249,35,233626,1,8
333,35,233870,1,0
333,35,234114,1,8
333,203,234602,1,8
165,203,235089,5,12
165,34,235577,1,8
333,34,236065,1,8
375,34,236187,1,0
417,34,236309,1,0
459,34,236431,1,0
459,76,236553,1,8
459,160,236797,1,8
291,160,237284,1,8
122,160,237772,1,8
122,160,238016,1,8
122,328,238504,1,8
206,328,238748,1,0
206,243,238992,5,12
206,243,239114,1,0
206,243,239236,1,0
206,158,239480,1,8
373,158,239967,1,8
373,158,240211,1,0
373,73,240455,1,8
373,73,240699,1,0
373,73,240821,1,0
373,73,240943,5,8
288,73,241187,1,0
119,73,241675,1,0
119,157,241919,1,0
286,157,242406,1,0
454,157,242894,1,4
